osu file format v14

[General]
AudioFilename: audio.mp3
AudioLeadIn: 0
PreviewTime: 117064
Countdown: 0
SampleSet: None
StackLeniency: 0.7
Mode: 0
LetterboxInBreaks: 0
WidescreenStoryboard: 1

[Editor]
DistanceSpacing: 0.8
BeatDivisor: 4
GridSize: 8
TimelineZoom: 1.3

[Metadata]
Title:Darker Than Blood (feat. LINKIN PARK)
TitleUnicode:Darker Than Blood (feat. LINKIN PARK)
Artist:Steve Aoki
ArtistUnicode:Steve Aoki
Creator:pw384
Version:Easy
Source:
Tags:Neon Future II electronic 384059043
BeatmapID:1482904
BeatmapSetID:642888

[Difficulty]
HPDrainRate:3
CircleSize:3
OverallDifficulty:3
ApproachRate:3
SliderMultiplier:1.2
SliderTickRate:1

[Events]
//Background and Video events
0,0,"bg.jpg",0,0
//Break Periods
2,213370,218930
2,284410,286610
//Storyboard Layer 0 (Background)
//Storyboard Layer 1 (Fail)
//Storyboard Layer 2 (Pass)
//Storyboard Layer 3 (Foreground)
//Storyboard Sound Samples

[TimingPoints]
50,480,4,3,0,67,1,0
31730,-105.263157894737,4,3,0,55,0,0
32690,-111.111111111111,4,3,0,50,0,0
33650,-117.647058823529,4,3,0,45,0,0
34610,-125,4,3,0,40,0,0
35570,-133.333333333333,4,3,0,35,0,0
36530,-142.857142857143,4,3,0,30,0,0
37490,-166.666666666667,4,3,0,20,0,0
38450,-200,4,2,0,20,0,0
53570,-100,4,3,0,30,0,0
67250,-100,4,2,0,30,0,0
68690,-100,4,2,0,30,0,0
69170,-100,4,3,0,50,0,0
82610,-100,4,3,0,50,0,0
86450,-100,4,3,0,60,0,0
93170,-100,4,3,0,67,0,0
101330,-100,4,3,0,75,0,0
101810,-100,4,3,0,80,0,0
103250,-100,4,3,0,80,0,0
103730,-100,4,3,0,80,0,0
105170,-100,4,3,0,80,0,0
105650,-100,4,3,0,80,0,0
107090,-100,4,3,0,80,0,0
107570,-100,4,3,0,80,0,0
109010,-100,4,3,0,80,0,0
109490,-100,4,3,0,80,0,0
110930,-100,4,3,0,80,0,0
111410,-100,4,3,0,80,0,0
112850,-100,4,3,0,80,0,0
113330,-100,4,3,0,80,0,0
114770,-100,4,3,0,80,0,0
115250,-100,4,3,0,80,0,0
115490,-100,4,3,0,80,0,0
115730,-100,4,3,0,80,0,0
115970,-100,4,3,0,80,0,0
116210,-100,4,3,0,80,0,0
116450,-100,4,3,0,80,0,0
116690,-100,4,3,0,80,0,0
116930,-100,4,3,0,80,0,0
117170,-100,4,3,0,60,0,0
119090,-100,4,3,0,60,0,0
121010,-100,4,3,0,60,0,0
128690,-100,4,3,0,60,0,0
130610,-100,4,3,0,60,0,0
147890,-100,4,3,0,60,0,0
160850,-100,4,3,0,60,0,0
165170,-100,4,3,0,67,0,0
172850,-100,4,3,0,72,0,0
180050,-100,4,3,0,75,0,0
180530,-100,4,3,0,80,0,0
181970,-100,4,3,0,80,0,0
182450,-100,4,3,0,80,0,0
183890,-100,4,3,0,80,0,0
184370,-100,4,3,0,80,0,0
185810,-100,4,3,0,80,0,0
186290,-100,4,3,0,80,0,0
187730,-100,4,3,0,80,0,0
188210,-100,4,3,0,80,0,0
189650,-100,4,3,0,80,0,0
190130,-100,4,3,0,80,0,0
191570,-100,4,3,0,80,0,0
192050,-100,4,3,0,80,0,0
193490,-100,4,3,0,80,0,0
193970,-100,4,3,0,80,0,0
195890,-100,4,3,0,80,0,0
209330,-100,4,3,0,75,0,0
211250,-100,4,3,0,60,0,0
220850,-100,4,3,0,60,0,0
230450,-100,4,3,0,50,0,0
232370,-100,4,3,0,55,0,0
239570,-100,4,3,0,67,0,0
243890,-100,4,3,0,70,0,0
247250,-100,4,3,0,75,0,0
247730,-100,4,3,0,80,0,0
249170,-100,4,3,0,80,0,0
249650,-100,4,3,0,80,0,0
251090,-100,4,3,0,80,0,0
251570,-100,4,3,0,80,0,0
253010,-100,4,3,0,80,0,0
253490,-100,4,3,0,80,0,0
254930,-100,4,3,0,80,0,0
255410,-100,4,3,0,80,0,0
256850,-100,4,3,0,80,0,0
257330,-100,4,3,0,80,0,0
258770,-100,4,3,0,80,0,0
259250,-100,4,3,0,80,0,0
260690,-100,4,3,0,80,0,0
261170,-100,4,3,0,80,0,0
263090,-100,4,3,0,80,0,1
269330,-100,4,3,0,80,0,1
269810,-100,4,3,0,80,0,1
270290,-100,4,3,0,80,0,1
270770,-100,4,3,0,80,0,1
272210,-100,4,3,0,80,0,1
272690,-100,4,3,0,80,0,1
274130,-100,4,3,0,80,0,1
274610,-100,4,3,0,80,0,1
276050,-100,4,3,0,80,0,1
276530,-100,4,3,0,80,0,1
278450,-100,4,3,0,60,0,0
279890,-100,4,3,0,80,0,0
280370,-100,4,3,0,67,0,0

[Colours]
Combo1 : 216,216,216
Combo2 : 170,105,74
Combo3 : 120,89,54
Combo4 : 207,187,118
Combo5 : 68,68,68

[HitObjects]
168,304,50,6,0,P|256:372|344:303,1,240,4|0,3:1|0:0,0:0:0:0:
256,272,1490,1,2,0:0:0:0:
207,191,1970,2,0,P|188:136|207:80,1,120,0|2,0:0|0:0,0:0:0:0:
304,80,2930,2,0,P|323:136|304:191,1,120,0|2,0:0|0:0,0:0:0:0:
256,272,3890,6,0,B|224:288|176:288|144:256|144:256|112:224|64:224|32:240,2,240,0|0|0,0:0|0:0|0:0,0:0:0:0:
304,192,6290,1,2,0:0:0:0:
384,136,6770,2,0,P|403:191|384:247,1,120,0|2,0:0|0:0,0:0:0:0:
256,192,7730,12,2,13490,0:2:0:0:
256,191,15410,6,0,P|126:119|256:48,1,360,4|2,0:1|0:0,0:0:0:0:
320,120,17330,2,0,L|440:120,2,120,0|2|0,0:0|0:0|0:0,0:0:0:0:
256,192,18770,1,2,0:0:0:0:
192,264,19250,38,0,B|96:296|48:192|48:192|96:88|192:120,1,360,0|2,0:0|0:0,0:0:0:0:
256,192,21170,2,0,L|376:192,2,120,0|2|0,0:0|0:0|0:0,0:0:0:0:
255,192,23090,6,0,P|385:264|255:335,1,360,0|2,0:0|0:0,0:0:0:0:
192,264,25010,2,0,L|72:264,2,120,0|2|0,0:0|0:0|0:0,0:0:0:0:
256,192,26450,1,2,0:0:0:0:
320,120,26930,6,0,B|416:88|464:192|464:192|416:296|320:264,1,360,0|2,0:0|0:0,0:0:0:0:
256,192,28850,2,0,B|200:152|144:192|144:192|88:232|32:192,2,240,0|0|0,0:0|0:0|0:0,0:0:0:0:
256,192,31010,12,0,36530,0:0:0:0:
152,32,38450,38,0,P|255:83|359:31,1,240,0|0,0:0|0:0,0:0:0:0:
256,192,42290,2,0,L|256:312,2,120,0|0|0,0:0|0:0|0:0,0:0:0:0:
64,192,46130,6,0,B|152:116|256:192|256:192|360:268|448:192,1,420,0|0,0:0|0:0,0:0:0:0:
424,104,49970,6,0,P|355:192|424:280,1,240,0|0,0:0|0:0,0:0:0:0:
48,192,53810,38,0,P|32:272|48:304,1,120,4|0,0:0|0:0,0:0:0:0:
144,304,54770,2,0,P|160:224|144:192,1,120,8|0,0:0|0:0,0:0:0:0:
96,112,55730,1,8,0:0:0:0:
464,192,57650,6,0,P|480:272|464:304,1,120,8|0,0:0|0:0,0:0:0:0:
368,304,58610,2,0,P|352:224|368:192,1,120,8|0,0:0|0:0,0:0:0:0:
416,112,59570,1,8,0:0:0:0:
88,296,61490,54,0,P|139:192|87:88,2,240,8|8|8,0:0|0:0|0:0,0:0:0:0:
256,192,64370,1,8,0:0:0:0:
424,296,65330,2,0,P|372:192|424:88,2,240,8|0|0,0:0|0:0|0:0,0:0:0:0:
168,224,68690,1,2,0:0:0:0:
79,192,69170,22,0,P|168:317|255:191,1,360,4|2,0:0|0:0,0:0:0:0:
168,224,71090,2,0,P|224:288|344:224,1,240,8|0,0:0|0:0,0:0:0:0:
356,132,72530,1,2,0:0:0:0:
432,192,73010,38,0,P|343:317|256:191,1,360,4|2,0:0|0:0,0:0:0:0:
344,224,74930,2,0,P|288:288|168:224,1,240,8|0,0:0|0:0,0:0:0:0:
156,132,76370,1,2,0:0:0:0:
69,182,76850,6,0,P|123:35|256:120,1,360,4|2,0:0|0:0,0:0:0:0:
344,168,78770,2,0,P|376:184|456:168,1,120,8|2,0:0|0:0,0:0:0:0:
456,72,79730,2,0,P|424:56|344:72,1,120,0|2,0:0|0:0,0:0:0:0:
256,120,80690,6,0,P|199:250|144:119,1,360,4|2,0:0|0:0,0:0:0:0:
87,40,82610,2,0,P|199:344|312:40,1,840,8|0,0:0|0:0,0:0:0:0:
256,120,86450,37,4,0:1:0:0:
256,192,86690,12,0,92210,0:0:0:0:
256,192,94130,6,0,P|236:247|255:303,1,120,8|0,0:0|0:0,0:0:0:0:
336,248,95090,2,0,P|391:267|447:248,1,120,8|0,0:0|0:0,0:0:0:0:
392,168,96050,6,0,P|411:112|392:56,1,120,8|0,0:0|0:0,0:0:0:0:
312,112,97010,2,0,P|256:92|200:111,1,120,8|0,0:0|0:0,0:0:0:0:
120,168,97970,38,0,P|100:112|119:56,2,120,2|2|2,0:0|0:0|0:0,0:0:0:0:
56,240,99410,1,2,0:0:0:0:
88,328,99890,2,0,P|256:272|424:328,1,360,2|4,0:0|0:2,0:0:0:0:
488,248,101810,6,0,P|507:192|487:136,2,120,4|0|0,0:2|1:0|0:0,0:0:0:0:
408,192,103250,1,0,1:0:0:0:
328,248,103730,6,0,P|308:192|328:136,2,120,4|0|0,0:2|1:0|0:0,0:0:0:0:
256,312,105170,1,4,1:2:0:0:
184,248,105650,38,0,P|203:192|183:136,2,120,4|0|0,0:2|1:0|0:0,0:0:0:0:
104,192,107090,1,0,1:0:0:0:
24,248,107570,6,0,P|4:192|24:136,1,120,4|0,0:2|1:0,0:0:0:0:
88,64,108530,2,0,L|208:64,1,120,0|4,0:0|0:0,0:0:0:0:
304,64,109490,6,0,L|424:64,2,120,4|0|0,0:2|1:0|0:0,0:0:0:0:
168,192,111410,2,0,L|48:192,2,120,4|0|0,0:2|1:0|0:0,0:0:0:0:
232,264,112850,1,4,1:2:0:0:
304,328,113330,38,0,L|424:328,2,120,4|0|0,0:2|1:0|0:0,0:0:0:0:
168,192,115250,6,0,B|204:144|204:144|264:136,1,120,4|0,0:2|1:0,0:0:0:0:
344,192,116210,2,0,B|308:240|308:240|248:248,1,120,0|4,0:0|0:0,0:0:0:0:
168,192,117170,6,0,P|184:272|168:304,1,120,4|2,0:1|0:0,0:0:0:0:
72,304,118130,2,0,P|56:224|72:192,1,120,0|2,0:0|0:0,0:0:0:0:
120,112,119090,2,0,B|144:72|184:48|184:48|224:72|256:100|256:100|288:72|328:48|328:48|368:72|392:112,1,360,0|2,0:0|0:0,0:0:0:0:
440,192,121010,38,0,P|459:248|440:304,1,120,0|2,0:0|0:0,0:0:0:0:
343,303,121970,2,0,P|324:247|344:192,1,120,0|2,0:0|0:0,0:0:0:0:
392,112,122930,2,0,B|360:96|328:96|296:112|296:112|288:72|256:44|256:44|224:72|216:112|216:112|184:96|152:96|120:112,1,360,0|2,0:0|0:0,0:0:0:0:
63,192,124850,6,0,P|44:247|64:304,1,120,0|2,0:0|0:0,0:0:0:0:
144,248,125810,2,0,B|216:248|216:248|240:248|262:239,1,120,2|2,0:2|0:0,0:0:0:0:
249,144,126770,2,0,B|272:136|296:136|296:136|368:136,1,120,0|2,0:0|0:0,0:0:0:0:
448,191,127730,2,0,P|467:136|448:80,1,120,2|2,0:2|0:0,0:0:0:0:
368,136,128690,6,0,P|256:252|144:136,1,360,0|2,0:0|0:0,0:0:0:0:
64,80,130610,1,0,0:0:0:0:
136,16,132530,38,0,L|136:136,1,120,4|2,0:1|0:0,0:0:0:0:
56,192,133490,2,0,P|40:272|56:304,1,120,0|2,0:0|0:0,0:0:0:0:
136,248,134450,2,0,B|136:280|168:296|168:296|184:304|208:304|224:296|224:296|256:280|256:248|256:248|256:216|288:200|288:200|304:192|328:192|344:200|344:200|376:216|376:248,1,360,0|2,0:0|0:0,0:0:0:0:
456,303,136370,6,0,P|475:247|456:192,1,120,0|2,0:0|0:0,0:0:0:0:
376,136,137330,2,0,L|376:16,1,120,0|2,0:0|0:0,0:0:0:0:
280,16,138290,2,0,B|296:216|216:168|232:368,1,360,0|2,0:0|0:0,0:0:0:0:
143,328,140210,6,0,P|88:347|32:328,1,120,0|2,0:0|0:0,0:0:0:0:
87,247,141170,2,0,P|68:192|88:136,1,120,2|2,0:2|0:0,0:0:0:0:
88,40,142130,2,0,L|208:40,1,120,0|2,0:0|0:0,0:0:0:0:
304,40,143090,2,0,L|424:40,1,120,2|2,0:2|0:0,0:0:0:0:
424,136,144050,38,0,B|304:136|304:136|256:172|256:172|208:136|208:136|88:136,1,360,0|2,0:0|0:0,0:0:0:0:
136,216,145970,6,0,B|184:248|184:248|208:312,1,120,0|2,0:0|0:0,0:0:0:0:
306,306,146930,2,0,B|328:248|328:248|376:216,1,120,0|0,1:0|1:0,0:0:0:0:
456,160,147890,5,4,0:0:0:0:
56,192,149810,2,0,P|36:247|55:303,1,120
152,304,150770,2,0,P|171:248|152:192,1,120
104,112,151730,37,0,0:0:0:0:
456,192,153650,2,0,P|475:247|456:303,1,120
360,304,154610,2,0,P|340:248|359:192,1,120
407,111,155570,6,0,P|255:30|103:112,1,360,4|2,0:0|0:0,0:0:0:0:
104,208,157490,2,0,P|256:289|408:207,1,360,4|2,0:0|0:0,0:0:0:0:
256,192,159410,12,0,163250,0:0:0:0:
72,192,165170,6,0,P|172:256|256:192,1,240,2|2,0:0|0:0,0:0:0:0:
164,160,166610,1,2,0:0:0:0:
164,64,167090,38,0,P|264:0|348:64,1,240,2|2,0:0|0:0,0:0:0:0:
348,160,168530,1,2,0:0:0:0:
440,192,169010,6,0,P|340:256|256:192,1,240,2|2,0:0|0:0,0:0:0:0:
256,96,170450,1,2,0:0:0:0:
256,191,170930,6,0,P|164:256|72:192,1,240,2|2,0:0|0:0,0:0:0:0:
164,160,172370,1,2,0:0:0:0:
256,192,172850,38,0,P|276:247|257:303,1,120,8|2,0:0|0:0,0:0:0:0:
176,248,173810,2,0,P|121:267|65:248,1,120,8|2,0:0|0:0,0:0:0:0:
120,168,174770,6,0,P|101:112|120:56,1,120,8|2,0:0|0:0,0:0:0:0:
200,112,175730,2,0,P|256:92|312:111,1,120,8|2,0:0|0:0,0:0:0:0:
392,168,176690,6,0,P|412:112|393:56,2,120,2|2|2,0:0|0:0|0:0,0:0:0:0:
456,240,178130,1,2,0:0:0:0:
424,328,178610,38,0,P|256:272|88:328,1,360,2|4,0:0|0:2,0:0:0:0:
24,248,180530,6,0,P|5:192|25:136,2,120,4|0|0,0:2|1:0|0:0,0:0:0:0:
104,192,181970,1,0,1:0:0:0:
184,248,182450,6,0,P|204:192|184:136,2,120,4|0|0,0:2|1:0|0:0,0:0:0:0:
256,312,183890,1,4,1:2:0:0:
328,248,184370,38,0,P|309:192|329:136,2,120,4|0|0,0:2|1:0|0:0,0:0:0:0:
408,192,185810,1,0,1:0:0:0:
488,248,186290,6,0,P|508:192|488:136,1,120,4|0,0:2|1:0,0:0:0:0:
424,64,187250,2,0,L|304:64,1,120,0|4,0:0|0:0,0:0:0:0:
208,64,188210,6,0,L|88:64,2,120,4|0|0,0:2|1:0|0:0,0:0:0:0:
344,192,190130,2,0,L|464:192,2,120,4|0|0,0:2|1:0|0:0,0:0:0:0:
280,264,191570,1,4,1:2:0:0:
208,328,192050,38,0,L|88:328,2,120,4|0|0,0:2|1:0|0:0,0:0:0:0:
344,192,193970,6,0,B|308:144|308:144|248:136,1,120,4|0,0:2|1:0,0:0:0:0:
168,192,194930,2,0,B|204:240|204:240|264:248,1,120,0|4,0:0|0:0,0:0:0:0:
336,312,195890,6,0,P|456:296|392:120,1,360,4|0,0:2|1:0,0:0:0:0:
336,48,197810,2,0,B|304:80|296:112|304:152|304:152|256:198|256:198|208:152|208:152|216:112|208:80|176:48,1,360,0|0,0:0|1:0,0:0:0:0:
114,120,199730,38,0,P|29:253|176:312,1,360,4|0,0:2|1:0,0:0:0:0:
256,360,201650,2,0,B|356:192|156:192|256:24,1,360,0|0,0:0|1:0,0:0:0:0:
336,72,203570,6,0,P|456:88|392:264,1,360,4|0,0:2|1:0,0:0:0:0:
336,336,205490,2,0,B|304:304|296:272|304:232|304:232|256:186|256:186|208:232|208:232|216:272|208:304|176:336,1,360,0|0,0:0|1:0,0:0:0:0:
114,263,207410,6,0,P|29:130|176:72,1,360,4|0,0:2|1:0,0:0:0:0:
256,120,209330,2,0,B|228:184|256:236|256:236|284:288|256:352,2,240,8|8|0,0:0|0:0|0:0,0:0:0:0:
336,71,211730,38,0,P|482:130|397:263,1,360,0|4,0:0|0:2,0:0:0:0:
32,280,220850,54,0,B|56:40|56:40|160:-8|264:56|208:200|96:168|96:168|192:296,1,720,0|0,0:0|0:0,0:0:0:0:
296,128,224690,54,0,L|264:376,1,240,0|0,0:0|0:0,0:0:0:0:
385,208,226610,6,0,B|484:230|512:152|480:96|400:96,1,240,0|0,0:0|0:0,0:0:0:0:
400,96,228530,2,0,L|368:344,1,240,0|0,0:0|0:0,0:0:0:0:
208,248,230450,6,0,P|192:216|208:136,1,120,0|0,0:0|0:0,0:0:0:0:
304,136,231410,2,0,P|323:192|304:248,1,120,4|2,0:0|0:0,0:0:0:0:
256,328,232370,1,4,0:0:0:0:
96,48,234290,6,0,P|155:49|207:79,1,120,0|2,0:0|0:0,0:0:0:0:
304,79,235250,2,0,P|356:49|416:48,1,120,0|2,0:0|0:0,0:0:0:0:
488,112,236210,1,4,0:0:0:0:
416,336,238130,6,0,P|356:334|304:304,1,120,4|2,0:0|0:0,0:0:0:0:
207,304,239090,2,0,P|155:334|96:336,1,120,0|2,0:0|0:0,0:0:0:0:
48,248,240050,38,0,P|32:216|48:136,2,120,4|0|0,0:0|1:0|0:0,0:0:0:0:
128,192,241490,1,0,1:0:0:0:
120,95,241970,6,0,B|176:24|176:24|256:64|256:64|336:24|336:24|391:95,1,360,4|0,0:0|1:0,0:0:0:0:
344,176,243890,6,0,P|256:192|168:176,2,180,4|4|4,0:0|0:0|0:0,0:0:0:0:
428,232,245810,2,0,P|255:276|83:231,1,360,2|4,0:0|0:2,0:0:0:0:
48,144,247730,37,4,0:2:0:0:
64,48,248210,1,0,1:0:0:0:
160,64,248690,1,0,0:0:0:0:
352,64,249650,5,4,0:2:0:0:
448,48,250130,1,0,1:0:0:0:
464,144,250610,2,0,P|448:184|448:264,1,120,0|4,0:0|1:2,0:0:0:0:
464,352,251570,5,4,0:2:0:0:
376,320,252050,1,0,1:0:0:0:
288,288,252530,1,0,0:0:0:0:
224,96,253490,37,4,0:2:0:0:
136,64,253970,1,0,1:0:0:0:
47,32,254450,2,0,P|48:91|82:139,1,120,0|4,0:0|0:0,0:0:0:0:
168,192,255410,5,4,0:2:0:0:
82,244,255890,2,0,P|48:292|47:351,2,120,0|0|0,1:0|0:0|1:0,0:0:0:0:
136,320,257330,5,4,0:2:0:0:
224,288,257810,1,0,1:0:0:0:
304,336,258290,2,0,P|312:256|272:208,1,120,0|4,0:0|1:2,0:0:0:0:
219,159,259250,38,0,P|194:105|208:48,1,120,4|0,0:2|1:0,0:0:0:0:
288,96,260210,1,0,0:0:0:0:
376,64,260690,1,0,1:0:0:0:
464,104,261170,6,0,L|440:352,1,240,4|0,0:2|0:0,0:0:0:0:
352,312,262610,1,4,0:0:0:0:
256,304,263090,6,0,P|144:328|184:144,1,360,4|0,0:2|1:0,0:0:0:0:
227,79,265010,37,0,0:0:0:0:
134,54,265490,1,0,1:0:0:0:
159,147,265970,1,0,0:0:0:0:
184,240,266450,1,0,1:0:0:0:
256,304,266930,6,0,P|368:328|328:144,1,360,4|0,0:2|1:0,0:0:0:0:
285,79,268850,5,0,0:0:0:0:
378,54,269330,1,0,1:0:0:0:
353,147,269810,1,0,0:0:0:0:
328,240,270290,1,0,1:0:0:0:
256,304,270770,38,0,P|144:264|80:352,1,240,4|0,0:2|0:0,0:0:0:0:
176,352,272210,1,0,1:0:0:0:
256,304,272690,6,0,P|368:264|432:352,1,240,0|0,0:0|0:0,0:0:0:0:
336,352,274130,1,4,1:2:0:0:
256,304,274610,6,0,B|188:192|324:192|256:80,1,240,4|0,0:2|0:0,0:0:0:0:
160,96,276050,1,0,1:0:0:0:
144,192,276530,38,0,B|256:260|256:124|368:192,1,240,4|0,0:2|0:0,0:0:0:0:
352,288,277970,1,0,1:0:0:0:
255,304,278450,6,0,P|64:248|16:104,1,360,0|4,0:0|0:2,0:0:0:0:
56,24,280370,1,4,0:1:0:0:
256,192,280610,12,0,284210,0:0:0:0:
152,272,288050,6,0,P|255:323|359:272,2,240
256,112,290930,1,0,0:0:0:0:
360,272,291890,38,0,P|256:220|152:271,2,240
316,84,294770,2,0,L|196:84,1,120
111,136,295730,6,0,P|92:191|111:247,2,120,0|2|0,0:0|0:0|0:0,0:0:0:0:
192,192,297170,1,2,0:0:0:0:
256,264,297650,2,0,B|264:296|256:328|256:328|248:360|256:384,2,120,0|2|0,0:0|0:0|0:0,0:0:0:0:
320,192,299090,1,2,0:0:0:0:
400,247,299570,6,0,P|419:192|400:136,2,120,0|2|0,0:0|0:0|0:0,0:0:0:0:
320,304,301010,1,2,0:0:0:0:
240,248,301490,2,0,L|112:248,1,120,0|2,0:0|0:0,0:0:0:0:
40,192,302450,2,0,P|21:137|40:81,1,120,0|2,0:0|0:0,0:0:0:0:
256,192,303410,12,0,309170,0:0:0:0:
256,256,310610,38,0,L|256:328,1,60,4|2,0:0|0:0,0:0:0:0:
