osu file format v14

[General]
AudioFilename: audio.mp3
AudioLeadIn: 0
PreviewTime: 50118
Countdown: 0
SampleSet: Soft
StackLeniency: 0.4
Mode: 0
LetterboxInBreaks: 0
WidescreenStoryboard: 0

[Editor]
DistanceSpacing: 1.2
BeatDivisor: 4
GridSize: 16
TimelineZoom: 1.4

[Metadata]
Title:Tsukiakari no Michishirube
TitleUnicode:ツキアカリのミチシルベ
Artist:Stereopony
ArtistUnicode:ステレオポニー
Creator:Namki
Version:Normal
Source:DARKER THAN BLACK -流星の双子-
Tags:Gemini of the Meteor ryuusei no Loreley ~Opening Edition~ tv size
BeatmapID:1512106
BeatmapSetID:715024

[Difficulty]
HPDrainRate:4
CircleSize:3.4
OverallDifficulty:4
ApproachRate:5
SliderMultiplier:1.35
SliderTickRate:1

[Events]
//Background and Video events
0,0,"dtb.png",0,0
//Break Periods
//Storyboard Layer 0 (Background)
//Storyboard Layer 1 (Fail)
//Storyboard Layer 2 (Pass)
//Storyboard Layer 3 (Foreground)
//Storyboard Sound Samples

[TimingPoints]
194,458.015267175573,4,2,1,65,1,0
1340,458.015267175573,4,2,1,65,1,0
1340,-100,4,2,1,65,0,0
12332,-100,4,2,1,65,0,0
21950,458.015267175573,4,2,1,65,1,0
21950,-100,4,2,1,65,0,0
51262,-100,4,2,1,65,0,0
83782,-100,4,2,1,65,0,0
89278,-100,4,2,1,5,0,0

[Colours]
Combo1 : 51,102,238
Combo2 : 186,248,124
Combo3 : 45,200,251
Combo4 : 240,207,140

[HitObjects]
47,168,194,6,0,B|192:140|167:243|310:208,1,270,2|2,0:0|0:0,0:0:0:0:
379,176,1340,6,0,P|395:118|350:42,1,135,2|2,0:0|0:0,0:0:0:0:
205,19,2256,2,0,P|165:21|129:27,1,67.5,2|2,0:0|0:0,0:0:0:0:
66,63,2714,1,2,0:0:0:0:
106,133,2943,1,2,0:0:0:0:
27,274,3401,5,0,0:0:0:0:
92,321,3630,2,0,P|126:313|163:315,1,67.5,2|0,0:0|0:0,0:0:0:0:
229,355,4088,2,0,P|207:299|241:207,1,135,2|2,0:0|0:0,0:0:0:0:
285,176,4775,1,0,0:0:0:0:
354,217,5004,6,0,P|405:227|433:223,1,67.5,2|0,0:0|0:0,0:0:0:0:
401,146,5462,2,0,P|435:106|445:80,1,67.5,2|0,0:0|0:0,0:0:0:0:
364,69,5920,1,2,0:0:0:0:
204,38,6378,1,2,0:0:0:0:
136,82,6607,6,0,L|148:241,1,135,2|0,0:0|0:0,0:0:0:0:
48,345,7523,1,2,0:0:0:0:
118,304,7752,2,0,P|160:294|184:298,1,67.5,2|2,0:0|0:0,0:0:0:0:
243,243,8210,2,0,P|272:274|281:297,1,67.5,2|0,0:0|0:0,0:0:0:0:
334,357,8668,6,0,L|339:210,1,135,2|2,0:0|0:0,0:0:0:0:
435,92,9584,1,2,0:0:0:0:
435,92,9813,2,0,P|404:98|360:91,1,67.5,2|2,0:0|0:0,0:0:0:0:
320,28,10271,1,4,0:0:0:0:
253,171,10729,5,4,0:0:0:0:
282,246,10958,1,8,0:0:0:0:
237,313,11187,2,0,P|155:324|112:277,1,135,4|8,0:0|0:3,0:0:0:0:
64,233,11874,2,0,P|81:198|91:157,1,67.5,8|8,0:0|0:0,0:0:0:0:
54,97,12332,5,4,0:0:0:0:
202,32,12790,1,8,0:0:0:0:
331,129,13248,2,0,P|407:128|479:120,1,135,8|8,0:3|0:0,0:0:0:0:
498,196,13935,1,0,0:0:0:0:
455,265,14164,6,0,P|408:260|386:256,1,67.5,4|0,0:0|0:0,0:0:0:0:
316,294,14622,2,0,P|282:299|249:302,1,67.5,8|0,0:0|0:0,0:0:0:0:
180,259,15080,1,8,0:3:0:0:
114,307,15309,1,0,0:0:0:0:
57,249,15538,2,0,P|63:210|65:168,1,67.5,8|2,0:0|0:0,0:0:0:0:
28,108,15996,6,0,P|76:140|158:131,1,135,4|8,0:0|0:0,0:0:0:0:
275,31,16912,2,0,L|266:117,1,67.5,8|0,0:3|0:0,0:0:0:0:
312,165,17370,1,8,0:0:0:0:
392,156,17599,1,2,0:0:0:0:
451,210,17828,6,0,P|436:244|326:274,1,135,4|8,0:0|0:0,0:0:0:0:
304,347,18515,1,2,0:0:0:0:
240,296,18744,2,0,P|206:293|169:299,1,67.5,8|0,0:3|0:0,0:0:0:0:
101,259,19202,2,0,P|67:262|34:257,1,67.5,8|0,0:0|0:0,0:0:0:0:
21,177,19660,5,2,0:0:0:0:
73,23,20118,2,0,P|122:29|160:162,1,202.5,8|8,0:3|0:3,0:0:0:0:
87,183,21034,2,0,P|47:183|8:172,1,67.5,8|0,0:3|0:3,0:0:0:0:
188,351,21950,5,4,0:0:0:0:
339,292,22408,2,0,P|402:286|478:296,1,135,8|2,0:0|0:0,0:0:0:0:
507,221,23095,2,0,P|501:193|470:157,1,67.5,8|0,0:3|0:0,0:0:0:0:
397,152,23553,1,2,0:0:0:0:
440,83,23782,6,0,P|480:74|518:83,2,67.5,4|8|2,0:0|0:3|0:0,0:0:0:0:
397,152,24469,2,0,L|238:143,1,135,8|8,0:0|0:0,0:0:0:0:
189,180,25156,2,0,L|177:113,2,67.5,8|2|8,0:0|0:0|0:3,0:0:0:0:
62,282,26072,5,8,0:0:0:0:
142,277,26301,1,2,0:0:0:0:
180,351,26530,2,0,P|229:353|252:346,1,67.5,2|8,0:0|0:3,0:0:0:0:
309,296,26988,2,0,P|342:292|375:298,1,67.5,2|8,0:0|0:0,0:0:0:0:
441,251,27446,6,0,L|430:171,2,67.5,4|8|8,0:0|0:3|0:0,0:0:0:0:
353,114,28362,1,8,0:3:0:0:
296,172,28591,1,8,0:0:0:0:
215,166,28820,2,0,P|174:158|141:163,1,67.5,8|8,0:0|0:0,0:0:0:0:
100,226,29278,6,0,P|102:267|116:298,1,67.5,4|8,0:0|0:3,0:0:0:0:
179,335,29736,2,0,P|247:328|320:331,1,135,8|2,0:0|0:0,0:0:0:0:
383,289,30423,2,0,P|383:250|377:208,1,67.5,8|8,0:3|0:0,0:0:0:0:
441,169,30881,1,8,0:0:0:0:
412,93,31110,6,0,P|365:104|333:103,1,67.5,4|8,0:0|0:3,0:0:0:0:
276,62,31568,1,8,0:0:0:0:
205,102,31797,2,0,P|172:92|138:90,1,67.5,2|2,0:0|0:0,0:0:0:0:
35,215,32484,2,0,P|37:254|46:293,1,67.5,8|8,0:0|0:0,0:0:0:0:
97,341,32942,5,4,0:0:0:0:
163,295,33171,1,0,0:3:0:0:
233,334,33400,2,0,L|310:343,1,67.5,8|2,0:0|0:0,0:0:0:0:
378,322,33858,2,0,P|384:283|329:201,1,135,2|8,0:0|0:0,0:0:0:0:
369,130,34545,1,2,0:0:0:0:
293,101,34774,6,0,P|242:107|212:107,1,67.5,4|8,0:0|0:0,0:0:0:0:
169,165,35232,2,0,P|118:159|88:159,1,67.5,8|8,0:0|0:3,0:0:0:0:
29,122,35690,1,8,0:3:0:0:
18,202,35919,2,0,P|23:245|114:296,1,135,8|8,0:0|0:0,0:0:0:0:
173,305,36606,5,4,0:0:0:0:
326,357,37064,2,0,P|319:314|313:261,1,67.5,2|8,0:0|0:3,0:0:0:0:
349,216,37522,1,2,0:0:0:0:
425,243,37751,1,8,0:3:0:0:
482,185,37980,2,0,P|477:147|480:115,2,67.5,8|8|4,0:0|0:3|0:0,0:0:0:0:
337,112,38896,5,2,0:0:0:0:
262,142,39125,1,8,0:3:0:0:
189,105,39354,2,0,P|145:96|103:95,1,67.5,2|8,0:0|0:3,0:0:0:0:
55,140,39812,2,0,P|46:184|45:226,2,67.5,8|8|4,0:0|0:3|0:0,0:0:0:0:
204,203,40728,6,0,P|218:240|224:272,1,67.5,2|8,0:0|0:3,0:0:0:0:
180,336,41186,2,0,P|246:305|331:323,1,135,2|8,0:0|0:0,0:0:0:0:
375,352,41873,1,8,0:3:0:0:
435,297,42102,5,4,0:0:0:0:
478,140,42560,1,2,0:0:0:0:
413,188,42789,1,8,0:0:0:0:
334,169,43018,2,0,P|297:159|257:159,1,67.5,8|8,0:0|0:0,0:0:0:0:
196,119,43476,2,0,P|168:146|148:180,1,67.5,8|8,0:0|0:3,0:0:0:0:
183,245,43934,5,4,0:0:0:0:
326,320,44392,1,8,0:0:0:0:
382,262,44621,1,2,0:0:0:0:
349,187,44850,2,0,P|339:146|348:38,1,135,8|8,0:3|0:0,0:0:0:0:
269,20,45537,1,8,0:0:0:0:
216,81,45766,6,0,P|169:86|98:34,1,135,4|8,0:0|0:0,0:0:0:0:
26,71,46453,1,2,0:0:0:0:
52,147,46682,2,0,P|58:182|49:229,1,67.5,8|8,0:3|0:3,0:0:0:0:
87,287,47140,1,8,0:0:0:0:
155,242,47369,1,2,0:0:0:0:
227,277,47598,6,0,P|281:284|305:274,1,67.5,4|2,0:0|0:0,0:0:0:0:
367,250,48056,2,0,L|369:317,1,67.5,2|2,0:0|0:0,0:0:0:0:
450,317,48514,1,8,0:3:0:0:
468,238,48743,1,8,0:3:0:0:
435,163,48972,1,4,0:0:0:0:
464,87,49201,1,4,0:0:0:0:
402,34,49430,6,0,P|368:28|336:33,1,67.5,8|8,0:0|0:0,0:0:0:0:
180,79,50117,6,0,B|141:219|239:203|189:356,1,270,2|2,0:0|0:0,0:0:0:0:
272,358,51262,6,0,P|307:331|412:360,1,135,4|8,0:1|0:0,0:0:0:0:
486,208,52179,2,0,P|447:213|409:215,1,67.5,4|2,0:0|0:0,0:0:0:0:
348,174,52637,2,0,P|314:176|280:180,2,67.5,8|2|4,0:0|0:0|0:0,0:0:0:0:
204,99,53553,5,8,0:0:0:0:
151,160,53782,1,0,0:0:0:0:
179,235,54011,2,0,L|326:217,1,135,4|8,0:0|0:0,0:0:0:0:
393,207,54698,1,2,0:0:0:0:
449,148,54927,6,0,P|439:92|346:58,1,135,4|8,0:1|0:0,0:0:0:0:
240,154,55843,1,4,0:0:0:0:
122,42,56301,2,0,P|123:88|114:126,1,67.5,8|2,0:0|0:0,0:0:0:0:
59,167,56759,6,0,P|56:219|110:290,1,135,4|8,0:0|0:0,0:0:0:0:
156,344,57446,1,2,0:0:0:0:
218,292,57675,2,0,L|213:206,1,67.5,4|2,0:0|0:0,0:0:0:0:
269,165,58133,2,0,L|274:79,1,67.5,8|2,0:0|0:0,0:0:0:0:
225,31,58591,6,0,P|294:56|359:51,1,135,4|8,0:1|0:0,0:0:0:0:
468,166,59507,1,4,0:0:0:0:
405,216,59736,1,8,0:0:0:0:
330,184,59965,1,8,0:0:0:0:
273,241,60194,6,0,L|281:318,1,67.5,4|0,0:1|0:0,0:0:0:0:
206,342,60652,2,0,L|199:274,1,67.5,4|8,0:1|0:0,0:0:0:0:
166,200,61110,2,0,P|119:199|56:260,1,135,4|4,0:1|0:0,0:0:0:0:
5,193,61797,2,0,P|7:149|-2:116,1,67.5,8|8,0:0|0:0,0:0:0:0:
5,45,62255,5,4,0:1:0:0:
165,20,62713,1,8,0:0:0:0:
300,108,63171,2,0,P|351:103|374:98,1,67.5,4|0,0:0|0:0,0:0:0:0:
391,176,63629,2,0,P|357:181|324:184,1,67.5,8|0,0:0|0:0,0:0:0:0:
273,247,64087,6,0,P|220:231|122:266,1,135,4|8,0:0|0:0,0:0:0:0:
68,277,64774,1,2,0:0:0:0:
31,204,65003,2,0,L|40:126,1,67.5,8|0,0:0|0:0,0:0:0:0:
75,64,65461,1,8,0:0:0:0:
144,104,65690,1,8,0:0:0:0:
217,69,65919,6,0,P|286:58|380:67,1,135,4|8,0:1|0:0,0:0:0:0:
470,171,66835,2,0,L|462:246,1,67.5,4|2,0:0|0:0,0:0:0:0:
383,254,67293,2,0,L|390:186,1,67.5,8|2,0:0|0:0,0:0:0:0:
315,155,67751,5,4,0:0:0:0:
209,278,68209,1,8,0:0:0:0:
128,275,68438,1,4,0:0:0:0:
66,222,68667,2,0,L|64:146,1,67.5,4|2,0:0|0:0,0:0:0:0:
123,99,69125,2,0,L|121:23,1,67.5,8|0,0:0|0:0,0:0:0:0:
201,19,69583,6,0,P|230:55|328:51,1,135,4|8,0:0|0:0,0:0:0:0:
472,27,70499,2,0,P|463:95|462:174,1,135,4|8,0:0|0:0,0:0:0:0:
495,234,71186,1,2,0:0:0:0:
427,278,71415,6,0,P|428:315|416:352,2,67.5,4|0|8,0:0|0:0|0:0,0:0:0:0:
368,221,72102,1,2,0:0:0:0:
299,264,72331,2,0,P|241:263|164:234,1,135,8|4,0:0|0:1,0:0:0:0:
127,167,73018,1,0,0:0:0:0:
91,239,73247,6,0,L|91:323,1,67.5,4|0,0:1|0:0,0:0:0:0:
10,302,73705,2,0,L|10:234,1,67.5,8|0,0:0|0:0,0:0:0:0:
31,156,74163,5,4,0:0:0:0:
104,122,74392,1,8,0:0:0:0:
170,168,74621,1,8,0:0:0:0:
238,124,74850,6,0,L|243:38,1,67.5,4|0,0:1|0:0,0:0:0:0:
322,59,75308,2,0,L|318:126,1,67.5,4|8,0:1|0:0,0:0:0:0:
375,183,75766,2,0,P|424:169|497:211,1,135,4|4,0:1|0:0,0:0:0:0:
503,287,76453,2,0,L|421:289,1,67.5,8|8,0:0|0:0,0:0:0:0:
369,335,76911,5,4,0:1:0:0:
216,279,77369,1,8,0:0:0:0:
69,348,77827,2,0,P|67:274|59:190,1,135,4|8,0:0|0:0,0:0:0:0:
18,57,78743,6,0,L|94:68,1,67.5,4|0,0:0|0:0,0:0:0:0:
157,101,79201,2,0,L|223:91,1,67.5,8|0,0:0|0:0,0:0:0:0:
288,42,79659,2,0,P|347:40|406:100,1,135,4|8,0:0|0:0,0:0:0:0:
494,220,80575,6,0,L|337:219,1,135,4|8,0:1|0:0,0:0:0:0:
226,312,81491,2,0,L|212:234,1,67.5,4|0,0:0|0:0,0:0:0:0:
160,184,81950,1,8,0:0:0:0:
219,128,82179,1,2,0:0:0:0:
299,124,82408,6,0,P|332:125|374:131,1,67.5,4|8,0:0|0:0,0:0:0:0:
382,208,82866,2,0,P|348:209|314:213,1,67.5,0|4,0:0|0:0,0:0:0:0:
266,277,83324,2,0,P|231:264|127:307,1,135,8|8,0:0|0:0,0:0:0:0:
256,192,84240,12,0,89278,0:0:0:0:
