osu file format v14

[General]
AudioFilename: audio.mp3
AudioLeadIn: 0
PreviewTime: 50118
Countdown: 0
SampleSet: Soft
StackLeniency: 0.4
Mode: 0
LetterboxInBreaks: 0
WidescreenStoryboard: 0

[Editor]
DistanceSpacing: 1.1
BeatDivisor: 4
GridSize: 32
TimelineZoom: 1.4

[Metadata]
Title:Tsukiakari no Michishirube
TitleUnicode:ツキアカリのミチシルベ
Artist:Stereopony
ArtistUnicode:ステレオポニー
Creator:Namki
Version:Loreley's Easy
Source:DARKER THAN BLACK -流星の双子-
Tags:Gemini of the Meteor ryuusei no Loreley ~Opening Edition~ tv size
BeatmapID:1512079
BeatmapSetID:715024

[Difficulty]
HPDrainRate:2
CircleSize:2.8
OverallDifficulty:2
ApproachRate:3
SliderMultiplier:0.9
SliderTickRate:1

[Events]
//Background and Video events
0,0,"dtb.png",0,0
//Break Periods
//Storyboard Layer 0 (Background)
//Storyboard Layer 1 (Fail)
//Storyboard Layer 2 (Pass)
//Storyboard Layer 3 (Foreground)
//Storyboard Sound Samples

[TimingPoints]
194,458.015267175573,4,2,1,65,1,0
1340,458.015267175573,4,2,1,65,1,0
1340,-100,4,2,1,65,0,0
12332,-100,4,2,1,65,0,0
21950,458.015267175573,4,2,1,65,1,0
21950,-100,4,2,1,65,0,0
51262,-100,4,2,1,65,0,0
83782,-100,4,2,1,65,0,0
89278,-100,4,2,1,5,0,0

[Colours]
Combo1 : 51,102,238
Combo2 : 186,248,124
Combo3 : 45,200,251
Combo4 : 240,207,140

[HitObjects]
31,269,1340,6,0,P|72:246|130:251,1,90,2|2,0:0|0:0,0:0:0:0:
199,275,2256,2,0,P|268:281|331:318,1,135,2|2,0:0|0:0,0:0:0:0:
456,300,3630,1,2,0:0:0:0:
394,234,4088,2,0,B|381:191|381:191|393:122,1,90,2|2,0:0|0:0,0:0:0:0:
408,58,5004,6,0,L|281:58,1,90,2|2,0:0|0:0,0:0:0:0:
229,72,5920,2,0,L|113:71,1,90,2|2,0:0|0:0,0:0:0:0:
122,113,6607,2,0,P|130:159|113:206,1,90,2|0,0:0|0:0,0:0:0:0:
69,275,7523,2,0,P|135:242|225:257,1,135,2|2,0:0|0:0,0:0:0:0:
273,287,8668,6,0,P|347:297|386:186,1,180,2|2,0:0|0:0,0:0:0:0:
366,83,10271,2,0,L|247:93,2,90,4|4|4,0:0|0:0|0:0,0:0:0:0:
449,117,11645,2,0,P|439:165|442:236,1,90,8|8,0:3|0:0,0:0:0:0:
426,249,12332,6,0,B|365:250|365:250|314:236|314:236|208:239,2,180,4|8|4,0:0|0:3|0:0,0:0:0:0:
265,329,15080,2,0,L|144:327,1,90,8|8,0:3|0:0,0:0:0:0:
89,299,15996,6,0,B|80:242|80:242|93:204|93:204|85:99,2,180,4|8|4,0:0|0:3|0:0,0:0:0:0:
224,181,18744,2,0,P|309:166|382:229,1,180,8|2,0:3|0:0,0:0:0:0:
389,308,20118,6,0,B|337:308|337:308|291:283|291:283|248:329|248:329|123:323,1,270,8|0,0:3|0:0,0:0:0:0:
78,264,21950,5,4,0:0:0:0:
48,175,22408,2,0,P|108:125|196:174,1,180,8|8,0:0|0:0,0:0:0:0:
257,221,23782,2,0,P|329:223|406:211,2,135,4|8|8,0:0|0:0|0:0,0:0:0:0:
177,179,25614,5,8,0:3:0:0:
141,261,26072,2,0,P|160:323|280:323,1,180,8|2,0:0|0:0,0:0:0:0:
306,257,27446,2,0,P|309:165|360:52,1,180,4|8,0:0|0:3,0:0:0:0:
495,173,29278,5,4,0:0:0:0:
459,255,29736,2,0,B|415:222|367:242|367:242|326:283|261:253,1,180,8|8,0:0|0:0,0:0:0:0:
202,249,31110,2,0,P|140:267|107:349,2,135,4|2|8,0:0|0:0|0:0,0:0:0:0:
229,334,32942,6,0,L|245:120,1,180,4|2,0:0|0:0,0:0:0:0:
270,69,34316,1,8,0:0:0:0:
338,127,34774,2,0,B|395:160|490:120|490:120|458:117|409:75,1,225,4|8,0:0|0:0,0:0:0:0:
309,29,36606,5,4,0:0:0:0:
219,40,37064,2,0,L|190:244,1,180,2|8,0:0|0:0,0:0:0:0:
187,307,38438,1,4,0:0:0:0:
279,302,38896,2,0,L|308:98,1,180,2|8,0:0|0:0,0:0:0:0:
272,39,40270,5,4,0:0:0:0:
201,94,40728,2,0,L|72:102,2,90,2|2|8,0:0|0:0|0:0,0:0:0:0:
290,103,42102,2,0,P|314:141|312:195,1,90,4|2,0:0|0:0,0:0:0:0:
304,228,42789,2,0,B|308:327|308:327|352:296,1,135,8|8,0:0|0:0,0:0:0:0:
399,239,43934,5,4,0:0:0:0:
467,297,44392,2,0,B|492:242|492:242|465:110,1,180,8|8,0:0|0:0,0:0:0:0:
401,64,45766,2,0,L|300:68,1,90,4|8,0:0|0:0,0:0:0:0:
238,121,46682,2,0,L|140:126,1,90,8|8,0:3|0:0,0:0:0:0:
87,192,47598,6,0,P|83:235|97:283,1,90,4|2,0:0|0:0,0:0:0:0:
180,309,48514,2,0,B|251:301|251:301|298:321|298:321|337:297|337:297|422:309,1,225,8|8,0:3|0:0,0:0:0:0:
393,304,51262,6,0,L|408:196,1,90,4|8,0:1|0:0,0:0:0:0:
444,133,52179,2,0,B|401:126|401:126|321:142,1,90,4|8,0:0|0:0,0:0:0:0:
313,151,52866,1,2,0:0:0:0:
178,134,53553,2,0,L|185:326,1,180,8|8,0:0|0:0,0:0:0:0:
271,336,54927,6,0,P|318:314|384:338,1,90,4|8,0:1|0:0,0:0:0:0:
443,332,55843,2,0,P|483:310|505:240,1,90,4|8,0:0|0:0,0:0:0:0:
504,227,56530,1,2,0:0:0:0:
487,92,57217,2,0,P|426:112|302:96,1,180,8|8,0:0|0:0,0:0:0:0:
229,135,58591,6,0,L|215:260,2,90,4|8|4,0:1|0:0|0:0,0:0:0:0:
134,39,60194,1,4,0:1:0:0:
122,128,60652,1,4,0:1:0:0:
112,217,61110,2,0,L|95:370,1,135,4|8,0:1|0:0,0:0:0:0:
185,334,62255,6,0,B|256:335|256:335|295:350|295:350|366:348,2,180,4|4|4,0:1|0:0|0:0,0:0:0:0:
333,232,65003,1,8,0:0:0:0:
410,277,65461,1,8,0:0:0:0:
410,187,65919,6,0,L|404:76,1,90,4|8,0:1|0:0,0:0:0:0:
319,67,66836,2,0,P|280:51|233:43,1,90,4|8,0:0|0:0,0:0:0:0:
188,39,67522,1,2,0:0:0:0:
56,69,68210,2,0,P|38:150|35:263,1,180,8|8,0:0|0:0,0:0:0:0:
98,309,69584,6,0,L|187:302,1,90,4|8,0:0|0:0,0:0:0:0:
273,329,70500,2,0,P|313:307|335:237,1,90,4|8,0:0|0:0,0:0:0:0:
341,224,71186,1,2,0:0:0:0:
425,118,71873,2,0,B|343:88|343:88|254:130,1,180,8|4,0:0|0:1,0:0:0:0:
192,188,73248,6,0,L|197:316,2,90,4|8|4,0:1|0:0|0:0,0:0:0:0:
136,65,74851,1,4,0:1:0:0:
226,74,75309,1,4,0:1:0:0:
315,82,75766,2,0,L|461:92,1,135,4|8,0:1|0:0,0:0:0:0:
493,170,76911,6,0,B|455:253|532:261|464:373,2,180,4|4|4,0:1|0:0|0:0,0:0:0:0:
352,282,79659,2,0,L|241:280,1,90,4|8,0:0|0:0,0:0:0:0:
179,316,80575,6,0,B|153:229|229:231|175:111,2,180,4|4|4,0:1|0:0|0:0,0:0:0:0:
40,200,83324,1,8,0:0:0:0:
78,118,83782,1,8,0:0:0:0:
256,192,84240,12,0,89278,0:0:0:0:
