osu file format v14

[General]
AudioFilename: audio.mp3
AudioLeadIn: 0
PreviewTime: 50118
Countdown: 0
SampleSet: Soft
StackLeniency: 0.5
Mode: 0
LetterboxInBreaks: 0
WidescreenStoryboard: 0

[Editor]
DistanceSpacing: 1.2
BeatDivisor: 4
GridSize: 8
TimelineZoom: 1.4

[Metadata]
Title:Tsukiakari no Michishirube
TitleUnicode:ツキアカリのミチシルベ
Artist:Stereopony
ArtistUnicode:ステレオポニー
Creator:Namki
Version:Insane
Source:DARKER THAN BLACK -流星の双子-
Tags:Gemini of the Meteor ryuusei no Loreley ~Opening Edition~ tv size
BeatmapID:1510844
BeatmapSetID:715024

[Difficulty]
HPDrainRate:6
CircleSize:4.5
OverallDifficulty:6.5
ApproachRate:8.4
SliderMultiplier:1.9
SliderTickRate:1

[Events]
//Background and Video events
0,0,"dtb.png",0,0
//Break Periods
//Storyboard Layer 0 (Background)
//Storyboard Layer 1 (Fail)
//Storyboard Layer 2 (Pass)
//Storyboard Layer 3 (Foreground)
//Storyboard Sound Samples

[TimingPoints]
194,458.015267175573,4,2,1,65,1,0
1340,458.015267175573,4,2,1,65,1,0
1340,-133.333333333333,4,2,1,65,0,0
12332,-111.111111111111,4,2,1,65,0,0
21950,458.015267175573,4,2,1,65,1,0
21950,-133.333333333333,4,2,1,65,0,0
51262,-100,4,2,1,65,0,0
83782,-142.857142857143,4,2,1,65,0,0
89278,-100,4,2,1,5,0,0

[Colours]
Combo1 : 51,102,238
Combo2 : 186,248,124
Combo3 : 45,200,251
Combo4 : 240,207,140

[HitObjects]
48,196,194,5,2,0:0:0:0:
146,216,423,1,2,0:0:0:0:
88,301,652,5,2,0:0:0:0:
75,125,881,1,2,0:0:0:0:
96,303,1110,1,2,0:0:0:0:
219,149,1340,6,0,P|279:131|337:157,1,106.875004076958,2|0,0:0|0:0,0:0:0:0:
344,169,1798,2,0,B|335:203|335:203|355:247,1,71.2500027179719,2|0,0:0|0:0,0:0:0:0:
426,183,2256,5,2,0:0:0:0:
248,268,2485,1,2,0:0:0:0:
424,274,2714,5,2,0:0:0:0:
192,204,2943,1,2,0:0:0:0:
192,204,3401,5,0,0:0:0:0:
121,121,3630,2,0,L|112:210,1,71.2500027179719,2|0,0:0|0:0,0:0:0:0:
36,112,4088,1,2,0:0:0:0:
202,203,4317,1,2,0:0:0:0:
12,301,4546,2,0,P|45:292|86:292,1,71.2500027179719,2|0,0:0|0:0,0:0:0:0:
263,364,5004,6,0,L|254:233,1,106.875004076958,2|0,0:0|0:0,0:0:0:0:
270,224,5462,2,0,P|315:220|345:238,1,71.2500027179719,2|0,0:0|0:0,0:0:0:0:
474,136,5920,2,0,P|441:149|406:143,1,71.2500027179719,2|0,0:0|0:0,0:0:0:0:
434,48,6378,1,2,0:0:0:0:
455,233,6607,2,0,L|305:229,1,142.500005435944,2|0,0:0|0:0,0:0:0:0:
257,163,7294,1,0,0:0:0:0:
186,327,7523,5,2,0:0:0:0:
176,201,7752,1,2,0:0:0:0:
275,314,7981,1,2,0:0:0:0:
99,241,8210,2,0,L|16:247,1,71.2500027179719,2|0,0:0|0:0,0:0:0:0:
257,163,8668,6,0,P|312:164|363:170,1,106.875004076958,2|0,0:0|0:0,0:0:0:0:
397,158,9126,2,0,B|409:120|409:120|399:85,1,71.2500027179719,2|0,0:0|0:0,0:0:0:0:
488,168,9584,5,2,0:0:0:0:
293,82,9813,1,2,0:0:0:0:
485,72,10042,1,2,0:0:0:0:
381,300,10271,6,0,L|490:293,1,106.875004076958,4|0,0:0|0:0,0:0:0:0:
495,279,10729,2,0,L|495:234,1,35.625001358986,4|0,0:0|0:0,0:0:0:0:
426,156,10958,6,0,L|425:191,1,35.625001358986,8|0,0:0|0:0,0:0:0:0:
412,205,11187,2,0,L|303:198,1,106.875004076958,4|0,0:0|0:0,0:0:0:0:
227,191,11645,1,8,0:3:0:0:
36,81,11874,5,8,0:0:0:0:
85,77,11988,1,8,0:0:0:0:
135,74,12103,1,8,0:0:0:0:
184,71,12217,1,8,0:0:0:0:
231,67,12332,6,0,B|221:115|221:115|235:143|235:143|223:212,1,128.249996086121,4|0,0:0|0:0,0:0:0:0:
211,220,12790,2,0,L|122:228,1,85.4999973907472,8|0,0:0|0:0,0:0:0:0:
345,261,13248,2,0,L|430:253,1,85.4999973907472,8|0,0:3|0:0,0:0:0:0:
349,180,13706,1,8,0:0:0:0:
460,354,13935,1,0,0:0:0:0:
510,175,14164,6,0,P|510:113|503:84,1,85.4999973907472,4|0,0:0|0:0,0:0:0:0:
345,261,14622,2,0,P|337:303|339:345,1,85.4999973907472,8|0,0:0|0:0,0:0:0:0:
417,359,14965,1,2,0:0:0:0:
417,359,15080,1,8,0:3:0:0:
273,207,15309,1,0,0:0:0:0:
424,243,15538,1,8,0:0:0:0:
219,339,15767,1,2,0:0:0:0:
511,245,15996,6,0,P|475:175|384:170,1,170.999994781494,4|8,0:0|0:0,0:0:0:0:
424,243,16683,1,0,0:0:0:0:
315,117,16912,2,0,P|273:134|229:136,1,85.4999973907472,8|0,0:3|0:0,0:0:0:0:
258,36,17370,1,8,0:0:0:0:
163,224,17599,1,2,0:0:0:0:
41,40,17828,6,0,P|48:130|50:223,1,170.999994781494,4|8,0:0|0:0,0:0:0:0:
173,293,18515,1,2,0:0:0:0:
173,293,18630,1,2,0:0:0:0:
173,293,18744,2,0,B|128:274|128:274|71:289,1,85.4999973907472,8|0,0:3|0:0,0:0:0:0:
200,196,19202,2,0,B|238:166|238:166|254:109,1,85.4999973907472,8|0,0:0|0:0,0:0:0:0:
285,253,19660,6,0,P|291:301|332:343,1,85.4999973907472,2|0,0:0|0:0,0:0:0:0:
404,354,20004,1,8,0:3:0:0:
404,354,20118,2,0,L|450:349,1,42.7499986953736,8|8,0:3|0:3,0:0:0:0:
500,252,20347,2,0,L|454:247,1,42.7499986953736,8|0,0:3|0:3,0:0:0:0:
386,157,20576,5,8,0:3:0:0:
334,159,20690,1,8,0:3:0:0:
283,161,20805,1,8,0:3:0:0:
232,163,20919,1,8,0:3:0:0:
181,166,21034,1,8,0:3:0:0:
129,168,21148,1,8,0:3:0:0:
76,172,21263,6,0,P|52:167|25:159,1,42.7499986953736,0|2,0:3|0:0,0:0:0:0:
353,41,21950,6,0,L|348:119,1,71.2500027179719,4|0,0:0|0:0,0:0:0:0:
430,81,22408,1,8,0:0:0:0:
287,153,22637,2,0,L|243:153,2,35.625001358986,2|0|2,0:0|0:0|0:0,0:0:0:0:
439,73,23095,2,0,L|519:70,1,71.2500027179719,8|0,0:3|0:0,0:0:0:0:
406,201,23553,1,2,0:0:0:0:
271,144,23782,6,0,L|191:141,1,71.2500027179719,4|8,0:0|0:3,0:0:0:0:
260,68,24240,1,2,0:0:0:0:
148,240,24469,2,0,P|175:265|279:241,1,142.500005435944,8|8,0:0|0:0,0:0:0:0:
446,166,25156,1,8,0:0:0:0:
428,154,25270,1,8,0:0:0:0:
407,148,25385,2,0,P|380:150|359:156,1,35.625001358986,2|0,0:0|0:0,0:0:0:0:
276,264,25614,6,0,P|324:272|373:275,1,71.2500027179719,8|8,0:3|0:3,0:0:0:0:
247,166,26072,1,8,0:0:0:0:
157,246,26301,2,0,L|163:285,2,35.625001358986,2|0|2,0:0|0:0|0:0,0:0:0:0:
254,170,26759,1,8,0:3:0:0:
142,240,26988,1,2,0:0:0:0:
242,333,27217,1,8,0:0:0:0:
344,180,27446,6,0,P|386:172|431:180,1,71.2500027179719,4|8,0:0|0:3,0:0:0:0:
238,326,27904,2,0,L|116:321,1,106.875004076958,8|0,0:0|0:0,0:0:0:0:
95,326,28362,1,8,0:3:0:0:
14,219,28591,2,0,L|56:225,1,35.625001358986,8|0,0:0|0:0,0:0:0:0:
159,258,28820,2,0,L|143:218,1,35.625001358986,8|0,0:0|0:0,0:0:0:0:
144,98,29049,1,8,0:0:0:0:
144,98,29163,1,8,0:0:0:0:
144,98,29278,6,0,L|92:160,1,71.2500027179719,4|8,0:0|0:3,0:0:0:0:
49,76,29736,1,8,0:0:0:0:
163,226,29965,2,0,P|185:224|209:219,2,35.625001358986,2|0|2,0:0|0:0|0:0,0:0:0:0:
179,304,30423,1,8,0:3:0:0:
212,145,30652,1,8,0:0:0:0:
256,360,30881,1,8,0:0:0:0:
99,252,31110,5,4,0:0:0:0:
99,252,31339,1,8,0:3:0:0:
256,360,31568,2,0,L|339:353,2,71.2500027179719,8|2|2,0:0|0:0|0:0,0:0:0:0:
306,271,32255,1,8,0:0:0:0:
170,331,32484,1,8,0:0:0:0:
154,298,32598,1,8,0:3:0:0:
149,262,32713,1,8,0:0:0:0:
156,227,32827,1,8,0:3:0:0:
174,196,32942,6,0,L|256:200,1,71.2500027179719,4|0,0:0|0:3,0:0:0:0:
255,118,33400,1,8,0:0:0:0:
237,285,33629,1,2,0:0:0:0:
240,108,33858,1,2,0:0:0:0:
341,236,34087,5,8,0:3:0:0:
121,211,34316,2,0,L|47:218,1,71.2500027179719,8|2,0:0|0:0,0:0:0:0:
205,297,34774,5,4,0:0:0:0:
280,218,35003,2,0,L|273:161,1,35.625001358986,8|0,0:0|0:0,0:0:0:0:
199,303,35232,2,0,L|194:338,1,35.625001358986,8|0,0:0|0:0,0:0:0:0:
151,234,35461,5,8,0:3:0:0:
306,319,35690,1,8,0:3:0:0:
77,356,35919,2,0,L|70:239,1,106.875004076958,8|0,0:0|0:0,0:0:0:0:
66,175,36377,1,8,0:0:0:0:
66,175,36606,6,0,P|123:162|173:211,1,106.875004076958,4|0,0:0|0:0,0:0:0:0:
172,204,37064,2,0,L|229:200,3,35.625001358986,2|0|8|0,0:0|0:0|0:3|0:0,0:0:0:0:
281,141,37522,1,2,0:0:0:0:
230,287,37751,1,8,0:3:0:0:
208,79,37980,1,8,0:0:0:0:
299,228,38209,1,8,0:3:0:0:
352,56,38438,6,0,P|391:45|444:47,1,71.2500027179719,4|8,0:0|0:3,0:0:0:0:
264,124,38896,2,0,P|225:113|172:115,1,71.2500027179719,2|8,0:0|0:3,0:0:0:0:
132,155,39240,1,2,0:0:0:0:
132,155,39354,1,2,0:0:0:0:
213,39,39583,1,8,0:3:0:0:
221,238,39812,1,8,0:0:0:0:
129,73,40041,1,8,0:3:0:0:
86,264,40270,6,0,P|47:272|11:263,1,71.2500027179719,4|8,0:0|0:3,0:0:0:0:
221,238,40728,2,0,P|256:239|290:250,1,71.2500027179719,2|8,0:0|0:3,0:0:0:0:
179,309,41186,1,2,0:0:0:0:
242,143,41415,1,8,0:3:0:0:
253,356,41644,1,8,0:0:0:0:
151,154,41873,1,8,0:3:0:0:
379,186,42102,2,0,P|400:253|364:312,1,142.500005435944,4|2,0:0|0:0,0:0:0:0:
253,151,42789,5,8,0:0:0:0:
492,174,43018,1,8,0:0:0:0:
246,164,43247,1,8,0:0:0:0:
502,158,43476,2,0,B|527:129|527:129|501:78,1,71.2500027179719,8|8,0:0|0:3,0:0:0:0:
246,164,43934,6,0,L|256:298,1,106.875004076958,4|0,0:0|0:0,0:0:0:0:
271,301,44392,1,8,0:0:0:0:
167,201,44621,2,0,L|83:197,1,71.2500027179719,2|8,0:0|0:3,0:0:0:0:
163,121,45079,1,8,0:0:0:0:
118,298,45308,1,8,0:0:0:0:
3,183,45537,1,8,0:0:0:0:
273,159,45766,6,0,B|333:152|333:152|361:163|361:163|418:155,1,142.500005435944,4|8,0:0|0:0,0:0:0:0:
322,77,46453,1,2,0:0:0:0:
287,247,46682,2,0,L|207:240,1,71.2500027179719,8|8,0:3|0:3,0:0:0:0:
281,338,47140,1,8,0:0:0:0:
302,170,47369,1,2,0:0:0:0:
161,357,47598,6,0,P|154:303|154:271,1,71.2500027179719,4|2,0:0|0:0,0:0:0:0:
76,199,48056,2,0,P|119:165|146:149,1,71.2500027179719,2|2,0:0|0:0,0:0:0:0:
255,176,48514,5,8,0:3:0:0:
78,70,48743,1,8,0:3:0:0:
284,71,48972,5,4,0:0:0:0:
51,212,49201,1,4,0:0:0:0:
359,144,49430,5,8,0:0:0:0:
0,133,49659,1,8,0:0:0:0:
251,310,50117,5,2,0:0:0:0:
233,162,50346,1,2,0:0:0:0:
264,314,50575,1,2,0:0:0:0:
135,253,50804,5,2,0:0:0:0:
334,273,51033,1,2,0:0:0:0:
109,164,51262,6,0,P|61:196|46:279,1,142.5,4|0,0:1|0:0,0:0:0:0:
60,299,51720,2,0,L|159:297,1,95,8|2,0:0|0:0,0:0:0:0:
224,173,52179,1,4,0:0:0:0:
147,376,52408,1,2,0:0:0:0:
24,246,52637,1,8,0:0:0:0:
298,309,52866,1,2,0:0:0:0:
135,145,53095,6,0,L|33:156,1,95,4|2,0:0|0:0,0:0:0:0:
298,309,53553,2,0,L|392:298,1,95,8|0,0:0|0:0,0:0:0:0:
469,283,53896,1,2,0:0:0:0:
469,283,54011,1,4,0:0:0:0:
279,207,54240,1,2,0:0:0:0:
463,192,54469,1,8,0:0:0:0:
261,372,54698,1,2,0:0:0:0:
249,112,54927,6,0,P|313:115|373:178,1,142.5,4|0,0:1|0:0,0:0:0:0:
359,193,55385,1,8,0:0:0:0:
310,11,55614,1,2,0:0:0:0:
163,180,55843,2,0,P|122:190|64:185,1,95,4|0,0:0|0:0,0:0:0:0:
180,271,56301,1,8,0:0:0:0:
109,82,56530,1,2,0:0:0:0:
34,341,56759,6,0,L|234:344,1,190,4|8,0:0|0:0,0:0:0:0:
334,246,57446,1,2,0:0:0:0:
144,271,57675,1,4,0:0:0:0:
321,350,57904,1,2,0:0:0:0:
219,143,58133,1,8,0:0:0:0:
311,365,58362,1,2,0:0:0:0:
499,158,58591,6,0,B|445:159|445:159|412:151|412:151|356:153,1,142.5,4|0,0:1|0:0,0:0:0:0:
329,147,59049,2,0,P|321:93|334:49,1,95,8|2,0:0|0:0,0:0:0:0:
411,236,59507,1,4,0:0:0:0:
237,121,59736,1,8,0:0:0:0:
180,115,59850,1,8,0:0:0:0:
126,130,59965,1,8,0:0:0:0:
80,165,60079,1,8,0:0:0:0:
54,215,60194,6,0,L|77:362,1,142.5,4|0,0:1|0:0,0:0:0:0:
93,363,60652,2,0,L|152:352,1,47.5,4|0,0:1|0:0,0:0:0:0:
331,269,60881,6,0,L|284:277,1,47.5,8|0,0:0|0:0,0:0:0:0:
268,268,61110,2,0,L|245:127,1,142.5,4|0,0:1|0:0,0:0:0:0:
165,82,61568,1,4,0:0:0:0:
358,15,61797,5,8,0:0:0:0:
348,71,61911,1,8,0:0:0:0:
339,127,62026,2,0,B|363:135|363:135|395:131,1,47.5,8|8,0:0|0:0,0:0:0:0:
165,82,62255,6,0,P|78:73|2:159,1,190,4|8,0:1|0:0,0:0:0:0:
111,176,62942,1,2,0:0:0:0:
237,111,63171,2,0,L|246:17,1,95,4|0,0:0|0:0,0:0:0:0:
110,175,63629,2,0,L|119:270,1,95,8|0,0:0|0:0,0:0:0:0:
313,253,64087,5,4,0:0:0:0:
207,333,64316,1,2,0:0:0:0:
194,200,64545,1,8,0:0:0:0:
329,340,64774,1,2,0:0:0:0:
417,244,65003,2,0,B|371:262|371:262|316:238,1,95,8|0,0:0|0:0,0:0:0:0:
228,73,65461,1,8,0:0:0:0:
229,129,65575,1,8,0:0:0:0:
231,186,65690,1,8,0:0:0:0:
233,243,65804,1,8,0:0:0:0:
240,300,65919,6,0,P|160:280|110:324,1,142.5,4|0,0:1|0:0,0:0:0:0:
91,328,66377,2,0,B|110:282|110:282|87:241,1,95,8|0,0:0|0:0,0:0:0:0:
9,311,66835,1,4,0:0:0:0:
202,211,67064,1,2,0:0:0:0:
49,169,67293,1,8,0:0:0:0:
256,324,67522,1,2,0:0:0:0:
420,177,67751,6,0,L|317:185,1,95,4|0,0:0|0:0,0:0:0:0:
418,258,68209,1,8,0:0:0:0:
276,99,68438,1,4,0:0:0:0:
247,98,68553,1,4,0:0:0:0:
218,96,68667,1,4,0:0:0:0:
280,271,68896,1,2,0:0:0:0:
190,94,69125,2,0,L|195:-11,1,95,8|0,0:0|0:0,0:0:0:0:
280,271,69583,6,0,P|164:258|126:262,1,142.5,4|0,0:0|0:0,0:0:0:0:
115,276,70041,1,8,0:0:0:0:
202,348,70270,1,2,0:0:0:0:
44,205,70499,2,0,L|34:317,1,95,4|0,0:0|0:0,0:0:0:0:
212,175,70957,1,8,0:0:0:0:
2,130,71186,1,2,0:0:0:0:
284,260,71415,6,0,P|317:211|284:87,1,190,4|8,0:0|0:0,0:0:0:0:
212,175,72102,1,2,0:0:0:0:
359,301,72331,1,8,0:0:0:0:
362,329,72446,1,8,0:0:0:0:
378,352,72560,1,8,0:3:0:0:
212,175,72789,2,0,L|102:167,1,95,4|0,0:1|0:0,0:0:0:0:
350,325,73247,6,0,L|515:312,1,142.5,4|0,0:1|0:0,0:0:0:0:
510,292,73705,2,0,B|515:237|515:237|487:204,1,95,8|0,0:0|0:0,0:0:0:0:
363,212,74163,1,4,0:0:0:0:
463,136,74392,1,8,0:0:0:0:
463,136,74507,1,8,0:0:0:0:
463,136,74621,2,0,L|401:132,1,47.5,8|0,0:0|0:0,0:0:0:0:
363,212,74850,6,0,L|216:203,1,142.5,4|0,0:1|0:0,0:0:0:0:
197,186,75308,2,0,L|203:135,1,47.5,4|0,0:1|0:0,0:0:0:0:
91,237,75537,6,0,L|85:284,1,47.5,8|0,0:0|0:0,0:0:0:0:
105,303,75766,2,0,L|247:311,1,142.5,4|0,0:1|0:0,0:0:0:0:
353,357,76224,1,4,0:0:0:0:
459,223,76453,5,8,0:0:0:0:
402,226,76567,1,8,0:0:0:0:
345,229,76682,1,8,0:0:0:0:
288,232,76796,1,8,0:0:0:0:
230,236,76911,6,0,L|234:141,1,95,4|0,0:1|0:0,0:0:0:0:
91,275,77369,2,0,L|95:369,1,95,8|0,0:0|0:0,0:0:0:0:
141,184,77827,2,0,L|46:188,1,95,4|0,0:0|0:0,0:0:0:0:
189,323,78285,2,0,L|283:327,1,95,8|0,0:0|0:0,0:0:0:0:
397,120,78743,6,0,P|317:129|262:219,1,190,4|8,0:0|0:0,0:0:0:0:
372,225,79430,1,0,0:0:0:0:
185,107,79659,2,0,L|80:103,1,95,4|0,0:0|0:0,0:0:0:0:
189,199,80117,1,8,0:0:0:0:
48,27,80346,1,2,0:0:0:0:
17,280,80575,6,0,B|92:269|92:269|133:287|133:287|217:275,1,190,4|8,0:1|0:0,0:0:0:0:
124,364,81262,1,0,0:0:0:0:
150,183,81491,2,0,L|249:190,1,95,4|0,0:0|0:0,0:0:0:0:
155,93,81950,5,8,0:0:0:0:
284,271,82179,1,2,0:0:0:0:
253,111,82408,1,4,0:0:0:0:
36,207,82637,1,8,0:0:0:0:
260,103,82866,2,0,L|253:2,1,95,0|4,0:0|0:0,0:0:0:0:
362,144,83324,5,8,0:0:0:0:
130,92,83553,1,4,0:0:0:0:
371,152,83782,2,0,L|471:136,1,99.7499969558717,8|0,0:0|0:0,0:0:0:0:
293,171,84240,5,2,0:0:0:0:
256,192,84354,12,0,89278,0:0:0:0:
