osu file format v14

[General]
AudioFilename: audio.mp3
AudioLeadIn: 0
PreviewTime: 55751
Countdown: 0
SampleSet: Soft
StackLeniency: 0.7
Mode: 0
LetterboxInBreaks: 0
WidescreenStoryboard: 0

[Editor]
DistanceSpacing: 1.1
BeatDivisor: 4
GridSize: 16
TimelineZoom: 1.500001

[Metadata]
Title:Hitohira no Hanabira (TV Size)
TitleUnicode:ヒトヒラのハナビラ (TV Size)
Artist:Stereopony
ArtistUnicode:ステレオポニー
Creator:-Sh1n1-
Version:Easy
Source:BLEACH
Tags:shini ending ed17 akitoshi corinn laura tv size
BeatmapID:1610621
BeatmapSetID:766088

[Difficulty]
HPDrainRate:3
CircleSize:2.5
OverallDifficulty:2
ApproachRate:3
SliderMultiplier:1
SliderTickRate:1

[Events]
//Background and Video events
0,0,"StereoponyBG.jpg",0,0
//Break Periods
//Storyboard Layer 0 (Background)
//Storyboard Layer 1 (Fail)
//Storyboard Layer 2 (Pass)
//Storyboard Layer 3 (Foreground)
//Storyboard Sound Samples

[TimingPoints]
-1141,428.571428571429,4,2,1,50,1,0
5716,-100,4,2,1,60,0,1
6359,-100,4,2,1,40,0,1
6573,-100,4,2,1,60,0,1
6787,-100,4,2,1,40,0,1
7001,-100,4,2,1,60,0,1
7216,-100,4,2,1,40,0,1
7430,-100,4,2,1,60,0,1
7644,-100,4,2,1,40,0,1
7859,-100,4,2,1,60,0,1
8073,-100,4,2,1,40,0,1
8287,-100,4,2,1,60,0,1
8501,-100,4,2,1,40,0,1
8716,-100,4,2,1,60,0,1
8930,-100,4,2,1,40,0,1
9144,-100,4,2,1,60,0,1
9573,-100,4,2,1,60,0,1
9787,-100,4,2,1,40,0,1
9894,-100,4,2,1,60,0,1
10216,-100,4,2,1,40,0,1
10430,-100,4,2,1,60,0,1
10644,-100,4,2,1,40,0,1
10859,-100,4,2,1,60,0,1
11073,-100,4,2,1,40,0,1
11287,-100,4,2,1,60,0,1
11501,-100,4,2,1,40,0,1
11716,-100,4,2,1,60,0,1
11930,-100,4,2,1,40,0,1
12144,-100,4,2,1,60,0,1
12359,-100,4,2,1,40,0,1
12573,-100,4,2,1,60,0,1
13216,-100,4,2,1,40,0,1
13430,-100,4,2,1,60,0,1
13644,-100,4,2,1,40,0,1
13859,-100,4,2,1,60,0,1
14073,-100,4,2,1,40,0,1
14287,-100,4,2,1,60,0,1
14501,-100,4,2,1,40,0,1
14716,-100,4,2,1,60,0,1
14930,-100,4,2,1,40,0,1
15144,-100,4,2,1,60,0,1
15359,-100,4,2,1,40,0,1
15573,-100,4,2,1,60,0,1
15787,-100,4,2,1,40,0,1
16001,-100,4,2,1,60,0,1
16644,-100,4,2,1,40,0,1
16859,-100,4,2,1,60,0,1
17073,-100,4,2,1,40,0,1
17287,-100,4,2,1,60,0,1
17501,-100,4,2,1,40,0,1
17823,-100,4,2,1,60,0,1
19430,-100,4,2,1,40,0,0
22430,-100,4,2,1,50,0,0
25859,-100,4,2,1,50,0,0
26287,-100,4,2,1,50,0,0
54573,-100,4,2,1,50,0,0
54894,-100,4,2,1,50,0,0
57144,-100,4,2,1,60,0,1
57787,-100,4,2,1,40,0,1
58001,-100,4,2,1,60,0,1
58215,-100,4,2,1,40,0,1
58429,-100,4,2,1,60,0,1
58644,-100,4,2,1,40,0,1
58858,-100,4,2,1,60,0,1
59072,-100,4,2,1,40,0,1
59287,-100,4,2,1,60,0,1
59501,-100,4,2,1,40,0,1
59715,-100,4,2,1,60,0,1
59929,-100,4,2,1,40,0,1
60144,-100,4,2,1,60,0,1
60358,-100,4,2,1,40,0,1
60572,-100,4,2,1,60,0,1
61001,-100,4,2,1,60,0,1
61215,-100,4,2,1,40,0,1
61322,-100,4,2,1,60,0,1
61644,-100,4,2,1,40,0,1
61858,-100,4,2,1,60,0,1
62072,-100,4,2,1,40,0,1
62287,-100,4,2,1,60,0,1
62501,-100,4,2,1,40,0,1
62715,-100,4,2,1,60,0,1
62929,-100,4,2,1,40,0,1
63144,-100,4,2,1,60,0,1
63358,-100,4,2,1,40,0,1
63572,-100,4,2,1,60,0,1
63787,-100,4,2,1,40,0,1
64001,-100,4,2,1,60,0,1
64644,-100,4,2,1,40,0,1
64858,-100,4,2,1,60,0,1
65072,-100,4,2,1,40,0,1
65287,-100,4,2,1,60,0,1
65501,-100,4,2,1,40,0,1
65715,-100,4,2,1,60,0,1
65929,-100,4,2,1,40,0,1
66144,-100,4,2,1,60,0,1
66358,-100,4,2,1,40,0,1
66572,-100,4,2,1,60,0,1
66787,-100,4,2,1,40,0,1
67001,-100,4,2,1,60,0,1
67215,-100,4,2,1,40,0,1
67429,-100,4,2,1,60,0,1
68072,-100,4,2,1,40,0,1
68287,-100,4,2,1,60,0,1
68501,-100,4,2,1,40,0,1
68715,-100,4,2,1,60,0,1
68929,-100,4,2,1,40,0,1
69251,-100,4,2,1,60,0,1
70644,-100,4,2,1,60,0,0
70859,-100,4,2,1,60,0,1
71502,-100,4,2,1,40,0,1
71716,-100,4,2,1,60,0,1
71930,-100,4,2,1,40,0,1
72144,-100,4,2,1,60,0,1
72359,-100,4,2,1,40,0,1
72573,-100,4,2,1,60,0,1
72787,-100,4,2,1,40,0,1
73002,-100,4,2,1,60,0,1
73216,-100,4,2,1,40,0,1
73430,-100,4,2,1,60,0,1
73644,-100,4,2,1,40,0,1
73859,-100,4,2,1,60,0,1
74073,-100,4,2,1,40,0,1
74287,-100,4,2,1,60,0,1
74716,-100,4,2,1,60,0,1
74930,-100,4,2,1,40,0,1
75037,-100,4,2,1,60,0,1
75359,-100,4,2,1,40,0,1
75573,-100,4,2,1,60,0,1
75787,-100,4,2,1,40,0,1
76002,-100,4,2,1,60,0,1
76216,-100,4,2,1,40,0,1
76430,-100,4,2,1,60,0,1
76644,-100,4,2,1,40,0,1
76859,-100,4,2,1,60,0,1
77073,-100,4,2,1,40,0,1
77287,-100,4,2,1,60,0,1
77502,-100,4,2,1,40,0,1
77716,-100,4,2,1,60,0,1
78359,-100,4,2,1,40,0,1
78573,-100,4,2,1,60,0,1
78787,-100,4,2,1,40,0,1
79002,-100,4,2,1,60,0,1
79216,-100,4,2,1,40,0,1
79430,-100,4,2,1,60,0,1
79644,-100,4,2,1,40,0,1
79859,-100,4,2,1,60,0,1
80073,-100,4,2,1,40,0,1
80287,-100,4,2,1,60,0,1
80502,-100,4,2,1,40,0,1
80716,-100,4,2,1,60,0,1
80930,-100,4,2,1,40,0,1
81144,-100,4,2,1,60,0,1
81787,-100,4,2,1,40,0,1
82002,-100,4,2,1,60,0,1
82216,-100,4,2,1,40,0,1
82430,-100,4,2,1,60,0,1
82644,-100,4,2,1,40,0,1
82859,-100,4,2,1,60,0,1
84573,-100,4,2,1,50,0,0
88966,-100,4,2,1,5,0,0
89073,-100,4,2,1,50,0,0
89394,-100,4,2,1,5,0,0
89501,-100,4,2,1,50,0,0
89716,-100,4,2,1,45,0,0
90573,-100,4,2,1,40,0,0
91430,-100,4,2,1,30,0,0
92287,-100,4,2,1,20,0,0
93144,-100,4,2,1,10,0,0
93573,-100,4,2,1,5,0,0

[Colours]
Combo1 : 255,179,179
Combo2 : 162,198,253
Combo3 : 154,209,199
Combo4 : 255,217,179

[HitObjects]
401,194,4859,6,0,L|303:213,1,100,0|12,1:0|0:0,0:0:0:0:
226,136,5716,6,0,P|212:94|231:41,2,100,4|8|0,0:0|0:0|3:0,0:0:0:0:
303,213,7001,2,0,L|411:193,2,100,8|0|8,0:0|3:0|0:0,0:0:0:0:
233,298,8287,2,0,L|134:279,1,100,0|8,3:0|0:0,0:0:0:0:
36,328,9144,6,0,P|22:280|37:230,1,100,0|8,3:0|0:0,0:0:0:0:
119,162,10001,2,0,L|109:62,1,100,0|8,3:0|0:0,0:0:0:0:
215,30,10859,1,0,3:0:0:0:
319,62,11287,2,0,L|309:161,1,100,8|0,0:0|3:0,0:0:0:0:
301,271,12144,1,8,0:0:0:0:
205,325,12573,6,0,L|100:303,2,100,4|8|0,0:0|0:0|3:0,0:0:0:0:
301,271,13859,2,0,P|316:326|303:374,2,100,8|0|8,0:0|3:0|0:0,0:0:0:0:
213,204,15144,2,0,P|198:149|211:101,1,100,0|8,3:0|0:0,0:0:0:0:
297,45,16001,5,0,3:0:0:0:
399,86,16430,2,0,B|448:100|448:71|506:85,2,100,8|0|8,0:0|3:0|0:0,0:0:0:0:
297,45,17716,2,0,L|306:146,1,100,2|4,0:0|0:0,0:0:0:0:
399,202,18573,2,0,L|390:303,1,100,8|4,3:0|0:0,0:0:0:0:
299,363,19430,6,0,P|251:377|203:363,1,100,4|8,1:0|0:0,0:0:0:0:
132,279,20287,2,0,B|123:231|123:231|132:180,1,100,8|8,0:3|0:0,0:0:0:0:
204,97,21144,2,0,P|251:83|299:96,1,100,8|8,3:0|0:0,0:0:0:0:
370,180,22001,2,0,B|379:231|379:231|370:279,1,100,8|12,3:0|0:0,0:0:0:0:
299,363,22859,6,0,B|254:350|254:350|207:364|207:364|175:315|204:263,1,200,4|0,0:0|1:0,0:0:0:0:
264,174,24144,1,8,0:0:0:0:
323,81,24573,2,0,B|270:65|270:65|123:88,1,200,8|10,0:0|3:0,0:0:0:0:
99,193,25859,1,8,3:0:0:0:
127,299,26287,6,0,B|269:321|269:321|322:305,1,200,4|0,0:0|0:0,0:0:0:0:
264,211,27573,1,8,0:0:0:0:
235,104,28001,2,0,L|329:71,1,100,4|8,0:3|0:0,0:0:0:0:
431,28,28859,2,0,P|441:76|429:123,1,100,0|8,0:0|0:0,0:0:0:0:
350,201,29716,6,0,B|202:243|202:243|158:222,1,200,4|0,0:3|0:0,0:0:0:0:
66,165,31001,1,8,0:0:0:0:
15,263,31430,2,0,P|5:316|15:370,1,100,4|8,0:3|0:0,0:0:0:0:
122,360,32287,2,0,P|131:311|125:261,1,100,4|8,0:3|0:0,0:0:0:0:
66,165,33144,6,0,B|134:128|200:173|200:173|260:153,1,200,4|0,0:1|0:0,0:0:0:0:
359,120,34430,1,8,0:0:0:0:
457,169,34859,2,0,P|468:122|456:68,1,100,4|8,0:3|0:0,0:0:0:0:
359,120,35716,2,0,P|348:167|360:221,1,100,0|8,0:0|0:0,0:0:0:0:
407,315,36573,6,0,B|361:328|361:328|259:306|259:306|211:319,1,200,4|0,0:3|0:0,0:0:0:0:
116,370,37859,1,12,0:0:0:0:
19,318,38287,2,0,P|8:267|25:209,2,100,4|8|0,0:3|0:0|1:0,0:0:0:0:
116,370,39573,1,8,0:0:0:0:
212,318,40001,6,0,P|239:223|208:125,1,200,4|4,0:0|0:3,0:0:0:0:
140,43,41287,1,8,0:0:0:0:
248,24,41716,2,0,L|363:16,1,100,4|8,0:3|0:0,0:0:0:0:
429,91,42573,2,0,P|441:136|425:190,1,100,4|8,0:3|0:0,0:0:0:0:
343,257,43430,6,0,L|243:250,2,100,4|8|4,0:3|0:0|0:3,0:0:0:0:
435,316,44716,1,8,0:0:0:0:
509,234,45144,2,0,L|493:115,1,100,4|8,0:3|0:0,0:0:0:0:
386,122,46001,2,0,L|399:22,1,100,8|8,0:3|0:0,0:0:0:0:
289,35,46859,6,0,B|242:53|242:53|94:26,1,200,4|4,0:3|0:3,0:0:0:0:
18,105,48144,1,8,0:0:0:0:
105,172,48573,2,0,P|115:223|104:274,1,100,4|8,0:3|0:0,0:0:0:0:
70,373,49430,2,0,L|170:365,1,100,4|8,0:3|0:0,0:0:0:0:
269,318,50287,6,0,L|369:326,2,100,4|8|8,1:0|0:0|0:3,0:0:0:0:
223,217,51573,1,8,0:0:0:0:
169,121,52001,2,0,P|157:72|170:24,1,100,4|8,0:3|0:0,0:0:0:0:
280,25,52859,2,0,P|292:72|280:120,1,100,4|8,0:3|0:0,0:0:0:0:
223,217,53716,6,0,B|127:258|127:181|27:218,2,200,8|8|8,3:0|3:0|0:0,0:0:0:0:
223,217,57144,6,0,L|322:196,2,100,4|8|0,0:0|0:0|3:0,0:0:0:0:
155,129,58430,2,0,L|56:108,2,100,8|0|8,0:0|3:0|0:0,0:0:0:0:
226,45,59716,2,0,L|323:24,1,100,0|8,3:0|0:0,0:0:0:0:
410,91,60573,6,0,P|424:139|409:189,1,100,0|8,3:0|0:0,0:0:0:0:
324,254,61430,2,0,L|226:233,1,100,0|8,3:0|0:0,0:0:0:0:
143,161,62287,1,0,3:0:0:0:
48,217,62716,2,0,P|34:264|47:311,1,100,8|0,0:0|3:0,0:0:0:0:
143,366,63573,1,8,0:0:0:0:
250,344,64001,6,0,B|297:332|297:332|347:342,2,100,4|8|0,0:0|0:0|3:0,0:0:0:0:
143,366,65287,2,0,P|142:308|170:265,2,100,8|0|8,0:0|3:0|0:0,0:0:0:0:
250,344,66573,2,0,B|297:332|297:332|347:342,1,100,0|8,3:0|0:0,0:0:0:0:
373,235,67430,5,0,3:0:0:0:
394,126,67859,2,0,L|502:147,2,100,8|0|8,0:0|3:0|0:0,0:0:0:0:
303,62,69144,2,0,L|204:81,1,100,2|4,0:0|0:0,0:0:0:0:
104,36,70001,2,0,P|94:86|105:133,1,100,8|4,3:0|0:0,0:0:0:0:
152,232,70859,6,0,P|162:282|151:329,2,100,4|8|0,0:0|0:0|3:0,0:0:0:0:
104,132,72144,2,0,L|0:153,2,100,8|0|8,0:0|3:0|0:0,0:0:0:0:
188,61,73430,2,0,L|286:80,1,100,0|8,3:0|0:0,0:0:0:0:
376,142,74287,6,0,P|389:188|378:239,1,100,0|8,3:0|0:0,0:0:0:0:
286,298,75144,2,0,L|188:317,1,100,0|8,3:0|0:0,0:0:0:0:
148,214,76001,1,0,3:0:0:0:
188,112,76430,2,0,L|286:131,1,100,4|0,2:0|3:0,0:0:0:0:
375,194,77287,1,8,0:0:0:0:
451,114,77716,6,0,B|466:66|442:66|452:16,2,100,4|8|0,0:0|0:0|3:0,0:0:0:0:
375,194,79001,2,0,B|390:242|366:242|376:292,2,100,8|0|8,0:0|3:0|0:0,0:0:0:0:
286,131,80287,2,0,B|238:124|238:124|187:132,1,100,0|8,3:0|0:0,0:0:0:0:
102,201,81144,5,0,3:0:0:0:
19,127,81573,2,0,B|11:76|11:76|18:28,2,100,8|0|8,0:0|3:0|0:0,0:0:0:0:
102,201,82859,2,0,B|110:252|110:252|103:300,1,100,4|4,2:0|0:0,0:0:0:0:
197,356,83716,2,0,B|222:314|222:314|261:280,1,100,8|4,3:0|0:0,0:0:0:0:
362,232,84573,6,0,P|372:280|361:329,2,100,4|8|4,1:0|0:0|0:3,0:0:0:0:
295,145,85859,1,8,0:0:0:0:
232,54,86287,2,0,L|336:36,1,100,4|8,0:3|0:0,0:0:0:0:
439,23,87144,2,0,L|427:127,1,100,4|8,0:3|0:0,0:0:0:0:
412,231,88001,6,0,P|337:214|262:236,1,150,4|4,1:0|1:0,0:0:0:0:
192,313,89073,2,0,P|141:328|91:313,1,100,4|4,1:0|1:0,0:0:0:0:
256,192,89716,12,0,93573,0:0:0:0:
