osu file format v14

[General]
AudioFilename: audio.mp3
AudioLeadIn: 0
PreviewTime: 160016
Countdown: 0
SampleSet: Normal
StackLeniency: 0.7
Mode: 3
LetterboxInBreaks: 0
SpecialStyle: 0
WidescreenStoryboard: 1

[Editor]
DistanceSpacing: 0.8
BeatDivisor: 4
GridSize: 16
TimelineZoom: 1.2

[Metadata]
Title:Destination Moon
TitleUnicode:Destination Moon
Artist:Stereo Cube
ArtistUnicode:Stereo Cube
Creator:-MysticEyes
Version:Advanced
Source:
Tags:neuro surreal recordings ambient space future drum n bass dnb Scotty KeppSado instrumental electronic
BeatmapID:2266442
BeatmapSetID:1083536

[Difficulty]
HPDrainRate:7
CircleSize:4
OverallDifficulty:7
ApproachRate:5
SliderMultiplier:1.4
SliderTickRate:1

[Events]
//Background and Video events
0,0,"noamenbreaks.jpg",0,0
//Break Periods
//Storyboard Layer 0 (Background)
//Storyboard Layer 1 (Fail)
//Storyboard Layer 2 (Pass)
//Storyboard Layer 3 (Foreground)
//Storyboard Layer 4 (Overlay)
//Storyboard Sound Samples

[TimingPoints]
16,400,4,1,1,15,1,0
140816,-100,4,1,1,25,0,0
150416,-100,4,1,1,35,0,0
153616,-100,4,1,1,40,0,0
155216,-100,4,1,1,45,0,0
156816,-100,4,1,1,50,0,0
157616,-100,4,1,1,55,0,0
158416,-100,4,1,1,69,0,0
160016,-100,4,1,1,80,0,1
171516,-100,4,1,1,40,0,0
172816,-100,4,1,1,80,0,1
185616,-100,4,1,1,80,0,0
187216,-100,4,1,1,50,0,0
192016,-100,4,1,1,80,0,1
204816,-100,4,1,1,80,0,0
205616,-100,4,1,1,80,0,1
216816,-100,4,1,1,80,0,0

[HitObjects]
448,192,84016,5,0,0:0:0:0:
64,192,85616,1,0,0:0:0:0:
448,192,87216,1,0,0:0:0:0:
64,192,88816,1,0,0:0:0:0:
448,192,90416,1,0,0:0:0:0:
64,192,92016,1,0,0:0:0:0:
448,192,93616,1,0,0:0:0:0:
64,192,95216,1,0,0:0:0:0:
192,192,96216,1,0,0:0:0:0:
320,192,96616,1,0,0:0:0:0:
448,192,96816,1,0,0:0:0:0:
192,192,97016,1,0,0:0:0:0:
320,192,97416,1,0,0:0:0:0:
192,192,97816,1,0,0:0:0:0:
320,192,98216,1,0,0:0:0:0:
64,192,98416,1,0,0:0:0:0:
192,192,98616,1,0,0:0:0:0:
320,192,99016,1,0,0:0:0:0:
192,192,99416,1,0,0:0:0:0:
320,192,99816,1,0,0:0:0:0:
448,192,100016,1,0,0:0:0:0:
192,192,100216,1,0,0:0:0:0:
320,192,100616,1,0,0:0:0:0:
192,192,101016,1,0,0:0:0:0:
320,192,101416,1,0,0:0:0:0:
64,192,101616,1,0,0:0:0:0:
192,192,101816,1,0,0:0:0:0:
320,192,102216,1,0,0:0:0:0:
192,192,102616,1,0,0:0:0:0:
320,192,103016,1,0,0:0:0:0:
448,192,103216,1,0,0:0:0:0:
192,192,103416,1,0,0:0:0:0:
320,192,103816,1,0,0:0:0:0:
192,192,104216,1,0,0:0:0:0:
320,192,104616,1,0,0:0:0:0:
64,192,104816,1,0,0:0:0:0:
192,192,105016,1,0,0:0:0:0:
320,192,105416,1,0,0:0:0:0:
192,192,105816,1,0,0:0:0:0:
320,192,106216,1,0,0:0:0:0:
448,192,106416,1,0,0:0:0:0:
192,192,106616,1,0,0:0:0:0:
320,192,107016,1,0,0:0:0:0:
192,192,107416,1,0,0:0:0:0:
320,192,107816,1,0,0:0:0:0:
64,192,108016,1,0,0:0:0:0:
192,192,108216,1,0,0:0:0:0:
320,192,108616,1,0,0:0:0:0:
320,192,108816,1,0,0:0:0:100:startkick.wav
448,192,108816,1,0,0:0:0:0:
192,192,109016,1,0,0:0:0:0:
64,192,109216,1,0,0:0:0:100:startkick.wav
192,192,109216,1,0,0:0:0:0:
320,192,109416,1,0,0:0:0:0:
448,192,109616,1,0,0:0:0:0:
192,192,109816,1,0,0:0:0:0:
320,192,109916,1,0,0:0:0:100:startkick.wav
448,192,109916,1,0,0:0:0:0:
320,192,110216,1,0,0:0:0:100:startkick.wav
448,192,110216,1,0,0:0:0:0:
192,192,110616,1,0,0:0:0:0:
320,192,110716,1,0,0:0:0:100:startkick.wav
448,192,110716,1,0,0:0:0:0:
320,192,111016,1,0,0:0:0:100:startkick.wav
448,192,111016,1,0,0:0:0:0:
64,192,111216,1,0,0:0:0:0:
192,192,111416,1,0,0:0:0:0:
320,192,111516,1,0,0:0:0:100:startkick.wav
448,192,111516,1,0,0:0:0:0:
320,192,111816,1,0,0:0:0:100:startkick.wav
448,192,111816,1,0,0:0:0:0:
64,192,112016,1,0,0:0:0:100:startkick.wav
192,192,112016,1,0,0:0:0:0:
320,192,112216,1,0,0:0:0:0:
320,192,112416,1,0,0:0:0:100:startkick.wav
448,192,112416,1,0,0:0:0:0:
192,192,112616,1,0,0:0:0:0:
448,192,112816,1,0,0:0:0:0:
320,192,113016,1,0,0:0:0:0:
64,192,113116,1,0,0:0:0:100:startkick.wav
192,192,113116,1,0,0:0:0:0:
64,192,113416,1,0,0:0:0:100:startkick.wav
192,192,113416,1,0,0:0:0:0:
320,192,113816,1,0,0:0:0:0:
64,192,113916,1,0,0:0:0:100:startkick.wav
192,192,113916,1,0,0:0:0:0:
64,192,114216,1,0,0:0:0:100:startkick.wav
192,192,114216,1,0,0:0:0:0:
64,192,114416,1,0,0:0:0:0:
320,192,114616,1,0,0:0:0:0:
64,192,114716,1,0,0:0:0:100:startkick.wav
192,192,114716,1,0,0:0:0:0:
64,192,115016,1,0,0:0:0:100:startkick.wav
192,192,115016,1,0,0:0:0:0:
320,192,115216,1,0,0:0:0:100:startkick.wav
448,192,115216,1,0,0:0:0:0:
192,192,115416,1,0,0:0:0:0:
64,192,115616,1,0,0:0:0:100:startkick.wav
192,192,115616,1,0,0:0:0:0:
320,192,115816,1,0,0:0:0:0:
448,192,116016,1,0,0:0:0:0:
192,192,116216,1,0,0:0:0:0:
320,192,116316,1,0,0:0:0:100:startkick.wav
448,192,116316,1,0,0:0:0:0:
320,192,116616,1,0,0:0:0:100:startkick.wav
448,192,116616,1,0,0:0:0:0:
192,192,117016,1,0,0:0:0:0:
320,192,117116,1,0,0:0:0:100:startkick.wav
448,192,117116,1,0,0:0:0:0:
320,192,117416,1,0,0:0:0:100:startkick.wav
448,192,117416,1,0,0:0:0:0:
64,192,117616,1,0,0:0:0:0:
192,192,117816,1,0,0:0:0:0:
320,192,117916,1,0,0:0:0:100:startkick.wav
448,192,117916,1,0,0:0:0:0:
320,192,118216,1,0,0:0:0:100:startkick.wav
448,192,118216,1,0,0:0:0:0:
64,192,118416,1,0,0:0:0:100:startkick.wav
192,192,118416,1,0,0:0:0:0:
320,192,118616,1,0,0:0:0:0:
320,192,118816,1,0,0:0:0:100:startkick.wav
448,192,118816,1,0,0:0:0:0:
192,192,119016,1,0,0:0:0:0:
448,192,119216,1,0,0:0:0:0:
320,192,119416,1,0,0:0:0:0:
64,192,119516,1,0,0:0:0:100:startkick.wav
192,192,119516,1,0,0:0:0:0:
64,192,119816,1,0,0:0:0:100:startkick.wav
192,192,119816,1,0,0:0:0:0:
320,192,120216,1,0,0:0:0:0:
64,192,120316,1,0,0:0:0:100:startkick.wav
192,192,120316,1,0,0:0:0:0:
64,192,120616,1,0,0:0:0:100:startkick.wav
192,192,120616,1,0,0:0:0:0:
64,192,120816,1,0,0:0:0:0:
320,192,121016,1,0,0:0:0:0:
64,192,121116,1,0,0:0:0:100:startkick.wav
192,192,121116,1,0,0:0:0:0:
64,192,121416,1,0,0:0:0:100:startkick.wav
192,192,121416,1,0,0:0:0:0:
320,192,121616,128,0,121816:0:0:0:100:startkick.wav
448,192,121616,1,0,0:0:0:0:
64,192,121816,128,0,122016:0:0:0:0:
320,192,122016,128,0,122216:0:0:0:100:startkick.wav
448,192,122016,1,0,0:0:0:0:
64,192,122216,128,0,122416:0:0:0:0:
448,192,122416,1,0,0:0:0:0:
64,192,122616,128,0,122816:0:0:0:0:
320,192,122816,128,0,123016:0:0:0:0:
64,192,123016,128,0,123216:0:0:0:100:startkick.wav
448,192,123216,128,0,123416:0:0:0:0:
192,192,123416,128,0,123616:0:0:0:0:
448,192,123616,128,0,123816:0:0:0:0:
192,192,123816,128,0,124016:0:0:0:100:startkick.wav
64,192,124016,1,0,0:0:0:0:
192,192,124216,128,0,124416:0:0:0:0:
448,192,124416,128,0,124616:0:0:0:0:
192,192,124616,128,0,124816:0:0:0:100:startkick.wav
448,192,124816,128,0,125016:0:0:0:100:startkick.wav
320,192,124816,1,0,0:0:0:0:
64,192,125016,128,0,125216:0:0:0:0:
448,192,125216,128,0,125416:0:0:0:100:startkick.wav
320,192,125216,1,0,0:0:0:0:
64,192,125416,128,0,125616:0:0:0:0:
448,192,125616,1,0,0:0:0:0:
64,192,125816,128,0,126016:0:0:0:0:
320,192,126016,128,0,126216:0:0:0:0:
64,192,126216,128,0,126416:0:0:0:100:startkick.wav
192,192,126416,128,0,126616:0:0:0:0:
448,192,126616,128,0,126816:0:0:0:0:
192,192,126816,128,0,127016:0:0:0:0:
448,192,127016,128,0,127216:0:0:0:100:startkick.wav
64,192,127216,1,0,0:0:0:0:
448,192,127416,128,0,127616:0:0:0:0:
192,192,127616,128,0,127816:0:0:0:0:
448,192,127816,128,0,128016:0:0:0:100:startkick.wav
192,192,128016,1,0,0:0:0:100:startkick.wav
320,192,128016,128,0,128216:0:0:0:0:
64,192,128216,128,0,128416:0:0:0:0:
320,192,128416,128,0,128616:0:0:0:100:startkick.wav
448,192,128416,1,0,0:0:0:0:
64,192,128616,128,0,128816:0:0:0:0:
448,192,128816,1,0,0:0:0:0:
64,192,129016,128,0,129216:0:0:0:0:
320,192,129216,128,0,129416:0:0:0:0:
64,192,129416,128,0,129616:0:0:0:100:startkick.wav
448,192,129616,128,0,129816:0:0:0:0:
192,192,129816,128,0,130016:0:0:0:0:
448,192,130016,128,0,130216:0:0:0:0:
192,192,130216,128,0,130416:0:0:0:100:startkick.wav
64,192,130416,1,0,0:0:0:0:
192,192,130616,128,0,130816:0:0:0:0:
448,192,130816,128,0,131016:0:0:0:0:
192,192,131016,128,0,131216:0:0:0:100:startkick.wav
448,192,131216,128,0,131416:0:0:0:100:startkick.wav
320,192,131216,1,0,0:0:0:0:
64,192,131416,128,0,131616:0:0:0:0:
448,192,131616,128,0,131816:0:0:0:100:startkick.wav
320,192,131616,1,0,0:0:0:0:
64,192,131816,128,0,132016:0:0:0:0:
448,192,132016,1,0,0:0:0:0:
64,192,132216,128,0,132416:0:0:0:0:
448,192,132416,128,0,132616:0:0:0:0:
64,192,132616,128,0,132816:0:0:0:100:startkick.wav
192,192,132816,128,0,133016:0:0:0:0:
448,192,133016,128,0,133216:0:0:0:0:
192,192,133216,128,0,133416:0:0:0:0:
448,192,133416,128,0,133616:0:0:0:100:startkick.wav
64,192,133616,1,0,0:0:0:0:
448,192,133816,128,0,134016:0:0:0:0:
192,192,134016,128,0,134216:0:0:0:0:
448,192,134216,128,0,134416:0:0:0:100:startkick.wav
192,192,134416,1,0,0:0:0:100:startkick.wav
320,192,134416,128,0,134616:0:0:0:0:
64,192,134616,128,0,134816:0:0:0:0:
320,192,134816,128,0,135016:0:0:0:100:startkick.wav
448,192,134816,1,0,0:0:0:0:
64,192,135016,128,0,135216:0:0:0:0:
448,192,135216,1,0,0:0:0:0:
64,192,135416,128,0,135616:0:0:0:0:
192,192,135616,128,0,135816:0:0:0:0:
320,192,135816,128,0,136016:0:0:0:100:startkick.wav
448,192,136016,128,0,136216:0:0:0:0:
192,192,136216,128,0,136416:0:0:0:0:
448,192,136416,128,0,136616:0:0:0:0:
192,192,136616,128,0,136816:0:0:0:100:startkick.wav
64,192,136816,1,0,0:0:0:0:
320,192,137016,128,0,137216:0:0:0:0:
448,192,137216,128,0,137416:0:0:0:0:
64,192,137416,128,0,137616:0:0:0:100:startkick.wav
320,192,137616,128,0,137816:0:0:0:100:startkick.wav
448,192,137616,1,0,0:0:0:0:
192,192,137816,128,0,138016:0:0:0:0:
320,192,138016,128,0,138216:0:0:0:100:startkick.wav
448,192,138016,1,0,0:0:0:0:
192,192,138216,128,0,138416:0:0:0:0:
448,192,138416,1,0,0:0:0:0:
64,192,138616,128,0,138816:0:0:0:0:
320,192,138816,128,0,139016:0:0:0:0:
448,192,139016,128,0,139216:0:0:0:100:startkick.wav
64,192,139216,128,0,139416:0:0:0:0:
448,192,139416,128,0,139616:0:0:0:0:
64,192,139616,128,0,139816:0:0:0:0:
448,192,139816,128,0,140016:0:0:0:100:startkick.wav
64,192,140016,1,0,0:0:0:0:
320,192,140216,128,0,140416:0:0:0:0:
192,192,140416,128,0,140616:0:0:0:0:
64,192,140616,128,0,140816:0:0:0:100:startkick.wav
320,192,140816,128,0,141016:0:0:0:100:startkick.wav
448,192,140816,1,0,0:0:0:0:
64,192,141016,128,0,141216:0:0:0:0:
320,192,141216,128,0,141416:0:0:0:100:startkick.wav
448,192,141216,1,0,0:0:0:0:
64,192,141416,128,0,141616:0:0:0:0:
448,192,141616,1,0,0:0:0:0:
64,192,141816,128,0,142016:0:0:0:0:
192,192,142016,128,0,142216:0:0:0:0:
320,192,142216,128,0,142416:0:0:0:100:startkick.wav
448,192,142416,128,0,142616:0:0:0:0:
192,192,142616,128,0,142816:0:0:0:0:
448,192,142816,128,0,143016:0:0:0:0:
192,192,143016,128,0,143216:0:0:0:100:startkick.wav
64,192,143216,1,0,0:0:0:0:
320,192,143416,128,0,143616:0:0:0:0:
448,192,143616,128,0,143816:0:0:0:0:
64,192,143816,128,0,144016:0:0:0:100:startkick.wav
320,192,144016,128,0,144216:0:0:0:100:startkick.wav
448,192,144016,1,0,0:0:0:0:
192,192,144216,128,0,144416:0:0:0:0:
320,192,144416,128,0,144616:0:0:0:100:startkick.wav
448,192,144416,1,0,0:0:0:0:
192,192,144616,128,0,144816:0:0:0:0:
448,192,144816,1,0,0:0:0:0:
64,192,145016,128,0,145216:0:0:0:0:
192,192,145216,128,0,145416:0:0:0:0:
448,192,145416,128,0,145616:0:0:0:100:startkick.wav
64,192,145616,128,0,145816:0:0:0:0:
448,192,145816,128,0,146016:0:0:0:0:
64,192,146016,128,0,146216:0:0:0:0:
448,192,146216,128,0,146416:0:0:0:100:startkick.wav
64,192,146416,1,0,0:0:0:0:
192,192,146616,128,0,146816:0:0:0:0:
320,192,146816,128,0,147016:0:0:0:0:
448,192,147016,128,0,147216:0:0:0:100:startkick.wav
64,192,147216,1,0,0:0:0:100:startkick.wav
192,192,147216,128,0,147416:0:0:0:0:
448,192,147416,128,0,147616:0:0:0:0:
64,192,147616,1,0,0:0:0:100:startkick.wav
192,192,147616,128,0,147816:0:0:0:0:
448,192,147816,128,0,148016:0:0:0:0:
192,192,148016,128,0,148216:0:0:0:100:startkick.wav
320,192,148016,1,0,0:0:0:0:
64,192,148216,128,0,148416:0:0:0:0:
192,192,148416,128,0,148616:0:0:0:100:startkick.wav
448,192,148416,1,0,0:0:0:0:
320,192,148616,128,0,148816:0:0:0:0:
192,192,148816,1,0,0:0:0:100:startkick.wav
64,192,148816,128,0,149016:0:0:0:0:
320,192,149016,128,0,149216:0:0:0:0:
192,192,149216,1,0,0:0:0:100:startkick.wav
64,192,149216,128,0,149416:0:0:0:0:
320,192,149416,128,0,149616:0:0:0:0:
192,192,149616,1,0,0:0:0:100:startkick.wav
64,192,149616,128,0,149816:0:0:0:0:
320,192,149816,128,0,150016:0:0:0:0:
192,192,150016,1,0,0:0:0:100:startkick.wav
448,192,150016,128,0,150216:0:0:0:0:
64,192,150216,128,0,150416:0:0:0:0:
320,192,150416,1,0,0:0:0:100:startkick.wav
448,192,150416,128,0,150616:0:0:0:0:
64,192,150616,128,0,150816:0:0:0:0:
320,192,150816,1,0,0:0:0:100:startkick.wav
448,192,150816,128,0,151016:0:0:0:0:
64,192,151016,128,0,151216:0:0:0:0:
320,192,151216,1,0,0:0:0:100:startkick.wav
448,192,151216,128,0,151416:0:0:0:0:
64,192,151416,128,0,151616:0:0:0:0:
192,192,151616,1,0,0:0:0:100:startkick.wav
320,192,151616,128,0,151816:0:0:0:0:
448,192,151816,128,0,152016:0:0:0:0:
192,192,152016,128,0,152216:0:0:0:100:startkick.wav
64,192,152016,1,0,0:0:0:0:
320,192,152216,128,0,152416:0:0:0:0:
192,192,152416,128,0,152616:0:0:0:100:startkick.wav
64,192,152416,1,0,0:0:0:0:
320,192,152616,128,0,152816:0:0:0:0:
192,192,152816,128,0,153016:0:0:0:100:startkick.wav
64,192,152816,1,0,0:0:0:0:
320,192,153016,128,0,153216:0:0:0:0:
192,192,153216,128,0,153416:0:0:0:100:startkick.wav
64,192,153216,1,0,0:0:0:0:
64,192,153416,128,0,153616:0:0:0:0:
192,192,153616,128,0,153816:0:0:0:100:startkick.wav
320,192,153616,1,0,0:0:0:0:
448,192,153816,128,0,154016:0:0:0:0:
64,192,154016,1,0,0:0:0:100:startkick.wav
192,192,154016,128,0,154216:0:0:0:0:
448,192,154216,128,0,154416:0:0:0:0:
192,192,154416,128,0,154616:0:0:0:100:startkick.wav
320,192,154416,1,0,0:0:0:0:
64,192,154616,128,0,154816:0:0:0:0:
192,192,154816,128,0,155016:0:0:0:100:startkick.wav
448,192,154816,1,0,0:0:0:0:
320,192,155016,128,0,155216:0:0:0:0:
64,192,155216,128,0,155416:0:0:0:100:startkick.wav
192,192,155216,1,0,0:0:0:0:
448,192,155416,128,0,155616:0:0:0:0:
64,192,155616,128,0,155816:0:0:0:100:startkick.wav
192,192,155616,1,0,0:0:0:0:
448,192,155816,128,0,156016:0:0:0:0:
192,192,156016,1,0,0:0:0:100:startkick.wav
320,192,156016,128,0,156216:0:0:0:0:
64,192,156216,128,0,156416:0:0:0:0:
320,192,156416,128,0,156616:0:0:0:100:startkick.wav
448,192,156416,1,0,0:0:0:0:
64,192,156616,128,0,156816:0:0:0:0:
192,192,156816,128,0,157016:0:0:0:100:startkick.wav
320,192,156816,1,0,0:0:0:0:
448,192,157016,128,0,157216:0:0:0:0:
64,192,157216,1,0,0:0:0:100:startkick.wav
192,192,157216,128,0,157416:0:0:0:0:
448,192,157416,128,0,157616:0:0:0:0:
64,192,157616,1,0,0:0:0:100:startkick.wav
320,192,157616,128,0,157816:0:0:0:50:raresnare.wav
192,192,157816,128,0,158016:0:0:0:0:
320,192,158016,128,0,158216:0:0:0:100:startkick.wav
448,192,158016,1,0,0:0:0:0:
192,192,158216,128,0,158416:0:0:0:50:raresnare.wav
64,192,158416,128,0,158616:0:0:0:100:startkick.wav
320,192,158416,1,0,0:0:0:50:raresnare.wav
448,192,158616,128,0,158816:0:0:0:0:
64,192,158816,128,0,159016:0:0:0:100:startkick.wav
320,192,158816,1,0,0:0:0:50:raresnare.wav
448,192,159016,128,0,159216:0:0:0:0:
64,192,159216,1,0,0:0:0:100:startkick.wav
64,192,159616,128,0,160016:0:0:0:0:
192,192,160016,128,8,160416:0:0:0:0:
448,192,160016,128,0,160416:0:0:0:0:
64,192,160416,128,8,160816:0:0:0:0:
320,192,160416,128,0,160816:0:0:0:0:
192,192,160816,1,2,0:0:0:0:
448,192,160816,1,0,0:0:0:0:
64,192,161016,1,0,0:0:0:0:
320,192,161116,1,8,0:0:0:0:
448,192,161116,1,0,0:0:0:0:
192,192,161216,128,0,161416:0:0:0:0:
320,192,161416,1,8,0:0:0:0:
448,192,161416,1,0,0:0:0:0:
64,192,161516,1,0,0:0:0:0:
320,192,161616,128,0,161916:0:0:0:0:
64,192,161916,1,8,0:0:0:0:
192,192,161916,1,0,0:0:0:0:
64,192,162216,1,8,0:0:0:0:
192,192,162216,1,0,0:0:0:0:
192,192,162416,1,2,0:0:0:0:
448,192,162416,1,0,0:0:0:0:
64,192,162616,1,0,0:0:0:0:
320,192,162716,1,8,0:0:0:0:
448,192,162716,1,0,0:0:0:0:
320,192,163016,1,8,0:0:0:0:
448,192,163016,1,0,0:0:0:0:
64,192,163216,128,8,163616:0:0:0:0:
320,192,163216,128,0,163616:0:0:0:0:
192,192,163616,128,8,164016:0:0:0:0:
448,192,163616,128,0,164016:0:0:0:0:
64,192,164016,1,2,0:0:0:0:
320,192,164016,1,0,0:0:0:0:
448,192,164216,1,0,0:0:0:0:
64,192,164316,1,8,0:0:0:0:
192,192,164316,1,0,0:0:0:0:
320,192,164416,128,0,164616:0:0:0:0:
64,192,164616,1,8,0:0:0:0:
192,192,164616,1,0,0:0:0:0:
448,192,164716,1,0,0:0:0:0:
64,192,164816,128,0,165116:0:0:0:0:
320,192,165116,1,8,0:0:0:0:
448,192,165116,1,0,0:0:0:0:
320,192,165416,1,8,0:0:0:0:
448,192,165416,1,0,0:0:0:0:
64,192,165616,1,2,0:0:0:0:
320,192,165616,1,0,0:0:0:0:
448,192,165816,1,0,0:0:0:0:
64,192,165916,1,8,0:0:0:0:
192,192,165916,1,0,0:0:0:0:
64,192,166216,1,8,0:0:0:0:
192,192,166216,1,0,0:0:0:0:
192,192,166416,128,8,166816:0:0:0:0:
448,192,166416,128,0,166816:0:0:0:0:
64,192,166816,128,8,167216:0:0:0:0:
320,192,166816,128,0,167216:0:0:0:0:
192,192,167216,1,2,0:0:0:0:
448,192,167216,1,0,0:0:0:0:
64,192,167416,1,0,0:0:0:0:
320,192,167516,1,8,0:0:0:0:
448,192,167516,1,0,0:0:0:0:
192,192,167616,128,0,167816:0:0:0:0:
320,192,167816,1,8,0:0:0:0:
448,192,167816,1,0,0:0:0:0:
64,192,167916,1,0,0:0:0:0:
320,192,168016,128,0,168316:0:0:0:0:
64,192,168316,1,8,0:0:0:0:
192,192,168316,1,0,0:0:0:0:
64,192,168616,1,8,0:0:0:0:
192,192,168616,1,0,0:0:0:0:
192,192,168816,1,2,0:0:0:0:
448,192,168816,1,0,0:0:0:0:
64,192,169016,1,0,0:0:0:0:
320,192,169116,1,8,0:0:0:0:
448,192,169116,1,0,0:0:0:0:
320,192,169416,1,8,0:0:0:0:
448,192,169416,1,0,0:0:0:0:
64,192,169616,128,8,170016:0:0:0:0:
320,192,169616,128,0,170016:0:0:0:0:
192,192,170016,128,8,170416:0:0:0:0:
448,192,170016,128,0,170416:0:0:0:0:
64,192,170416,1,2,0:0:0:0:
320,192,170416,1,0,0:0:0:0:
448,192,170616,1,0,0:0:0:0:
64,192,170716,1,8,0:0:0:0:
192,192,170716,1,0,0:0:0:0:
320,192,170816,128,0,171016:0:0:0:0:
64,192,171016,1,8,0:0:0:0:
192,192,171016,1,0,0:0:0:0:
448,192,171116,1,0,0:0:0:0:
64,192,171216,128,0,171516:0:0:0:0:
192,192,171516,128,0,171791:0:0:0:0:
320,192,171791,1,0,0:0:0:0:
192,192,171966,1,0,0:0:0:0:
320,192,172116,128,0,172816:0:0:0:0:
192,192,172816,128,8,173016:0:0:0:0:
448,192,172816,128,0,173016:0:0:0:0:
64,192,173216,128,8,173416:0:0:0:0:
320,192,173216,128,0,173416:0:0:0:0:
192,192,173516,1,0,0:0:0:0:
64,192,173616,1,2,0:0:0:0:
448,192,173616,1,0,0:0:0:0:
320,192,173716,128,0,173916:0:0:0:0:
64,192,173916,1,8,0:0:0:0:
192,192,173916,1,0,0:0:0:0:
448,192,174016,1,0,0:0:0:0:
64,192,174216,1,8,0:0:0:0:
192,192,174216,1,0,0:0:0:0:
448,192,174316,1,0,0:0:0:0:
64,192,174416,128,0,174716:0:0:0:0:
320,192,174716,1,8,0:0:0:0:
448,192,174716,1,0,0:0:0:0:
192,192,174816,1,0,0:0:0:0:
320,192,175016,1,8,0:0:0:0:
448,192,175016,1,0,0:0:0:0:
192,192,175116,1,0,0:0:0:0:
64,192,175216,1,2,0:0:0:0:
448,192,175216,1,0,0:0:0:0:
64,192,175516,1,8,0:0:0:0:
192,192,175516,1,0,0:0:0:0:
448,192,175616,1,0,0:0:0:0:
64,192,175816,1,8,0:0:0:0:
192,192,175816,1,0,0:0:0:0:
448,192,175916,1,0,0:0:0:0:
64,192,176016,128,8,176416:0:0:0:0:
320,192,176016,128,0,176416:0:0:0:0:
192,192,176416,128,8,176816:0:0:0:0:
448,192,176416,128,0,176816:0:0:0:0:
64,192,176816,1,2,0:0:0:0:
320,192,176816,1,0,0:0:0:0:
192,192,176916,128,0,177116:0:0:0:0:
320,192,177116,1,8,0:0:0:0:
448,192,177116,1,0,0:0:0:0:
64,192,177216,1,0,0:0:0:0:
320,192,177416,1,8,0:0:0:0:
448,192,177416,1,0,0:0:0:0:
64,192,177516,1,0,0:0:0:0:
448,192,177616,128,0,177916:0:0:0:0:
64,192,177916,1,8,0:0:0:0:
192,192,177916,1,0,0:0:0:0:
320,192,178016,1,0,0:0:0:0:
64,192,178216,1,8,0:0:0:0:
192,192,178216,1,0,0:0:0:0:
320,192,178316,1,0,0:0:0:0:
64,192,178416,1,2,0:0:0:0:
448,192,178416,1,0,0:0:0:0:
320,192,178716,1,8,0:0:0:0:
448,192,178716,1,0,0:0:0:0:
64,192,178816,1,0,0:0:0:0:
320,192,179016,1,8,0:0:0:0:
448,192,179016,1,0,0:0:0:0:
64,192,179116,1,0,0:0:0:0:
192,192,179216,128,8,179416:0:0:0:0:
448,192,179216,128,0,179416:0:0:0:0:
64,192,179616,128,8,179816:0:0:0:0:
320,192,179616,128,0,179816:0:0:0:0:
192,192,179916,1,0,0:0:0:0:
64,192,180016,1,2,0:0:0:0:
448,192,180016,1,0,0:0:0:0:
320,192,180116,128,0,180316:0:0:0:0:
64,192,180316,1,8,0:0:0:0:
192,192,180316,1,0,0:0:0:0:
448,192,180416,1,0,0:0:0:0:
64,192,180616,1,8,0:0:0:0:
192,192,180616,1,0,0:0:0:0:
448,192,180716,1,0,0:0:0:0:
64,192,180816,128,0,181116:0:0:0:0:
320,192,181116,1,8,0:0:0:0:
448,192,181116,1,0,0:0:0:0:
192,192,181216,1,0,0:0:0:0:
320,192,181416,1,8,0:0:0:0:
448,192,181416,1,0,0:0:0:0:
192,192,181516,1,0,0:0:0:0:
64,192,181616,1,2,0:0:0:0:
448,192,181616,1,0,0:0:0:0:
64,192,181916,1,8,0:0:0:0:
192,192,181916,1,0,0:0:0:0:
448,192,182016,1,0,0:0:0:0:
64,192,182216,1,8,0:0:0:0:
192,192,182216,1,0,0:0:0:0:
448,192,182316,1,0,0:0:0:0:
64,192,182416,128,8,182816:0:0:0:0:
320,192,182416,128,0,182816:0:0:0:0:
192,192,182816,128,8,183216:0:0:0:0:
448,192,182816,128,0,183216:0:0:0:0:
64,192,183216,1,2,0:0:0:0:
320,192,183216,1,0,0:0:0:0:
192,192,183316,128,0,183516:0:0:0:0:
320,192,183516,1,8,0:0:0:0:
448,192,183516,1,0,0:0:0:0:
64,192,183616,1,0,0:0:0:0:
320,192,183816,1,8,0:0:0:0:
448,192,183816,1,0,0:0:0:0:
64,192,183916,1,0,0:0:0:0:
448,192,184016,128,0,184316:0:0:0:0:
64,192,184316,1,8,0:0:0:0:
192,192,184316,1,0,0:0:0:0:
320,192,184416,1,0,0:0:0:0:
64,192,184616,1,8,0:0:0:0:
192,192,184616,1,0,0:0:0:0:
320,192,184716,1,0,0:0:0:0:
64,192,184816,1,2,0:0:0:0:
448,192,184816,1,0,0:0:0:0:
320,192,185116,1,8,0:0:0:0:
448,192,185116,1,0,0:0:0:0:
64,192,185216,1,0,0:0:0:0:
320,192,185416,1,8,0:0:0:0:
448,192,185416,1,0,0:0:0:0:
64,192,185516,1,0,0:0:0:0:
192,192,185616,1,0,0:0:0:0:
192,192,187216,1,0,0:0:0:0:
448,192,187416,128,0,187666:0:0:0:0:
64,192,187666,1,0,0:0:0:0:
320,192,187816,1,0,0:0:0:0:
64,192,188016,1,0,0:0:0:0:
192,192,188116,1,0,0:0:0:0:
320,192,188216,128,0,188816:0:0:0:0:
448,192,188816,1,0,0:0:0:0:
448,192,189616,1,0,0:0:0:0:
448,192,190416,1,0,0:0:0:0:
64,192,191216,128,0,191416:0:0:0:0:
192,192,191416,128,0,191616:0:0:0:0:
320,192,191616,1,0,0:0:0:0:
448,192,191716,1,0,0:0:0:0:
192,192,191816,1,0,0:0:0:0:
320,192,191916,1,0,0:0:0:0:
64,192,192016,128,8,192416:0:0:0:0:
448,192,192016,128,0,192416:0:0:0:0:
192,192,192416,1,8,0:0:0:0:
320,192,192416,1,0,0:0:0:0:
320,192,192716,1,0,0:0:0:0:
192,192,192816,1,2,0:0:0:0:
448,192,192816,1,0,0:0:0:0:
64,192,192916,128,0,193116:0:0:0:0:
320,192,193116,128,8,193416:0:0:0:0:
448,192,193116,128,0,193416:0:0:0:0:
64,192,193416,128,8,193616:0:0:0:0:
192,192,193416,128,0,193616:0:0:0:0:
448,192,193616,128,0,193916:0:0:0:0:
64,192,193916,1,8,0:0:0:0:
192,192,193916,1,0,0:0:0:0:
320,192,194016,1,0,0:0:0:0:
64,192,194216,1,8,0:0:0:0:
192,192,194216,1,0,0:0:0:0:
320,192,194316,1,0,0:0:0:0:
64,192,194416,1,2,0:0:0:0:
448,192,194416,1,0,0:0:0:0:
192,192,194516,128,0,194716:0:0:0:0:
320,192,194716,1,8,0:0:0:0:
448,192,194716,1,0,0:0:0:0:
320,192,195016,1,8,0:0:0:0:
448,192,195016,1,0,0:0:0:0:
192,192,195216,128,8,195616:0:0:0:0:
320,192,195216,128,0,195616:0:0:0:0:
64,192,195616,1,8,0:0:0:0:
448,192,195616,1,0,0:0:0:0:
192,192,195916,1,0,0:0:0:0:
64,192,196016,1,2,0:0:0:0:
320,192,196016,1,0,0:0:0:0:
448,192,196116,128,0,196316:0:0:0:0:
64,192,196316,128,8,196616:0:0:0:0:
192,192,196316,128,0,196616:0:0:0:0:
320,192,196616,128,8,196816:0:0:0:0:
448,192,196616,128,0,196816:0:0:0:0:
64,192,196816,128,0,197116:0:0:0:0:
320,192,197116,1,8,0:0:0:0:
448,192,197116,1,0,0:0:0:0:
192,192,197216,1,0,0:0:0:0:
320,192,197416,1,8,0:0:0:0:
448,192,197416,1,0,0:0:0:0:
192,192,197516,1,0,0:0:0:0:
64,192,197616,1,2,0:0:0:0:
448,192,197616,1,0,0:0:0:0:
320,192,197816,1,0,0:0:0:0:
64,192,197916,1,8,0:0:0:0:
192,192,197916,1,0,0:0:0:0:
192,192,198216,1,8,0:0:0:0:
320,192,198216,1,0,0:0:0:0:
64,192,198416,128,8,198616:0:0:0:0:
448,192,198416,128,0,198616:0:0:0:0:
192,192,198816,1,8,0:0:0:0:
320,192,198816,1,0,0:0:0:0:
320,192,199016,128,0,199216:0:0:0:0:
192,192,199216,1,2,0:0:0:0:
448,192,199216,1,0,0:0:0:0:
64,192,199316,128,0,199516:0:0:0:0:
320,192,199516,128,8,199816:0:0:0:0:
448,192,199516,128,0,199816:0:0:0:0:
64,192,199816,128,8,200016:0:0:0:0:
192,192,199816,128,0,200016:0:0:0:0:
448,192,200016,128,0,200316:0:0:0:0:
64,192,200316,1,8,0:0:0:0:
192,192,200316,1,0,0:0:0:0:
320,192,200416,1,0,0:0:0:0:
64,192,200616,1,8,0:0:0:0:
192,192,200616,1,0,0:0:0:0:
320,192,200716,1,0,0:0:0:0:
64,192,200816,1,2,0:0:0:0:
448,192,200816,1,0,0:0:0:0:
192,192,200916,128,0,201116:0:0:0:0:
320,192,201116,1,8,0:0:0:0:
448,192,201116,1,0,0:0:0:0:
320,192,201416,1,8,0:0:0:0:
448,192,201416,1,0,0:0:0:0:
192,192,201616,128,8,202016:0:0:0:0:
320,192,201616,128,0,202016:0:0:0:0:
64,192,202016,1,8,0:0:0:0:
448,192,202016,1,0,0:0:0:0:
192,192,202316,1,0,0:0:0:0:
64,192,202416,1,2,0:0:0:0:
320,192,202416,1,0,0:0:0:0:
448,192,202516,128,0,202716:0:0:0:0:
64,192,202716,128,8,203016:0:0:0:0:
192,192,202716,128,0,203016:0:0:0:0:
320,192,203016,128,8,203216:0:0:0:0:
448,192,203016,128,0,203216:0:0:0:0:
64,192,203216,128,0,203516:0:0:0:0:
320,192,203516,1,8,0:0:0:0:
448,192,203516,1,0,0:0:0:0:
192,192,203616,1,0,0:0:0:0:
320,192,203816,1,8,0:0:0:0:
448,192,203816,1,0,0:0:0:0:
192,192,203916,1,0,0:0:0:0:
64,192,204016,1,2,0:0:0:0:
448,192,204016,1,0,0:0:0:0:
320,192,204216,1,0,0:0:0:0:
64,192,204316,1,8,0:0:0:0:
192,192,204316,1,0,0:0:0:0:
320,192,204616,1,8,0:0:0:0:
448,192,204616,1,0,0:0:0:0:
64,192,204816,128,8,205216:0:0:0:0:
192,192,204816,1,0,0:0:0:0:
320,192,205216,1,8,0:0:0:0:
448,192,205216,1,0,0:0:0:0:
192,192,205616,1,2,0:0:0:0:
448,192,205616,1,0,0:0:0:0:
64,192,205716,128,0,205916:0:0:0:0:
320,192,205916,128,8,206216:0:0:0:0:
448,192,205916,128,0,206216:0:0:0:0:
64,192,206216,128,8,206416:0:0:0:0:
192,192,206216,128,0,206416:0:0:0:0:
320,192,206416,128,0,206616:0:0:0:0:
448,192,206616,1,0,0:0:0:0:
64,192,206716,1,8,0:0:0:0:
192,192,206716,1,0,0:0:0:0:
320,192,206816,1,0,0:0:0:0:
64,192,207016,1,8,0:0:0:0:
192,192,207016,1,0,0:0:0:0:
320,192,207116,1,0,0:0:0:0:
64,192,207216,1,2,0:0:0:0:
448,192,207216,1,0,0:0:0:0:
192,192,207316,128,0,207516:0:0:0:0:
320,192,207516,1,8,0:0:0:0:
448,192,207516,1,0,0:0:0:0:
320,192,207816,1,8,0:0:0:0:
448,192,207816,1,0,0:0:0:0:
192,192,208016,128,8,208416:0:0:0:0:
320,192,208016,128,0,208416:0:0:0:0:
64,192,208416,1,8,0:0:0:0:
448,192,208416,1,0,0:0:0:0:
192,192,208716,1,0,0:0:0:0:
64,192,208816,1,2,0:0:0:0:
320,192,208816,1,0,0:0:0:0:
448,192,208916,128,0,209116:0:0:0:0:
64,192,209116,128,8,209416:0:0:0:0:
192,192,209116,128,0,209416:0:0:0:0:
320,192,209416,128,8,209616:0:0:0:0:
448,192,209416,128,0,209616:0:0:0:0:
64,192,209616,128,0,209916:0:0:0:0:
320,192,209916,1,8,0:0:0:0:
448,192,209916,1,0,0:0:0:0:
192,192,210016,1,0,0:0:0:0:
320,192,210216,1,8,0:0:0:0:
448,192,210216,1,0,0:0:0:0:
192,192,210316,1,0,0:0:0:0:
64,192,210416,1,2,0:0:0:0:
448,192,210416,1,0,0:0:0:0:
320,192,210616,1,0,0:0:0:0:
64,192,210716,1,8,0:0:0:0:
192,192,210716,1,0,0:0:0:0:
64,192,211016,1,8,0:0:0:0:
192,192,211016,1,0,0:0:0:0:
64,192,211216,128,8,211616:0:0:0:0:
448,192,211216,128,0,211616:0:0:0:0:
192,192,211616,1,8,0:0:0:0:
320,192,211616,1,0,0:0:0:0:
320,192,211816,128,0,212016:0:0:0:0:
192,192,212016,1,2,0:0:0:0:
448,192,212016,1,0,0:0:0:0:
64,192,212116,1,0,0:0:0:0:
320,192,212316,128,8,212616:0:0:0:0:
448,192,212316,128,0,212616:0:0:0:0:
64,192,212616,128,8,212816:0:0:0:0:
192,192,212616,128,0,212816:0:0:0:0:
448,192,212816,128,0,213116:0:0:0:0:
64,192,213116,1,8,0:0:0:0:
192,192,213116,1,0,0:0:0:0:
320,192,213216,1,0,0:0:0:0:
64,192,213416,1,8,0:0:0:0:
192,192,213416,1,0,0:0:0:0:
320,192,213516,1,0,0:0:0:0:
64,192,213616,1,2,0:0:0:0:
448,192,213616,1,0,0:0:0:0:
192,192,213716,128,0,213916:0:0:0:0:
320,192,213916,1,8,0:0:0:0:
448,192,213916,1,0,0:0:0:0:
320,192,214216,1,8,0:0:0:0:
448,192,214216,1,0,0:0:0:0:
192,192,214416,128,8,214816:0:0:0:0:
320,192,214416,128,0,214816:0:0:0:0:
64,192,214816,1,0,0:0:0:0:
192,192,215116,1,0,0:0:0:0:
64,192,215216,1,2,0:0:0:0:
320,192,215216,1,0,0:0:0:0:
448,192,215316,128,0,215516:0:0:0:0:
192,192,215516,128,0,215816:0:0:0:0:
320,192,215816,128,0,216016:0:0:0:0:
64,192,216016,128,0,216316:0:0:0:0:
320,192,216316,1,0,0:0:0:0:
192,192,216416,128,0,216616:0:0:0:0:
320,192,216616,128,0,216816:0:0:0:0:
64,192,216816,1,2,0:0:0:0:
448,192,216816,1,0,0:0:0:0:
