osu file format v14

[General]
AudioFilename: audio.mp3
AudioLeadIn: 0
PreviewTime: 43082
Countdown: 0
SampleSet: Drum
StackLeniency: 0.7
Mode: 0
LetterboxInBreaks: 0
EpilepsyWarning: 1
WidescreenStoryboard: 1

[Editor]
Bookmarks: 89930,112620
DistanceSpacing: 1.2
BeatDivisor: 12
GridSize: 32
TimelineZoom: 3.399999

[Metadata]
Title:Dead City (Cut ver.)
TitleUnicode:Dead City (Cut ver.)
Artist:Steradlye
ArtistUnicode:Steradlye
Creator:AmeThysTas
Version:Expert
Source:
Tags:
BeatmapID:4546800
BeatmapSetID:2153915

[Difficulty]
HPDrainRate:4.5
CircleSize:3.8
OverallDifficulty:7.9
ApproachRate:9.3
SliderMultiplier:1.6
SliderTickRate:1

[Events]
//Background and Video events
0,0,"bg.jpg",0,0
//Break Periods
//Storyboard Layer 0 (Background)
//Storyboard Layer 1 (Fail)
//Storyboard Layer 2 (Pass)
//Storyboard Layer 3 (Foreground)
//Storyboard Layer 4 (Overlay)
//Storyboard Sound Samples

[TimingPoints]
3379,827.586206896552,4,2,1,60,1,0
3379,-100,4,2,1,60,0,0
16620,413.793103448276,4,2,1,80,1,0
16620,-100,4,2,1,80,0,0
29861,-90.9090909090909,4,2,1,80,0,0
33171,-83.3333333333333,4,2,1,80,0,0
36482,-76.9230769230769,4,2,1,80,0,0
38964,-71.4285714285714,4,2,1,80,0,0
41447,-100,4,2,1,80,0,0
42688,-66.6666666666667,4,2,1,80,0,0
43102,-33.3333333333333,4,3,2,100,0,1
43620,-66.6666666666667,4,3,2,100,0,1
44033,-50,4,3,2,100,0,1
44413,-40,4,3,2,100,0,1
44757,-100,4,3,2,100,0,1
44895,-50,4,3,2,100,0,1
45723,-58.8235294117647,4,3,2,100,0,1
46068,-50,4,3,2,100,0,1
46413,-33.3333333333333,4,3,2,100,0,1
46895,-50,4,3,2,100,0,1
47033,-66.6666666666667,4,3,2,100,0,1
47240,-100,4,3,2,100,0,1
47654,-50,4,3,2,100,0,1
48068,-100,4,3,2,100,0,1
48309,-50,4,3,2,100,0,1
48551,-40,4,3,2,100,0,1
49033,-50,4,3,2,100,0,1
49378,-40,4,3,2,100,0,1
49723,-33.3333333333333,4,3,2,100,0,1
50206,-50,4,3,2,100,0,1
51102,-40,4,3,2,100,0,1
51516,-50,4,3,2,100,0,1
51792,-50,4,3,2,100,0,1
52413,-100,4,3,2,100,0,1
52620,-40,4,3,2,100,0,1
53033,-100,4,3,1,85,0,0
53861,-66.6666666666667,4,3,1,85,0,0
54688,-100,4,3,1,85,0,0
55516,-66.6666666666667,4,3,1,85,0,0
56344,-33.3333333333333,4,3,2,100,0,1
56861,-50,4,3,2,100,0,1
57309,-50,4,3,2,100,0,1
57654,-40,4,3,2,100,0,1
57999,-50,4,3,2,100,0,1
58482,-40,4,3,2,100,0,1
58878,-50,4,3,2,100,0,1
59309,-66.6666666666667,4,3,2,100,0,1
59654,-33.3333333333333,4,3,2,100,0,1
60137,-50,4,3,2,100,0,1
60637,-100,4,3,2,100,0,1
61309,-50,4,3,2,100,0,1
61792,-40,4,3,2,100,0,1
62964,-33.3333333333333,4,3,2,100,0,1
63447,-50,4,3,2,100,0,1
63930,-40,4,3,2,100,0,1
64620,-50,4,3,2,100,0,1
65033,-40,4,3,2,100,0,1
65602,-100,4,3,2,100,0,1
65861,-40,4,3,2,100,0,1
66275,-33.3333333333333,4,3,2,100,0,1
66792,-50,4,3,2,100,0,1
67102,-40,4,3,2,100,0,1
67930,-100,4,3,1,85,0,0
69585,-33.3333333333333,4,3,2,100,0,1
69999,-50,4,3,2,100,0,1
70413,-33.3333333333333,4,3,2,100,0,1
70654,-25,4,3,2,100,0,1
70826,-40,4,3,2,100,0,1
71102,-66.6666666666667,4,3,2,100,0,1
71240,-50,4,3,2,100,0,1
71654,-25,4,3,2,100,0,1
72068,-40,4,3,2,100,0,1
72482,-50,4,3,2,100,0,1
72895,-33.3333333333333,4,3,2,100,0,1
73309,-50,4,3,2,100,0,1
73723,-66.6666666666667,4,3,2,100,0,1
74137,-40,4,3,2,100,0,1
74413,-66.6666666666667,4,3,2,100,0,1
74551,-100,4,3,2,100,0,1
74757,-40,4,3,2,100,0,1
74964,-25,4,3,2,100,0,1
75378,-50,4,3,2,100,0,1
75792,-40,4,3,2,100,0,1
76206,-33.3333333333333,4,3,2,100,0,1
76620,-50,4,3,2,100,0,1
77033,-33.3333333333333,4,3,2,100,0,1
77275,-25,4,3,2,100,0,1
77447,-40,4,3,2,100,0,1
77723,-66.6666666666667,4,3,2,100,0,1
77861,-50,4,3,2,100,0,1
78275,-25,4,3,2,100,0,1
78688,-100,4,3,2,100,0,1
79102,-40,4,3,2,100,0,1
79516,-100,4,3,1,85,0,0
80344,-66.6666666666667,4,3,1,85,0,0
81171,-100,4,3,1,85,0,0
81999,-66.6666666666667,4,3,1,85,0,0
82826,-33.3333333333333,4,3,2,100,0,1
83240,-50,4,3,2,100,0,1
83654,-33.3333333333333,4,3,2,100,0,1
83861,-25,4,3,2,100,0,1
84067,-40,4,3,2,100,0,1
84481,-50,4,3,2,100,0,1
84895,-25,4,3,2,100,0,1
85309,-50,4,3,2,100,0,1
85723,-40,4,3,2,100,0,1
86136,-33.3333333333333,4,3,2,100,0,1
86550,-50,4,3,2,100,0,1
86964,-66.6666666666667,4,3,2,100,0,1
87378,-40,4,3,2,100,0,1
87654,-66.6666666666667,4,3,2,100,0,1
87792,-50,4,3,2,100,0,1
87998,-40,4,3,2,100,0,1
88205,-25,4,3,2,100,0,1
88619,-50,4,3,2,100,0,1
89033,-40,4,3,2,100,0,1
89447,-33.3333333333333,4,3,2,100,0,1
89861,-50,4,3,2,100,0,1
90274,-33.3333333333333,4,3,2,100,0,1
90481,-25,4,3,2,100,0,1
90688,-40,4,3,2,100,0,1
90964,-66.6666666666667,4,3,2,100,0,1
91102,-50,4,3,2,100,0,1
91516,-25,4,3,2,100,0,1
91929,-100,4,3,2,100,0,1
92343,-40,4,3,2,100,0,1
92757,-33.3333333333333,4,3,2,100,0,1
93171,-50,4,3,2,100,0,1
93585,-40,4,3,2,100,0,1
94413,-100,4,3,1,85,0,0
96068,-100,4,3,1,70,0,0
96895,-83.3333333333333,4,3,1,70,0,0
97723,-100,4,3,1,70,0,0
98964,-125,4,3,1,70,0,0
99378,-100,4,3,1,70,0,0
100206,-83.3333333333333,4,3,1,70,0,0
101033,-100,4,3,1,70,0,0
101861,-83.3333333333333,4,3,1,70,0,0
102688,-100,4,3,1,70,0,0
103516,-83.3333333333333,4,3,1,70,0,0
104344,-100,4,3,1,70,0,0
105585,-125,4,3,1,70,0,0
105999,-100,4,3,1,70,0,0
106826,-83.3333333333333,4,3,1,70,0,0
107654,-100,4,3,1,70,0,0
108482,-83.3333333333333,4,3,1,70,0,0
109723,-83.3333333333333,4,3,1,60,0,0
110137,-83.3333333333333,4,3,1,50,0,0
110551,-83.3333333333333,4,3,1,40,0,0
110964,-83.3333333333333,4,3,1,30,0,0
111378,-83.3333333333333,4,3,1,20,0,0
111792,-83.3333333333333,4,3,1,10,0,0

[Colours]
Combo1 : 204,0,0
Combo2 : 194,167,224
Combo3 : 232,174,227
Combo4 : 255,106,252
Combo5 : 170,112,250
Combo6 : 255,79,79

[HitObjects]
256,192,1723,12,0,3241,2:0:0:0:
21,31,3379,6,0,B|55:-4|227:11|-28:131|-73:222|118:43|270:244,1,440,12|0,3:0|0:0,3:0:0:0:
255,109,5861,2,0,P|304:99|360:53,1,120,12|0,3:0|0:0,3:0:0:0:
504,122,6689,2,0,B|464:91|377:125|532:295|285:188,1,280,12|0,3:0|0:0,3:0:0:0:
277,32,8344,2,0,B|245:-9|355:-22|434:24|400:97|403:89|270:125,1,280,12|0,3:0|0:0,3:0:0:0:
178,48,9999,6,0,B|149:20|65:41|52:118|-16:182|257:6|282:293|61:198|229:313|89:377,1,440,12|0,3:0|0:0,3:0:0:0:
0,286,12482,2,0,B|23:269|28:207|85:215,1,120,12|0,0:3|0:0,3:0:0:0:
208,348,13310,2,0,B|278:353|324:259|49:316|96:188,1,280,12|0,0:3|0:0,3:0:0:0:
246,210,14965,2,0,B|246:176|360:99|246:27|123:65|136:176|200:161,1,280,12|0,0:3|0:0,3:0:0:0:
351,175,16620,70,0,B|390:252|473:103|579:162|503:286,1,280,2|0,3:1|0:0,3:0:0:0:
402,303,17447,2,0,B|348:287|330:365|521:436|565:298|440:242,1,280,2|0,0:2|0:0,3:0:0:0:
341,234,18275,2,0,B|307:121|424:206|462:75|455:-5|368:81,1,280,2|0,0:0|0:0,3:0:0:0:
418,223,19102,6,0,B|473:209|413:363|231:257|390:175|269:260|209:196,1,280,2|0,3:1|0:0,3:0:0:0:
133,41,19930,2,0,B|68:-10|325:47|57:105|134:250,1,280,2|0,3:1|0:0,3:0:0:0:
76,316,20757,2,0,B|128:219|283:281|253:351|302:214,1,280,2|0,0:0|0:0,3:0:0:0:
287,84,21585,70,0,B|301:37|420:26|193:169|373:300,1,280,2|0,3:1|0:0,3:0:0:0:
434,335,22413,2,0,P|474:306|476:236,1,120,2|0,0:0|0:0,3:0:0:0:
392,205,22826,2,0,P|352:176|350:106,1,120,2|0,0:0|0:0,3:0:0:0:
469,44,23240,6,0,B|479:3|395:3|509:213|301:4|241:128,1,280,2|0,3:1|0:0,3:0:0:0:
183,57,24068,2,0,B|155:12|303:52|326:174|236:131|175:203|250:264,1,280,2|0,0:0|0:0,3:0:0:0:
303,290,24895,2,0,B|316:243|369:271|246:145|146:185|100:286,1,280,2|0,0:0|0:0,3:0:0:0:
41,370,25723,70,0,B|-32:394|-23:313|196:319|67:153,1,280,2|0,3:1|0:0,3:0:0:0:
94,33,26551,2,0,B|112:12|-6:-15|-48:155|36:181|158:150,1,280,2|0,3:1|0:0,3:0:0:0:
176,80,27378,2,0,P|204:38|283:42,1,120,2|0,0:0|0:0,3:0:0:0:
324,101,27792,2,0,P|352:143|431:139,1,120,2|0,0:0|0:0,3:0:0:0:
487,17,28206,6,0,B|460:2|449:45|553:127|267:84|420:248,1,280,2|0,3:1|0:0,3:0:0:0:
501,238,29033,2,0,B|545:204|525:95|424:241|300:188|280:127,1,280,2|0,0:0|0:0,3:0:0:0:
341,19,29861,70,0,B|399:0|335:-69|177:-31|269:236|191:131,1,308.000009399414,2|0,0:1|0:0,3:0:0:0:
154,64,30688,2,0,B|186:20|306:184|444:47,1,308.000009399414,2|0,0:0|0:0,3:0:0:0:
368,3,31516,2,0,B|269:-28|345:182|498:143|196:130|244:217,1,308.000009399414,2|0,0:0|0:0,3:0:0:0:
325,309,32344,6,0,B|386:336|411:234|180:283|322:240|250:66,1,308.000009399414,2|0,3:1|0:0,3:0:0:0:
136,0,33171,2,0,B|87:19|133:119|233:-7|428:69|168:117|202:232,1,335.999989746094,2|0,3:1|0:0,3:0:0:0:
245,282,33999,2,0,B|258:319|329:298|383:146|98:135,1,335.999989746094,2|0,0:0|0:0,3:0:0:0:
14,25,34826,70,0,B|15:-50|-15:23|245:24|82:3|-33:157|7:231,1,335.999989746094,2|0,3:1|0:0,3:0:0:0:
0,306,35654,2,0,P|68:324|121:271,1,143.999995605469,2|0,0:0|0:0,3:0:0:0:
89,196,36068,2,0,P|157:178|210:231,1,143.999995605469,2|0,0:0|0:0,3:0:0:0:
262,351,36482,6,0,B|250:378|349:389|434:280|-47:254|405:174,1,363.999983337403,2|0,3:1|0:0,3:0:0:0:
435,236,37309,2,0,B|477:231|515:208|335:-6|243:309|146:180|231:98,1,363.999983337403,2|0,0:0|0:0,3:0:0:0:
274,61,38137,2,0,B|319:56|370:118|203:262|52:187|214:321,1,363.999983337403,2|0,0:0|0:0,3:0:0:0:
337,361,38964,70,0,B|389:398|372:213|31:207|281:231|484:275|63:118|159:76,1,391.99998803711,2|0,3:1|0:0,3:0:0:0:
280,7,39792,2,0,B|345:1|288:45|435:128|403:159|67:17|198:127|75:141,1,391.99998803711,2|0,3:1|0:0,3:0:0:0:
0,122,40620,2,0,P|6:190|104:216,1,167.999994873047,2|0,0:0|0:0,3:0:0:0:
175,191,41033,2,0,P|245:203|272:290,1,167.999994873047,2|0,0:0|0:0,3:0:0:0:
170,358,41447,6,0,B|97:361|150:296|221:292|281:379|369:303|295:218,1,280,2|0,3:1|0:0,3:0:0:0:
227,237,42275,1,2,0:3:0:0:
292,127,42482,1,0,1:0:0:0:
119,0,42688,2,0,B|85:30|85:30|118:174,1,180.000006866455,8|0,0:1|0:0,0:0:0:0:
80,248,43102,6,2,B|45:255|27:269|27:269|2:230|2:230|69:208|72:257|142:240|142:240|214:222|251:290,1,360.000013732911,4|0,1:2|2:0,0:2:0:0:
362,254,43516,1,0,0:0:0:0:
373,249,43620,2,2,B|381:218|399:205|399:205|358:227|300:232,1,140.000005340576,2|0,0:0|2:0,0:2:0:0:
218,354,43930,1,8,0:1:0:0:
139,372,44033,2,2,B|121:352|104:344|104:344|170:273|183:210|183:210|161:193|162:168,1,240,2|0,0:0|2:0,0:2:0:0:
234,123,44413,6,2,B|250:115|269:120|269:120|252:129|242:142,1,66.6666666666667,2|0,0:0|2:0,0:0:0:0:
100,100,44551,2,2,B|84:69|104:30|104:30|105:69|147:100,1,133.333333333333,2|0,0:0|2:0,0:2:0:0:
70,243,44757,1,0,1:0:0:0:
154,193,44895,2,2,B|161:185|162:165|162:165|153:174|132:186,1,53.3333333333333,2|0,0:0|2:0,0:3:0:0:
130,316,45033,2,2,B|143:330|179:339|179:339|154:323|145:297,1,106.666666666667,2|0,3:0|2:0,0:2:0:0:
33,158,45240,70,2,B|-4:179|-9:204|-9:204|9:136|4:85|4:85|19:69|37:53,1,213.333333333333,2|0,0:0|2:0,0:2:0:0:
211,61,45585,1,8,0:1:0:0:
135,14,45723,2,2,B|107:12|90:-2|90:-2|128:66|135:132,1,181.333336791992,2|0,3:0|2:0,0:2:0:0:
224,200,46068,2,2,B|235:201|252:196|252:196|232:191|230:188,1,53.3333333333333,2|0,0:0|2:0,0:0:0:0:
85,226,46206,2,2,B|73:241|74:278|74:278|100:250|114:245,1,106.666666666667,2|0,0:0|2:0,0:2:0:0:
252,61,46413,6,2,B|269:34|254:10|271:-6|271:-6|324:30|324:30|239:64|223:133|223:133|252:178|246:248,1,400.00001525879,4|0,1:2|2:0,0:2:0:0:
303,325,46826,1,0,0:0:0:0:
308,332,46895,2,2,B|320:335|333:341|333:341|327:326|312:316,1,53.3333333333333,2|0,0:0|2:0,0:0:0:0:
171,304,47033,2,2,B|154:321|149:342|149:342|166:328|190:319,1,80.0000030517579,2|0,0:0|2:0,0:2:0:0:
339,229,47240,1,8,0:1:0:0:
348,238,47723,70,2,B|364:245|373:257|373:257|376:241|366:224,1,53.3333333333333,2|0,0:0|2:0,0:0:0:0:
293,132,47861,2,2,B|285:113|264:96|264:96|293:80|337:95,1,106.666666666667,2|0,0:0|2:0,0:2:0:0:
446,203,48068,2,2,P|485:184|486:147,1,80,2|0,1:3|2:0,0:2:0:0:
477,140,48309,2,0,B|459:134|459:134|493:187|507:252,1,133.333333333333,2|0,0:0|2:0,0:0:0:0:
394,355,48551,6,2,B|297:319|323:212|323:212|312:215|312:215|366:200|383:145,1,266.666666666667,2|0,0:0|2:0,0:0:0:0:
327,23,48895,1,8,0:1:0:0:
392,83,49033,2,2,B|402:61|428:51|428:51|304:71|304:71|302:91|274:111,1,213.333333333333,2|0,0:0|2:0,0:2:0:0:
187,54,49378,1,2,0:2:0:0:
181,42,49447,1,2,0:2:0:0:
177,33,49516,2,0,B|222:43|222:43|208:48|192:57,2,66.6666666666667,2|2|0,0:2|0:2|2:0,0:0:0:0:
141,177,49723,70,2,B|115:157|76:161|76:161|136:205|140:256|140:256|184:203|217:183|217:183|238:198|238:198|272:171|330:165,1,400.00001525879,4|0,1:2|2:0,0:2:0:0:
407,291,50137,1,0,0:0:0:0:
413,297,50206,2,2,B|455:297|476:306|476:306|382:253|391:170,1,213.333333333333,2|0,0:0|2:0,0:2:0:0:
512,78,50550,1,8,0:1:0:0:
439,55,50654,2,2,B|418:56|397:40|397:40|422:108|478:153|478:153|467:180|491:225,1,240,2|0,0:0|2:0,0:2:0:0:
404,307,51033,5,2,0:0:0:0:
400,313,51102,2,2,B|381:315|359:331|359:331|371:261|405:221|405:221|408:197|390:164,1,200,2|0,0:0|2:0,0:0:0:0:
355,35,51378,1,0,1:3:0:0:
404,104,51516,2,2,B|408:126|437:148|437:148|326:113|326:113|275:124,1,213.333333333333,2|0,0:0|2:0,0:2:0:0:
207,78,51861,2,2,B|206:62|188:50|188:50|216:52|234:73,1,66.6666666666667,2|0,0:0|2:0,0:0:0:0:
270,208,51999,2,2,B|263:232|230:249|230:249|246:221|245:189,1,106.666666666667,2|0,0:0|2:0,0:2:0:0:
295,23,52205,1,8,0:1:0:0:
295,23,52620,69,2,0:2:0:0:
368,29,52723,5,2,0:2:0:0:
405,95,52827,69,2,0:2:0:0:
366,160,52930,5,2,0:2:0:0:
287,158,53033,38,0,B|200:57|187:203|45:165|158:92|41:80,1,280,12|0,1:3|2:0,0:0:0:0:
0,262,53861,2,0,B|12:295|58:166|165:247,1,180.000006866455,8|0,0:1|2:0,0:0:0:0:
184,320,54275,2,0,B|213:345|190:415|70:368|107:282,1,180.000006866455,2|0,0:2|2:0,0:0:0:0:
229,193,54688,6,0,B|261:197|250:250|366:269|376:134|151:90|268:16,1,280,2|0,1:2|2:0,0:0:0:0:
389,14,55516,2,0,B|412:95|266:142|153:-82|120:100|185:197|59:218,1,420.000016021729,8|0,0:1|2:0,0:0:0:0:
34,67,56344,6,2,B|26:28|-17:14|-17:14|57:33|57:33|73:79|51:133|51:133|26:141|-26:197|28:265,1,400.00001525879,4|0,1:2|2:0,0:2:0:0:
133,333,56757,1,0,0:0:0:0:
134,344,56861,2,2,B|100:350|82:376|82:376|75:300|122:247,1,186.666666666667,2|0,0:0|2:0,0:2:0:0:
202,161,57171,1,8,0:1:0:0:
254,230,57309,2,2,B|267:260|267:260|273:190|316:132|316:132|291:120|285:89,1,213.333333333333,2|0,0:0|2:0,0:2:0:0:
336,8,57654,6,2,B|346:0|372:1|372:1|353:19|345:51,1,66.6666666666667,2|0,0:0|2:0,0:0:0:0:
204,45,57792,2,2,B|174:32|165:-10|165:-10|194:17|248:18,1,133.333333333333,2|0,0:0|2:0,0:2:0:0:
186,182,57999,1,2,1:3:0:0:
183,194,58068,1,0,0:0:0:0:
176,206,58137,2,2,B|168:214|149:220|149:220|159:206|162:189,1,53.3333333333333,2|0,0:0|2:0,0:2:0:0:
303,130,58275,2,2,B|329:139|350:165|350:165|322:155|290:165,1,106.666666666667,2|0,0:0|2:0,0:2:0:0:
140,90,58482,70,2,B|120:81|106:59|106:59|90:160|163:200|163:200|162:233|135:263,1,266.666666666667,2|0,0:0|2:0,0:0:0:0:
8,342,58826,1,8,0:1:0:0:
77,384,58964,2,2,B|98:351|98:351|92:306|55:271|55:271|61:218|97:189,1,213.333333333333,2|0,0:0|2:0,0:2:0:0:
185,140,59309,2,2,B|194:138|207:145|207:145|192:146|180:153,1,40.000001525879,2|0,0:0|2:0,0:0:0:0:
58,92,59447,2,2,B|55:66|72:51|72:51|79:78|92:96,1,80.0000030517579,2|0,0:0|2:0,0:2:0:0:
169,295,59654,6,2,B|188:328|179:373|179:373|194:328|222:309|222:309|195:264|195:264|247:210|262:152|262:152|260:158|260:158|284:135|330:130,1,400.00001525879,4|0,1:2|2:0,0:2:0:0:
386,65,60068,1,0,0:0:0:0:
394,57,60137,2,2,B|400:44|394:27|394:27|388:43|366:58,1,53.3333333333333,2|0,0:0|2:0,0:0:0:0:
377,197,60275,2,2,B|397:214|431:203|431:203|402:193|388:173,1,106.666666666667,2|0,0:0|2:0,0:2:0:0:
265,34,60482,1,8,0:1:0:0:
265,34,61309,70,2,B|258:17|247:14|247:14|251:24|253:49,1,53.3333333333333,6|0,1:3|2:0,0:2:0:0:
355,136,61447,2,2,B|372:138|380:130|380:130|369:129|347:118,1,53.3333333333333,2|0,0:0|2:0,0:2:0:0:
210,139,61585,2,2,B|193:159|185:190|185:190|208:169|241:161,1,106.666666666667,2|0,0:0|2:0,0:2:0:0:
362,36,61792,6,2,B|389:36|421:17|421:17|378:81|382:128|382:128|382:123|382:123|340:143|329:198,1,266.666666666667,2|0,0:0|2:0,0:0:0:0:
504,283,62137,1,8,1:0:0:0:
440,328,62275,2,2,B|419:353|389:360|389:360|352:274|414:211|414:211|410:206|410:206|427:226|466:226,1,266.666666666667,2|0,0:0|2:0,0:2:0:0:
508,96,62620,1,2,0:2:0:0:
493,98,62689,1,2,0:2:0:0:
482,101,62757,2,0,B|481:127|465:145|465:145|489:131,2,66.6666666666667,2|2|0,0:2|0:2|0:0,0:0:0:0:
375,68,62964,70,0,B|409:52|423:9|423:9|391:109|391:109|333:96|333:96|326:102|326:102|303:202|394:248,1,400.00001525879,4|0,1:2|2:0,0:0:0:0:
429,332,63378,1,0,0:0:0:0:
430,342,63447,2,2,B|424:353|408:362|408:362|417:346|420:326,1,53.3333333333333,2|0,0:0|2:0,0:0:0:0:
470,205,63585,2,2,B|493:182|523:181|523:181|494:202|486:240,1,106.666666666667,2|0,0:0|2:0,0:2:0:0:
320,310,63792,1,8,0:1:0:0:
369,233,63930,2,2,B|366:212|381:194|381:194|286:205|244:256|244:256|216:239|172:238,1,266.666666666667,2|0,0:0|2:0,0:2:0:0:
12,336,64275,6,2,B|-6:360|12:388|94:426|141:332|121:292|121:292|119:295|119:295|90:272|98:227,1,266.666666666667,2|0,0:0|2:0,0:0:0:0:
183,127,64620,1,0,1:0:0:0:
197,210,64757,2,2,B|195:223|181:234|181:234|184:220|176:197,1,53.3333333333333,2|0,0:0|2:0,0:2:0:0:
260,82,64895,2,2,B|289:69|315:87|315:87|286:89|269:106,1,106.666666666667,2|0,0:0|2:0,0:2:0:0:
85,86,65102,2,2,B|80:59|43:49|43:49|28:93|60:134|114:123|114:123|111:128|111:128|153:106|191:131,1,266.666666666667,2|0,0:0|2:0,0:0:0:0:
322,226,65447,1,8,0:1:0:0:
322,226,65860,69,2,0:2:0:0:
283,296,65964,5,2,0:2:0:0:
323,369,66068,69,2,0:2:0:0:
398,371,66171,5,2,0:2:0:0:
460,314,66275,70,2,B|486:296|512:297|512:297|454:257|454:257|386:262|344:316|344:316|350:309|350:309|271:325|222:260|245:191,1,440.000016784669,4|0,1:2|2:0,0:2:0:0:
241,113,66723,1,0,0:0:0:0:
254,109,66792,2,2,B|269:116|280:138|280:138|259:129|240:127,1,80,2|0,0:0|2:0,0:0:0:0:
136,55,66964,2,2,B|141:52|145:33|145:33|153:51|148:62,1,53.3333333333333,2|0,0:0|2:0,0:2:0:0:
10,174,67102,1,8,0:1:0:0:
136,220,67206,2,2,B|176:249|176:249|86:235|86:235|88:171|99:136|99:136|96:143|96:143|69:127|57:88,1,300,2|0,0:0|2:0,0:2:0:0:
40,26,67930,54,0,B|84:-3|223:33|130:211|245:135|260:99,1,280,4|0,1:3|2:0,0:0:0:0:
279,25,68757,2,0,B|318:13|403:123|158:126|269:260,1,280,2|0,0:2|2:0,0:0:0:0:
427,310,69585,70,2,B|450:309|479:318|479:318|449:302|440:282|440:282|403:310|361:358|361:358|256:339|256:339|257:334|257:334|238:380|189:377,1,400.00001525879,4|0,1:2|2:0,0:2:0:0:
147,275,69999,1,0,0:0:0:0:
143,265,70102,2,2,B|150:241|167:236|167:236|160:261|163:290,1,80,2|0,0:0|2:0,0:2:0:0:
91,374,70275,2,0,B|79:382|63:382|63:382|75:372|82:354,1,53.3333333333333,0|0,0:0|2:0,0:0:0:0:
205,370,70413,70,2,B|235:349|235:349|226:286|226:286|220:281|220:281|203:188|203:188|206:182|206:182|201:156,1,200.000007629395,10|0,0:1|2:0,0:1:0:0:
99,111,70654,2,2,B|107:159|107:159|175:169|175:169|181:165|181:165|258:179|258:179|263:185|263:185|348:199,1,266.666666666667,2|0,0:1|2:0,0:1:0:0:
463,129,70895,2,2,B|468:110|489:97|489:97|424:94|401:161,1,133.333333333333,2|0,0:0|2:0,0:3:0:0:
409,266,71102,2,0,B|419:268|427:273|427:273|424:257|408:246,1,40.000001525879,2|0,0:0|2:0,0:0:0:0:
302,299,71240,1,0,1:0:0:0:
308,217,71378,1,2,0:0:0:0:
313,207,71447,1,0,0:0:0:0:
320,199,71516,2,0,B|330:185|345:180|345:180|332:169|303:176,1,53.3333333333333,2|0,0:0|2:0,0:0:0:0:
249,288,71654,6,2,B|209:260|209:260|219:197|219:197|224:192|224:192|236:132|236:132|233:128|233:128|250:56|250:56|257:53|257:53,1,266.666666666667,2|0,0:1|2:0,0:1:0:0:
446,8,71895,2,2,B|465:1|465:1|450:68|450:68|385:82|385:82|378:78|378:78|324:89|324:89|320:96|320:96|235:116|235:116,1,266.666666666667,2|0,0:1|2:0,0:1:0:0:
86,52,72137,2,2,B|78:17|98:-6|98:-6|96:-12|96:-12|169:1|185:75|145:121|145:121|150:118|150:118|164:157,1,266.666666666667,2|0,0:0|2:0,0:3:0:0:
149,236,72482,1,0,1:0:0:0:
73,265,72585,2,2,B|50:271|29:264|29:264|49:308|112:305|112:305|104:307|104:307|126:310|141:329,1,186.666666666667,2|0,0:0|2:0,0:2:0:0:
293,353,72895,70,0,B|320:336|329:309|329:309|367:361|367:361|280:366|245:387|245:387|224:374|202:371|202:371|207:372|207:372|232:313|194:261,1,400.00001525879,4|0,1:2|2:0,0:0:0:0:
131,196,73309,1,0,0:0:0:0:
121,195,73378,2,2,B|112:194|102:177|102:177|115:184|130:184,1,53.3333333333333,2|0,0:0|2:0,0:0:0:0:
269,195,73516,2,2,B|285:173|276:136|276:136|263:161|236:179,1,106.666666666667,0|0,0:0|2:0,0:2:0:0:
136,321,73723,1,8,0:1:0:0:
136,321,74206,6,2,B|121:320|101:326|101:326|140:294|153:235,1,133.333333333333,2|0,0:0|2:0,0:0:0:0:
222,153,74413,2,2,B|226:145|232:134|232:134|218:135|204:147,1,40.000001525879,2|0,0:0|2:0,0:2:0:0:
76,183,74551,2,2,P|61:143|90:112,1,80,2|0,1:3|2:0,0:2:0:0:
92,114,74792,2,2,B|122:132|149:129|149:129|145:131|145:131|179:150,1,100,2|0,0:0|2:0,0:2:0:0:
295,131,74964,70,2,B|285:174|285:174|191:197|191:197|185:194|185:194|87:219|87:219|83:225|83:225|31:239,1,266.666666666667,2|0,0:1|2:0,0:1:0:0:
13,370,75206,2,2,B|55:357|55:357|69:266|69:266|65:260|65:260|73:214,1,160,2|0,0:1|2:0,0:1:0:0:
0,91,75378,1,8,0:1:0:0:
76,127,75516,2,2,B|80:141|91:152|91:152|71:150|56:138,1,53.3333333333333,2|0,0:0|2:0,0:2:0:0:
49,17,75654,2,2,B|63:3|86:0|86:0|73:19|70:39,1,80,2|0,0:0|2:0,0:2:0:0:
142,80,75861,1,2,0:2:0:0:
152,85,75930,1,2,0:2:0:0:
160,91,75999,2,0,B|182:114|182:114|197:103|220:102,2,66.6666666666667,2|2|0,0:2|0:2|2:0,0:0:0:0:
144,237,76206,6,2,B|114:255|110:288|110:288|71:233|71:233|205:214|205:214|201:218|201:218|280:209|334:265,1,400.00001525879,4|0,1:2|2:0,0:2:0:0:
415,330,76620,1,0,0:0:0:0:
419,342,76688,2,2,B|447:347|468:365|468:365|429:281|431:235|431:235|446:227|460:202,1,213.333333333333,2|0,0:0|2:0,0:2:0:0:
488,116,77033,70,2,B|479:96|479:96|395:82|395:82|389:88|389:88|293:74|293:74|290:68|290:68|278:64,1,200.000007629395,10|0,0:1|2:0,0:1:0:0:
165,19,77275,2,2,B|207:26|207:26|225:87|225:87|223:93|223:93|241:163|241:163|246:167|246:167|268:248,1,266.666666666667,2|0,0:1|2:0,0:1:0:0:
204,349,77516,2,2,B|165:346|155:307|155:307|158:313|158:313|199:331|234:300,1,133.333333333333,2|0,0:0|2:0,0:0:0:0:
317,333,77723,2,2,B|318:343|328:348|328:348|312:345|305:335,1,40.000001525879,2|0,0:0|2:0,0:2:0:0:
415,199,77861,2,2,B|418:180|435:172|435:172|375:136|307:171|311:239|311:239|310:231|310:231|279:227|254:247,1,266.666666666667,2|0,1:3|2:0,0:2:0:0:
167,314,78275,6,2,B|140:290|140:290|153:224|153:224|160:219|160:219|178:139|178:139|176:131|176:131|199:26,1,266.666666666667,2|0,0:1|2:0,0:1:0:0:
347,25,78516,2,2,B|335:59|335:59|274:73|274:73|265:70|265:70|190:85|190:85,1,160,2|0,0:1|2:0,0:1:0:0:
40,10,78688,1,8,0:1:0:0:
40,10,79103,69,2,0:2:0:0:
4,75,79206,5,2,0:2:0:0:
26,148,79310,69,2,0:2:0:0:
100,171,79413,5,2,0:2:0:0:
165,128,79516,6,0,B|191:153|233:122|52:10|383:40|272:201,1,280,12|0,1:3|2:0,0:0:0:0:
109,235,80344,2,0,B|78:244|83:328|199:203|244:287,1,180.000006866455,8|0,0:1|2:0,0:0:0:0:
230,355,80757,2,0,B|246:393|338:387|343:299|307:258,1,180.000006866455,2|0,0:2|2:0,0:0:0:0:
171,176,81171,6,0,B|144:162|153:97|267:29|160:245|365:176,1,280,2|0,1:2|2:0,0:0:0:0:
399,74,81999,2,0,B|409:50|422:23|512:48|429:164|268:125|314:238|217:270|384:145|477:279,1,420.000016021729,8|0,0:1|2:0,0:0:0:0:
339,329,82826,38,2,B|361:336|375:357|375:357|369:312|326:282|326:282|333:228|369:190|369:190|359:188|359:188|405:158|468:163|468:163|502:126,1,400.00001525879,4|0,1:2|2:0,0:2:0:0:
394,18,83239,1,0,0:0:0:0:
381,9,83344,2,2,B|355:9|333:-8|333:-8|356:58|312:127,1,186.666666666667,2|0,0:0|2:0,0:2:0:0:
246,244,83654,6,2,B|228:295|228:295|297:285|297:285|302:279|302:279|365:268|365:268|372:272|372:272|401:268,1,200.000007629395,8|0,0:1|2:0,0:1:0:0:
490,193,83895,2,2,B|450:171|450:171|366:186|366:186|365:190|365:190|290:201|290:201|286:197|286:197|207:211,1,266.666666666667,2|0,0:1|2:0,0:1:0:0:
63,316,84136,2,2,B|58:340|82:379|82:379|80:343|104:319,1,133.333333333333,2|0,0:0|2:0,0:0:0:0:
52,189,84344,2,2,B|39:178|17:180|17:180|31:194|33:205,1,66.6666666666667,2|0,0:0|2:0,0:2:0:0:
170,158,84482,1,2,1:3:0:0:
95,113,84620,1,2,0:0:0:0:
94,103,84688,1,0,0:0:0:0:
99,94,84757,2,2,B|106:75|121:73|121:73|113:87|115:101,1,53.3333333333333,2|0,0:0|2:0,0:2:0:0:
133,233,84895,70,2,B|154:253|154:253|226:245|226:245|230:241|230:241|326:228|326:228|330:232|330:232|418:221,1,266.666666666667,2|0,0:1|2:0,0:1:0:0:
508,110,85137,2,2,B|489:90|489:90|406:95|406:95|401:101|401:101|329:109,1,160,2|0,0:1|2:0,0:1:0:0:
183,170,85308,1,8,0:1:0:0:
252,97,85446,2,2,B|243:138|277:171|277:171|272:168|272:168|236:212|267:246|241:287,1,213.333333333333,2|0,0:0|2:0,0:2:0:0:
170,337,85792,2,2,B|153:334|136:344|136:344|147:325|160:325,1,66.6666666666667,2|0,0:0|2:0,0:2:0:0:
287,355,85930,2,2,B|317:362|340:386|340:386|341:349|321:321,1,133.333333333333,0|0,0:0|2:0,0:2:0:0:
145,237,86136,6,2,B|117:232|75:256|75:256|127:192|127:192|203:215|250:269|250:269|272:236|317:231,1,360.000013732911,4|0,1:2|2:0,0:2:0:0:
311,129,86550,1,0,0:0:0:0:
308,119,86619,2,2,B|291:108|275:108|275:108|285:119|296:134,1,53.3333333333333,2|0,0:0|2:0,0:0:0:0:
410,226,86757,2,2,B|433:221|446:180|446:180|420:198|395:200,1,106.666666666667,2|0,0:0|2:0,0:2:0:0:
330,317,86964,1,8,0:1:0:0:
330,317,87447,70,2,B|306:335|300:357|300:357|265:312|297:264,1,133.333333333333,2|0,0:0|2:0,0:0:0:0:
420,248,87654,2,2,B|433:254|435:267|435:267|426:261|414:259,1,40.000001525879,2|0,0:0|2:0,0:2:0:0:
263,183,87792,2,2,B|271:149|312:125|312:125|305:126|305:126|322:89|305:49,1,160,2|0,1:3|2:0,0:2:0:0:
171,75,88068,2,2,B|162:93|154:103|154:103|182:82|238:80,1,100,2|0,0:0|2:0,0:2:0:0:
398,14,88240,6,2,B|425:43|425:43|413:117|413:117|408:120|408:120|392:200|392:200|395:205|395:205|385:243,1,213.333333333333,2|0,0:1|2:0,0:1:0:0:
477,344,88447,2,2,B|503:318|503:318|496:271|496:271|492:267|492:267|480:197|480:197|485:191|485:191|480:151,1,160,2|0,0:1|2:0,0:1:0:0:
331,82,88619,1,8,0:1:0:0:
398,14,88757,2,2,B|427:25|461:16|461:16|426:93|358:46|328:81,1,213.333333333333,2|0,0:0|2:0,0:2:0:0:
264,131,89102,1,2,0:2:0:0:
267,143,89171,1,2,0:2:0:0:
271,157,89240,2,0,B|279:155|300:165|300:165|286:140|254:129,2,66.6666666666667,2|2|0,0:2|0:2|2:0,0:0:0:0:
155,64,89447,70,2,B|171:39|155:-4|155:-4|187:40|195:79|195:79|187:84|92:110|92:110|69:195|69:195|90:209|96:251,1,400.00001525879,4|0,1:2|2:0,0:2:0:0:
183,289,89860,1,0,0:0:0:0:
193,287,89929,2,2,B|211:282|220:271|220:271|204:269|183:264,1,53.3333333333333,2|0,0:0|2:0,0:0:0:0:
54,326,90067,2,2,B|53:355|68:382|68:382|69:353|87:327,1,106.666666666667,0|0,0:0|2:0,0:2:0:0:
1,263,90275,6,2,B|37:242|37:242|113:255|113:255|118:260|118:260|198:275|198:275|207:271|207:271|222:273,1,200.000007629395,10|0,0:1|2:0,0:1:0:0:
309,362,90516,2,2,B|264:357|264:357|229:313|229:313|230:307|230:307|191:252|191:252|186:251|186:251|139:188|139:188|144:157,1,266.666666666667,2|0,0:1|2:0,0:1:0:0:
222,57,90757,2,2,B|227:73|256:85|256:85|221:113|218:179,1,133.333333333333,2|0,0:0|2:0,0:0:0:0:
90,107,90964,2,2,B|91:95|96:84|96:84|101:97|109:108,1,40.000001525879,2|0,0:0|2:0,0:2:0:0:
22,259,91102,2,2,B|40:281|36:307|36:307|65:260|99:294|131:270|131:270|125:267|125:267|159:240|160:205|137:177,1,266.666666666667,2|0,1:3|2:0,0:2:0:0:
236,95,91516,70,2,B|276:114|276:114|293:193|293:193|288:198|288:198|307:291|307:291|314:294|314:294|330:373,1,266.666666666667,2|0,0:1|2:0,0:1:0:0:
168,363,91757,2,2,B|133:330|133:330|145:241|145:241|151:236|151:236|159:175,1,160,2|0,0:1|2:0,0:1:0:0:
189,33,91930,1,8,1:0:0:0:
189,33,92344,5,2,0:2:0:0:
116,10,92448,69,2,0:2:0:0:
49,50,92551,5,2,0:2:0:0:
58,127,92654,69,2,0:2:0:0:
133,147,92757,6,2,B|159:121|191:120|191:120|94:99|94:99|127:169|123:214|123:214|162:250|162:250|133:281|142:329,1,400.00001525879,4|0,1:2|2:0,0:2:0:0:
79,384,93170,1,0,0:0:0:0:
65,377,93274,2,2,B|44:362|37:341|37:341|57:355|87:361,1,80,2|0,0:0|2:0,0:2:0:0:
211,357,93447,2,2,B|210:365|219:383|219:383|193:374|185:358,1,53.3333333333333,0|0,0:0|2:0,0:2:0:0:
284,260,93584,1,8,0:1:0:0:
238,198,93688,2,2,B|244:195|223:198|223:198|246:157|319:158|350:209|350:209|348:200|348:200|395:205|437:168|417:118,1,300,2|0,0:0|2:0,0:2:0:0:
432,14,94413,6,0,B|311:12|392:179|341:33|172:121,1,280,2|0,1:2|2:0,0:0:0:0:
116,84,95240,2,0,B|133:192|291:87|148:192|374:164|286:268,1,280,2|0,0:2|2:0,0:0:0:0:
232,374,96068,6,0,B|172:294|326:285|255:249|207:228|239:144|310:121,1,280,4|0,1:3|2:0,0:0:0:0:
419,41,96895,2,0,B|414:58|432:71|432:71|436:150|164:71|243:278|296:266,1,335.999989746094,8|0,0:1|2:0,0:0:0:0:
400,341,97723,2,0,B|355:295|319:384|207:361|164:283|176:237,1,280,0|0,1:0|2:0,0:0:0:0:
267,172,98551,1,8,0:0:0:0:
172,55,98964,70,0,P|222:39|293:35,1,96,0|0,1:0|2:0,0:0:0:0:
199,129,99378,2,0,B|244:157|260:62|362:69|357:176|382:215|220:159|313:259,1,280,4|0,1:3|2:0,0:0:0:0:
397,333,100206,2,0,B|430:334|472:357|390:272|420:144|216:267|164:209,1,335.999989746094,8|0,0:1|2:0,0:0:0:0:
94,107,101033,2,0,B|146:85|-18:96|-70:238|126:269|111:316,1,280,0|0,1:0|2:0,0:0:0:0:
8,376,101861,2,0,B|-51:305|130:362|-17:98|225:219,1,335.999989746094,8|0,0:1|2:0,0:0:0:0:
248,349,102688,2,0,B|289:368|357:344|363:283|187:314|249:132,1,280,0|0,1:0|2:0,0:0:0:0:
316,41,103516,2,0,B|339:41|365:9|363:172|231:188|236:88|116:161|162:251,1,335.999989746094,8|0,0:1|2:0,0:0:0:0:
73,374,104344,2,0,B|34:327|-59:314|299:208|-93:237|9:134,1,280,0|0,1:0|2:0,0:0:0:0:
76,49,105171,1,8,0:0:0:0:
135,120,105585,6,0,P|173:146|219:138,1,96,0|0,1:0|2:0,0:0:0:0:
160,25,105999,2,0,B|94:34|77:236|188:232|142:113|220:127,1,280,4|0,1:3|2:0,0:0:0:0:
312,28,106826,2,0,B|348:18|433:-36|313:232|121:53|170:237|254:230|231:251,1,335.999989746094,8|0,0:1|2:0,0:0:0:0:
358,336,107654,2,0,B|435:257|337:146|319:299|234:238|392:125|297:116,1,280,0|0,1:0|2:0,0:0:0:0:
162,61,108482,6,8,B|109:14|234:4|430:19|435:110|102:88|239:243|239:243|300:307|464:253|422:111|105:107|172:389|61:373|61:373|-58:364|56:125|-40:204|103:422|386:387|439:355|456:227|456:227|465:100|263:164|458:36|500:154|480:223,1,1919.99994140625,0|0,0:0|2:0,2:1:0:0:
