osu file format v14

[General]
AudioFilename: audio.mp3
AudioLeadIn: 0
PreviewTime: 43082
Countdown: 0
SampleSet: Soft
StackLeniency: 0.7
Mode: 0
LetterboxInBreaks: 0
EpilepsyWarning: 1
WidescreenStoryboard: 1

[Editor]
Bookmarks: 89930,112620
DistanceSpacing: 1.2
BeatDivisor: 12
GridSize: 32
TimelineZoom: 3.399999

[Metadata]
Title:Dead City (Cut ver.)
TitleUnicode:Dead City (Cut ver.)
Artist:Steradlye
ArtistUnicode:Steradlye
Creator:AmeThysTas
Version:Apocalyptic
Source:
Tags:
BeatmapID:4538610
BeatmapSetID:2153915

[Difficulty]
HPDrainRate:5
CircleSize:3.9
OverallDifficulty:8.5
ApproachRate:9.6
SliderMultiplier:2
SliderTickRate:1

[Events]
//Background and Video events
0,0,"bg.jpg",0,0
//Break Periods
//Storyboard Layer 0 (Background)
//Storyboard Layer 1 (Fail)
//Storyboard Layer 2 (Pass)
//Storyboard Layer 3 (Foreground)
//Storyboard Layer 4 (Overlay)
//Storyboard Sound Samples

[TimingPoints]
3379,827.586206896552,4,2,1,60,1,0
3379,-100,4,2,1,60,0,0
16620,413.793103448276,4,2,1,63,1,0
16620,-100,4,2,1,80,0,0
29861,-90.9090909090909,4,2,1,80,0,0
33171,-83.3333333333333,4,2,1,80,0,0
36482,-76.9230769230769,4,2,1,80,0,0
38964,-71.4285714285714,4,2,1,80,0,0
41447,-100,4,2,1,80,0,0
42688,-66.6666666666667,4,2,1,80,0,0
43102,-33.3333333333333,4,3,2,100,0,1
43620,-66.6666666666667,4,3,2,100,0,1
44033,-50,4,3,2,100,0,1
44413,-40,4,3,2,100,0,1
44757,-100,4,3,2,100,0,1
44895,-50,4,3,2,100,0,1
45723,-58.8235294117647,4,3,2,100,0,1
46068,-50,4,3,2,100,0,1
46413,-33.3333333333333,4,3,2,100,0,1
46895,-50,4,3,2,100,0,1
47033,-66.6666666666667,4,3,2,100,0,1
47240,-100,4,3,2,100,0,1
47654,-50,4,3,2,100,0,1
48068,-100,4,3,2,100,0,1
48309,-50,4,3,2,100,0,1
48551,-40,4,3,2,100,0,1
49033,-50,4,3,2,100,0,1
49378,-40,4,3,2,100,0,1
49723,-33.3333333333333,4,3,2,100,0,1
50206,-50,4,3,2,100,0,1
51102,-40,4,3,2,100,0,1
51516,-50,4,3,2,100,0,1
51792,-50,4,3,2,100,0,1
52413,-100,4,3,2,100,0,1
52620,-40,4,3,2,100,0,1
53033,-100,4,3,1,85,0,0
53861,-66.6666666666667,4,3,1,85,0,0
54688,-100,4,3,1,85,0,0
55516,-66.6666666666667,4,3,1,85,0,0
56344,-33.3333333333333,4,3,2,100,0,1
56861,-50,4,3,2,100,0,1
57309,-50,4,3,2,100,0,1
57654,-40,4,3,2,100,0,1
57999,-50,4,3,2,100,0,1
58482,-40,4,3,2,100,0,1
58878,-50,4,3,2,100,0,1
59309,-66.6666666666667,4,3,2,100,0,1
59654,-33.3333333333333,4,3,2,100,0,1
60137,-50,4,3,2,100,0,1
60637,-100,4,3,2,100,0,1
61309,-50,4,3,2,100,0,1
61792,-40,4,3,2,100,0,1
62964,-33.3333333333333,4,3,2,100,0,1
63447,-50,4,3,2,100,0,1
63930,-40,4,3,2,100,0,1
64620,-50,4,3,2,100,0,1
65033,-40,4,3,2,100,0,1
65602,-100,4,3,2,100,0,1
65861,-40,4,3,2,100,0,1
66275,-33.3333333333333,4,3,2,100,0,1
66792,-50,4,3,2,100,0,1
67102,-40,4,3,2,100,0,1
67930,-100,4,3,1,85,0,0
69585,-33.3333333333333,4,3,2,100,0,1
69999,-50,4,3,2,100,0,1
70413,-33.3333333333333,4,3,2,100,0,1
70654,-25,4,3,2,100,0,1
70826,-40,4,3,2,100,0,1
71102,-66.6666666666667,4,3,2,100,0,1
71240,-50,4,3,2,100,0,1
71654,-25,4,3,2,100,0,1
72068,-40,4,3,2,100,0,1
72482,-50,4,3,2,100,0,1
72895,-33.3333333333333,4,3,2,100,0,1
73309,-50,4,3,2,100,0,1
73723,-66.6666666666667,4,3,2,100,0,1
74137,-40,4,3,2,100,0,1
74413,-66.6666666666667,4,3,2,100,0,1
74551,-100,4,3,2,100,0,1
74757,-40,4,3,2,100,0,1
74964,-25,4,3,2,100,0,1
75378,-50,4,3,2,100,0,1
75792,-40,4,3,2,100,0,1
76206,-33.3333333333333,4,3,2,100,0,1
76620,-50,4,3,2,100,0,1
77033,-33.3333333333333,4,3,2,100,0,1
77275,-25,4,3,2,100,0,1
77447,-40,4,3,2,100,0,1
77723,-66.6666666666667,4,3,2,100,0,1
77861,-50,4,3,2,100,0,1
78275,-25,4,3,2,100,0,1
78688,-100,4,3,2,100,0,1
79102,-40,4,3,2,100,0,1
79516,-100,4,3,1,85,0,0
80344,-66.6666666666667,4,3,1,85,0,0
81171,-100,4,3,1,85,0,0
81999,-66.6666666666667,4,3,1,85,0,0
82826,-33.3333333333333,4,3,2,100,0,1
83240,-50,4,3,2,100,0,1
83654,-33.3333333333333,4,3,2,100,0,1
83861,-25,4,3,2,100,0,1
84067,-40,4,3,2,100,0,1
84481,-50,4,3,2,100,0,1
84895,-25,4,3,2,100,0,1
85309,-50,4,3,2,100,0,1
85723,-40,4,3,2,100,0,1
86136,-33.3333333333333,4,3,2,100,0,1
86550,-50,4,3,2,100,0,1
86964,-66.6666666666667,4,3,2,100,0,1
87378,-40,4,3,2,100,0,1
87654,-66.6666666666667,4,3,2,100,0,1
87792,-50,4,3,2,100,0,1
87998,-40,4,3,2,100,0,1
88205,-25,4,3,2,100,0,1
88619,-50,4,3,2,100,0,1
89033,-40,4,3,2,100,0,1
89447,-33.3333333333333,4,3,2,100,0,1
89861,-50,4,3,2,100,0,1
90274,-33.3333333333333,4,3,2,100,0,1
90481,-25,4,3,2,100,0,1
90688,-40,4,3,2,100,0,1
90964,-66.6666666666667,4,3,2,100,0,1
91102,-50,4,3,2,100,0,1
91516,-25,4,3,2,100,0,1
91929,-100,4,3,2,100,0,1
92343,-40,4,3,2,100,0,1
92757,-33.3333333333333,4,3,2,100,0,1
93171,-50,4,3,2,100,0,1
93585,-40,4,3,2,100,0,1
94413,-100,4,3,1,85,0,0
96068,-100,4,3,1,70,0,0
96895,-83.3333333333333,4,3,1,70,0,0
97723,-100,4,3,1,70,0,0
98964,-125,4,3,1,70,0,0
99378,-100,4,3,1,70,0,0
100206,-83.3333333333333,4,3,1,70,0,0
101033,-100,4,3,1,70,0,0
101861,-83.3333333333333,4,3,1,70,0,0
102688,-100,4,3,1,70,0,0
103516,-83.3333333333333,4,3,1,70,0,0
104344,-100,4,3,1,70,0,0
105585,-125,4,3,1,70,0,0
105999,-100,4,3,1,70,0,0
106826,-83.3333333333333,4,3,1,70,0,0
107654,-100,4,3,1,70,0,0
108482,-83.3333333333333,4,3,1,70,0,0
109723,-83.3333333333333,4,3,1,60,0,0
110137,-83.3333333333333,4,3,1,50,0,0
110551,-83.3333333333333,4,3,1,40,0,0
110964,-83.3333333333333,4,3,1,30,0,0
111378,-83.3333333333333,4,3,1,20,0,0
111792,-83.3333333333333,4,3,1,10,0,0

[Colours]
Combo1 : 204,0,0
Combo2 : 194,167,224
Combo3 : 232,174,227
Combo4 : 255,106,252
Combo5 : 170,112,250
Combo6 : 255,79,79

[HitObjects]
256,192,1723,12,0,3241,2:0:0:0:
136,221,3379,6,0,B|81:180|17:242|45:324|-104:200|-55:25|77:86|197:140|81:350|275:271|321:178|289:115|191:93|198:150,1,550,12|0,3:0|0:0,3:0:0:0:
129,103,5861,2,0,P|174:58|269:61,1,150,12|0,3:0|0:0,3:0:0:0:
336,108,6689,2,0,B|248:93|239:255|385:264|468:166|403:65|377:116|318:67,1,350,12|0,3:0|0:0,3:0:0:0:
200,146,8344,2,0,B|165:101|113:106|117:15|205:-72|334:116|211:77|161:107|211:202|249:240,1,350,12|0,3:0|0:0,3:0:0:0:
176,334,9999,6,0,B|214:332|234:230|71:161|-31:358|116:456|227:361|238:424|334:434|341:217|242:328|239:236|351:168|385:232|365:265,1,550,12|0,3:0|0:0,3:0:0:0:
375,355,12482,2,0,P|441:319|452:238,1,150,12|0,0:3|0:0,3:0:0:0:
370,100,13310,2,0,B|430:145|445:212|357:276|248:197|234:90|461:145|378:33|273:21|279:73,1,350,12|0,0:3|0:0,3:0:0:0:
235,135,14965,2,0,B|202:-41|94:24|56:153|235:112|248:191,1,350,12|0,0:3|0:0,3:0:0:0:
321,370,16620,70,0,B|310:363|291:365|291:365|433:352|365:205|310:237|152:353|315:302|390:216|332:146,1,350,2|0,3:1|0:0,3:0:0:0:
267,119,17447,2,0,B|262:260|471:192|473:293|393:335|439:157,1,350,2|0,0:2|0:0,3:0:0:0:
408,82,18275,2,0,B|375:54|303:98|402:318|245:320|168:218|331:307,1,350,2|0,0:0|0:0,3:0:0:0:
464,337,19102,6,0,B|449:340|439:362|439:362|456:130|365:366|287:365|240:348,1,350,2|0,3:1|0:0,3:0:0:0:
193,197,19930,2,0,B|179:179|155:172|155:172|244:193|307:161|316:312|120:325|352:264|377:201|340:142,1,350,2|0,3:1|0:0,3:0:0:0:
355,105,20757,2,0,B|386:55|330:33|234:59|270:243|178:261|121:244,1,350,2|0,0:0|0:0,3:0:0:0:
30,134,21585,70,0,B|10:121|-3:101|-3:101|-40:235|87:273|125:78|205:120,1,350,2|0,3:1|0:0,3:0:0:0:
216,41,22413,2,0,P|291:56|334:137,1,150,2|0,0:0|0:0,3:0:0:0:
413,136,22826,2,0,P|416:209|343:266,1,150,2|0,0:0|0:0,3:0:0:0:
174,326,23240,6,0,B|188:361|187:386|187:386|219:282|343:273|155:177|251:118,1,350,2|0,3:1|0:0,3:0:0:0:
323,161,24068,2,0,B|319:210|241:238|132:59|65:75|93:249|184:256,1,350,2|0,0:0|0:0,3:0:0:0:
245,274,24895,2,0,B|260:237|264:167|102:166|48:0|251:53|266:98,1,350,2|0,0:0|0:0,3:0:0:0:
340,263,25723,70,0,B|345:295|327:324|327:324|444:256|303:217|372:155|429:158|500:218|449:62,1,350,2|0,3:1|0:0,3:0:0:0:
308,68,26551,2,0,B|282:61|267:41|267:41|310:161|345:35|457:132|482:248|432:286,1,350,2|0,3:1|0:0,3:0:0:0:
370,289,27378,2,0,P|317:333|209:302,1,150,2|0,0:0|0:0,3:0:0:0:
222,245,27792,2,0,P|172:200|172:107,1,150,2|0,0:0|0:0,3:0:0:0:
318,110,28206,6,0,B|345:102|369:109|369:109|260:23|244:297|76:159,1,350,2|0,3:1|0:0,3:0:0:0:
97,106,29033,2,0,B|158:68|251:185|-42:261|162:306|222:298|271:234,1,350,2|0,0:0|0:0,3:0:0:0:
254,61,29861,70,0,B|248:81|228:93|228:93|307:63|397:159|179:181|365:237|433:225|351:77|480:114,1,385.000011749268,2|0,0:1|0:0,3:0:0:0:
492,195,30688,2,0,B|370:188|266:133|344:5|191:71|177:152|240:200,1,385.000011749268,2|0,0:0|0:0,3:0:0:0:
299,217,31516,2,0,B|301:130|452:149|407:46|495:90|551:156|428:233|464:280,1,385.000011749268,2|0,0:0|0:0,3:0:0:0:
311,323,32344,6,0,B|342:334|357:366|357:366|343:272|483:197|267:173|352:34,1,385.000011749268,2|0,3:1|0:0,3:0:0:0:
486,85,33171,2,0,B|490:111|515:133|515:133|365:68|531:320|221:39|164:149|279:288|330:234,1,419.999987182618,2|0,3:1|0:0,3:0:0:0:
389,236,33999,2,0,B|431:178|317:82|271:303|-47:322|209:181|242:96|136:77,1,419.999987182618,2|0,0:0|0:0,3:0:0:0:
33,46,34826,70,0,B|15:58|-18:47|-18:47|98:121|12:109|-78:245|78:302|143:77|174:336,1,419.999987182618,2|0,3:1|0:0,3:0:0:0:
118,362,35654,2,0,P|184:375|257:288,1,179.999994506836,2|0,0:0|0:0,3:0:0:0:
341,271,36068,2,0,P|349:184|285:119,1,179.999994506836,2|0,0:0|0:0,3:0:0:0:
107,84,36482,6,0,B|84:71|51:75|51:75|109:-15|234:12|268:282|207:130|56:139|210:281|265:213,1,454.999979171754,2|0,3:1|0:0,3:0:0:0:
297,132,37309,2,0,B|391:57|120:19|128:371|71:4|208:196|182:355|-68:287|-16:164|39:140|81:162,1,454.999979171754,2|0,0:0|0:0,3:0:0:0:
93,85,38137,2,0,B|194:59|192:312|77:262|-104:231|106:377|138:296|257:327|246:230,1,454.999979171754,2|0,0:0|0:0,3:0:0:0:
333,137,38964,70,0,B|330:112|362:95|362:95|78:178|321:-4|529:-73|476:249|362:144,1,489.999985046387,2|0,3:1|0:0,3:0:0:0:
196,171,39792,2,0,B|165:148|165:118|165:118|75:242|242:270|85:389|-7:256|278:371|274:86|323:259,1,489.999985046387,2|0,3:1|0:0,3:0:0:0:
273,312,40620,2,0,P|293:343|439:295,1,209.999993591309,2|0,0:0|0:0,3:0:0:0:
493,254,41033,2,0,P|482:187|353:154,1,209.999993591309,2|0,0:0|0:0,3:0:0:0:
219,254,41447,6,0,B|198:267|193:294|193:294|120:186|300:196|297:117|263:62|256:179|319:224,1,350,2|0,3:1|0:0,3:0:0:0:
376,262,42275,1,2,0:3:0:0:
436,103,42482,1,0,1:0:0:0:
488,351,42688,2,0,B|401:334|401:334|379:340|379:340|265:315,1,225.000008583069,8|0,0:1|0:0,0:0:0:0:
146,175,43102,6,2,B|108:114|110:53|110:53|107:108|93:136|93:136|154:146|213:184|213:184|216:242|174:286|174:286|184:280|184:280|169:331|208:377,1,550.000020980836,4|0,1:2|2:0,0:2:0:0:
201,363,43516,1,0,0:0:0:0:
305,341,43620,2,2,B|320:309|364:295|364:295|319:300|319:300|316:295|316:295|315:302|315:302|272:308,1,175.00000667572,2|0,0:0|2:0,0:2:0:0:
77,216,43930,1,8,0:1:0:0:
68,323,44033,2,2,B|47:291|8:268|8:268|107:254|107:254|111:248|111:248|115:253|115:253|174:262|203:232|203:232|226:211|262:210,1,333.333333333333,2|0,0:0|2:0,0:2:0:0:
251,135,44413,6,2,B|266:118|275:99|275:99|282:119|270:138,1,83.3333333333333,2|0,0:0|2:0,0:0:0:0:
259,288,44551,2,2,B|244:312|239:349|239:349|222:298|187:250,1,166.666666666667,2|0,0:0|2:0,0:2:0:0:
375,238,44757,1,0,1:0:0:0:
408,165,44895,2,2,B|401:149|407:132|407:132|391:142|388:189,1,66.6666666666667,2|0,0:0|2:0,0:3:0:0:
421,303,45033,2,2,B|457:309|484:331|484:331|469:297|423:272,1,133.333333333333,2|0,3:0|2:0,0:2:0:0:
260,118,45240,70,2,B|250:95|220:86|220:86|299:87|316:180|316:180|315:174|315:174|270:191|264:239,1,266.666666666667,2|0,0:0|2:0,0:2:0:0:
61,131,45585,1,8,0:1:0:0:
182,229,45723,2,2,B|165:252|167:281|167:281|156:227|116:197|116:197|124:198|124:198|88:149|125:98,1,255.000004863739,2|0,3:0|2:0,0:2:0:0:
73,47,46068,2,2,B|61:33|43:29|43:29|58:43|68:73,1,66.6666666666667,2|0,0:0|2:0,0:0:0:0:
191,76,46206,2,2,B|196:47|219:17|219:17|168:33|140:66,1,133.333333333333,2|0,0:0|2:0,0:2:0:0:
277,238,46413,6,2,B|281:261|295:278|295:278|261:330|213:346|213:346|251:318|247:270|247:270|306:277|350:320|350:320|399:296|399:296|409:302|409:302|406:293|406:293|462:266|462:266|459:231|488:173,1,550.000020980836,4|0,1:2|2:0,0:2:0:0:
482,202,46826,1,0,0:0:0:0:
443,133,46895,2,2,B|441:119|426:106|426:106|455:112|469:136,1,66.6666666666667,2|0,0:0|2:0,0:0:0:0:
391,210,47033,2,2,B|370:210|356:225|356:225|375:200|370:151,1,100.000003814697,2|0,0:0|2:0,0:2:0:0:
461,26,47240,1,8,0:1:0:0:
454,20,47378,2,0,B|387:28|387:28|382:24|382:24|380:29|380:29|298:45,1,150,0|0,2:0|2:0,0:0:0:0:
303,48,47723,70,2,B|305:78|305:78|317:62|347:49,1,66.6666666666667,2|0,0:0|2:0,0:0:0:0:
220,10,47861,2,2,B|196:19|172:12|172:12|179:15|179:15|167:62|122:93,1,133.333333333333,2|0,0:0|2:0,0:2:0:0:
52,205,48068,2,2,B|34:219|23:235|23:235|24:206|7:163,1,100,2|0,1:3|2:0,0:2:0:0:
10,169,48309,2,0,B|41:174|69:160|69:160|64:163|64:163|99:217|161:239,1,166.666666666667,2|0,0:0|2:0,0:0:0:0:
308,339,48551,2,2,B|275:318|277:282|277:282|268:285|268:285|343:251|344:159|272:114|272:114|268:145|228:172,1,333.333333333333,2|0,0:0|2:0,0:0:0:0:
213,353,48895,1,8,0:1:0:0:
45,314,49033,2,2,B|32:350|6:364|6:364|77:352|77:352|80:359|80:359|82:351|82:351|130:342|130:342|135:305|162:269|219:270,1,300,2|0,0:0|2:0,0:2:0:0:
198,277,49378,5,2,0:2:0:0:
123,259,49447,1,2,0:2:0:0:
138,183,49516,1,2,0:2:0:0:
71,143,49585,2,0,B|54:121|36:122|36:122|56:114|98:126,1,83.3333333333333,2|0,0:2|2:0,0:0:0:0:
240,102,49723,70,2,B|288:68|248:40|281:-6|281:-6|260:28|221:55|221:55|252:96|337:109|337:109|296:182|296:182|289:181|289:181|293:187|293:187|268:232|268:232|291:263|279:300,1,550.000020980836,4|0,1:2|2:0,0:2:0:0:
276,299,50137,1,0,0:0:0:0:
342,351,50206,2,2,B|369:346|387:371|387:371|413:288|364:252|364:252|370:257|370:257|377:203|428:187,1,266.666666666667,2|0,0:0|2:0,0:2:0:0:
503,36,50550,1,8,0:1:0:0:
503,181,50654,2,2,B|472:154|478:117|478:117|414:103|414:103|413:96|413:96|409:102|409:102|317:88|317:88|349:109|351:152,1,300,2|0,0:0|2:0,0:2:0:0:
349,141,50999,5,2,0:0:0:0:
250,54,51102,2,2,B|281:46|295:14|295:14|314:66|265:103|265:103|273:100|273:100|251:138|275:189,1,250,2|0,0:0|2:0,0:0:0:0:
370,315,51378,1,0,1:3:0:0:
415,202,51516,2,2,B|425:230|450:248|450:248|354:231|354:231|350:238|350:238|348:230|348:230|309:223|309:223|248:215|232:270,1,300,2|0,0:0|2:0,0:2:0:0:
259,332,51861,2,2,B|274:334|284:353|284:353|285:325|267:304,1,66.6666666666667,2|0,0:0|2:0,0:0:0:0:
153,270,51999,2,2,B|118:281|101:314|101:314|163:295|185:303,1,133.333333333333,2|0,0:0|2:0,0:2:0:0:
85,78,52205,1,8,0:1:0:0:
91,87,52413,70,0,L|178:101,1,83.3333333333333,0|0,2:0|2:0,0:0:0:0:
183,105,52620,1,2,0:2:0:0:
129,40,52723,5,2,0:2:0:0:
114,149,52826,69,2,0:2:0:0:
198,194,52930,5,2,0:2:0:0:
293,174,53033,54,0,B|349:149|351:95|351:95|356:25|463:19|487:121|404:160|341:144|344:168,1,350,12|0,1:3|2:0,0:0:0:0:
145,34,53861,2,0,B|123:45|92:36|92:36|193:95|146:137|222:196,1,250.000009536744,8|0,0:1|2:0,0:0:0:0:
262,249,54275,2,0,P|258:292|83:348,1,250.000009536744,2|0,0:2|2:0,0:0:0:0:
85,206,54688,70,0,B|159:228|164:286|50:354|261:353|287:91|63:212|35:180,1,350,2|0,1:2|2:0,0:0:0:0:
26,32,55516,2,0,B|22:19|-3:3|-3:3|248:-9|181:121|-37:73|-43:246|13:305|70:281,1,525.000020027161,8|0,0:1|2:0,0:0:0:0:
229,136,56344,22,2,B|240:60|214:13|214:13|257:90|257:90|218:125|164:144|164:144|154:192|154:192|146:193|146:193|153:197|153:197|137:264|137:264|200:261|219:328,1,550.000020980836,4|0,1:2|2:0,0:2:0:0:
211,317,56757,1,0,0:0:0:0:
284,337,56861,2,2,B|291:316|316:307|316:307|207:328|207:328|203:322|203:322|201:329|201:329|118:345,1,233.333333333333,2|0,0:0|2:0,0:2:0:0:
262,202,57171,1,8,0:1:0:0:
170,152,57309,2,2,B|192:161|205:195|205:195|273:148|344:178|344:178|339:181|339:181|383:212|431:200,1,300,2|0,0:0|2:0,0:2:0:0:
483,143,57654,6,2,B|483:120|491:102|491:102|469:106|454:132,1,83.3333333333333,2|0,0:0|2:0,0:0:0:0:
446,278,57792,2,2,B|461:325|517:326|517:326|474:287|479:238,1,166.666666666667,2|0,0:0|2:0,0:2:0:0:
286,244,57999,1,2,1:3:0:0:
279,284,58068,1,0,0:0:0:0:
290,319,58137,2,2,B|299:334|316:343|316:343|309:327|305:308,1,66.6666666666667,2|0,0:0|2:0,0:2:0:0:
321,160,58275,2,2,B|327:129|357:104|357:104|343:144|371:193,1,133.333333333333,2|0,0:0|2:0,0:2:0:0:
201,327,58482,70,2,B|165:327|136:360|136:360|161:263|161:263|158:259|158:259|163:257|163:257|177:205|177:205|124:183|135:117,1,333.333333333333,2|0,0:0|2:0,0:0:0:0:
346,9,58826,1,8,0:1:0:0:
213,58,58964,2,2,B|231:96|211:134|211:134|259:110|312:123|312:123|310:115|310:115|333:190|405:184,1,300,2|0,0:0|2:0,0:2:0:0:
396,105,59309,2,2,B|397:92|407:82|407:82|391:86|377:98,1,50.0000019073487,2|0,0:0|2:0,0:0:0:0:
414,259,59447,2,2,B|437:265|454:289|454:289|456:258|444:234,1,100.000003814697,2|0,0:0|2:0,0:2:0:0:
241,245,59654,6,2,B|203:289|178:343|178:343|198:298|177:260|177:260|245:263|316:297|316:297|332:225|332:225|338:224|338:224|333:218|333:218|342:169|342:169|317:149|309:110,1,550.000020980836,4|0,1:2|2:0,0:2:0:0:
314,108,60068,1,0,0:0:0:0:
398,84,60137,2,2,B|412:94|421:113|421:113|402:104|375:104,1,66.6666666666667,2|0,0:0|2:0,0:0:0:0:
246,67,60275,2,2,B|212:43|224:3|224:3|234:33|276:56,1,133.333333333333,2|0,0:0|2:0,0:2:0:0:
406,281,60482,1,8,0:1:0:0:
442,207,60654,2,0,B|386:197|386:197|385:191|385:191|380:195|380:195|323:186,1,116.666666666667,0|0,2:0|0:0,0:0:0:0:
318,184,61309,70,2,B|301:169|304:151|304:151|315:168|349:183,1,66.6666666666667,6|0,1:3|2:0,0:2:0:0:
383,272,61447,2,2,B|367:282|357:297|357:297|358:279|353:262,1,66.6666666666667,2|0,0:0|2:0,0:2:0:0:
463,134,61585,2,2,B|482:106|529:106|529:106|501:135|491:186,1,133.333333333333,2|0,0:0|2:0,0:2:0:0:
278,291,61792,6,2,B|254:300|237:327|237:327|220:231|283:192|283:192|267:195|267:195|307:158|304:83,1,333.333333333333,2|0,0:0|2:0,0:0:0:0:
115,13,62137,1,8,1:0:0:0:
219,94,62275,2,2,B|216:62|235:40|235:40|155:45|155:45|152:39|152:39|149:46|149:46|64:54|64:54|122:85|121:131|121:131|98:142|84:183,1,375,2|0,0:0|2:0,0:2:0:0:
95,165,62620,69,2,0:2:0:0:
162,199,62689,1,2,0:2:0:0:
230,168,62758,1,2,0:2:0:0:
285,225,62827,2,0,B|312:224|330:240|330:240|316:216|279:193,1,93.75,2|0,0:2|2:0,0:0:0:0:
135,283,62964,6,0,B|48:263|-6:273|-6:273|49:261|96:245|96:245|102:252|130:346|130:346|178:352|178:352|181:358|181:358|185:353|185:353|240:363|240:363|246:320|275:295|309:299,1,550.000020980836,4|0,1:2|2:0,0:0:0:0:
288,300,63378,1,0,0:0:0:0:
322,369,63447,2,2,B|336:381|361:376|361:376|342:367|328:344,1,66.6666666666667,2|0,0:0|2:0,0:0:0:0:
228,242,63585,2,2,B|196:213|166:214|166:214|202:236|210:274,1,133.333333333333,2|0,0:0|2:0,0:2:0:0:
461,193,63792,1,8,0:1:0:0:
395,305,63930,2,2,B|371:328|379:358|379:358|293:338|285:233|362:206|362:206|355:208|355:208|351:174|319:154,1,333.333333333333,2|0,0:0|2:0,0:2:0:0:
108,142,64275,70,2,B|75:125|81:84|152:1|252:79|245:128|245:128|252:122|252:122|225:163|261:218,1,333.333333333333,2|0,0:0|2:0,0:0:0:0:
427,155,64620,1,0,1:0:0:0:
304,62,64757,2,2,B|301:48|287:34|287:34|314:36|338:57,1,66.6666666666667,2|0,0:0|2:0,0:2:0:0:
350,155,64895,2,2,B|347:184|370:211|370:211|328:200|312:142,1,133.333333333333,2|0,0:0|2:0,0:2:0:0:
510,58,65102,2,2,B|467:46|467:0|467:0|473:0|473:0|418:2|386:55|421:110|421:110|414:109|414:109|456:146|445:198,1,333.333333333333,2|0,0:0|2:0,0:0:0:0:
283,251,65447,1,8,0:1:0:0:
278,258,65620,6,0,B|233:244|233:244|220:250|220:250|173:236,1,100,0|0,0:0|2:0,0:0:0:0:
171,235,65861,1,2,0:2:0:0:
207,304,65964,69,2,0:2:0:0:
94,264,66068,5,2,0:2:0:0:
162,158,66171,69,2,0:2:0:0:
103,92,66275,6,2,B|105:-13|105:-13|110:26|132:62|132:62|71:82|41:104|41:104|52:155|52:155|47:159|47:159|55:162|55:162|72:225|72:225|108:233|143:262|143:262|124:289|130:339,1,550.000020980836,4|0,1:2|2:0,0:2:0:0:
134,317,66688,1,0,0:0:0:0:
204,346,66792,2,2,B|219:338|254:338|254:338|234:323|206:315,1,100,2|0,0:0|2:0,0:0:0:0:
58,343,66964,2,2,B|41:358|42:375|42:375|56:360|90:352,1,66.6666666666667,2|0,0:0|2:0,0:2:0:0:
177,152,67102,1,8,0:1:0:0:
285,187,67206,2,2,B|276:224|300:264|300:264|232:200|165:180|165:180|177:178|177:178|97:185|29:146,1,375,2|0,0:0|2:0,0:2:0:0:
412,27,67930,54,0,B|467:137|233:200|363:286|438:283|486:191|424:181|415:143,1,366.666666666667,4|0,1:3|2:0,0:0:0:0:
339,57,68757,2,0,B|248:59|245:207|132:181|36:118|249:53|253:173,1,366.666666666667,2|0,0:2|2:0,0:0:0:0:
400,274,69585,54,2,B|415:345|446:382|446:382|417:353|391:349|391:349|410:297|451:231|451:231|422:181|422:181|415:181|415:181|418:176|418:176|387:121|387:121|433:82|412:27,1,550.000020980836,4|0,1:2|2:0,0:2:0:0:
408,28,69999,1,0,0:0:0:0:
338,60,70102,2,2,B|334:79|317:86|317:86|349:74|391:82|391:82|393:88|393:88|396:83|396:83|435:92|482:76|482:76|488:94|510:113,1,233.333333333333,2|0,0:0|2:0,0:2:0:0:
511,285,70413,70,2,B|490:315|490:315|427:306|427:306|422:300|422:300|329:283|329:283|323:286|323:286|269:274|269:274|213:287,1,300.000011444092,10|0,0:1|2:0,0:1:0:0:
261,355,70654,2,2,B|304:345|304:345|319:270|319:270|316:265|316:265|328:186|328:186|333:183|333:183|345:103|345:103|341:96|341:96|350:27|350:27|335:10,1,333.333333333333,2|0,0:1|2:0,0:1:0:0:
226,152,70895,2,2,B|224:184|245:205|245:205|240:201|240:201|172:236|119:182,1,166.666666666667,2|0,0:0|2:0,0:3:0:0:
151,85,71102,2,0,B|155:73|157:61|157:61|172:72|175:95,1,50.0000019073487,2|0,0:0|2:0,0:0:0:0:
70,156,71240,5,0,1:0:0:0:
57,162,71309,1,0,0:0:0:0:
38,197,71378,1,2,0:0:0:0:
58,271,71447,1,0,0:0:0:0:
126,313,71516,2,0,B|145:313|161:301|161:301|143:297|125:284,1,66.6666666666667,2|0,0:0|2:0,0:0:0:0:
0,353,71654,70,2,B|24:378|24:378|96:365|96:365|100:361|100:361|173:344|173:344|179:346|179:346|291:321,1,266.666666666667,2|0,0:1|2:0,0:1:0:0:
511,284,71861,2,2,B|499:251|499:251|429:232|429:232|423:234|423:234|350:219|350:219|345:214|345:214|267:230|267:230|264:234|264:234|191:252|191:252|185:250|185:250|111:270,1,400,2|0,0:1|2:0,0:1:0:0:
14,137,72137,2,2,B|50:109|32:69|32:69|34:74|34:74|94:67|145:123|134:176|134:176|79:181|65:241,1,333.333333333333,2|0,0:0|2:0,0:3:0:0:
167,357,72482,1,0,1:0:0:0:
57,372,72585,2,2,B|40:353|14:357|14:357|34:313|97:316|97:316|89:308|89:308|136:299|154:246,1,233.333333333333,2|0,0:0|2:0,0:2:0:0:
232,86,72895,6,0,B|215:28|181:-6|181:-6|196:41|185:60|185:60|238:63|303:102|303:102|279:170|279:170|273:170|273:170|277:174|277:174|256:236|256:236|309:261|299:321,1,550.000020980836,4|0,1:2|2:0,0:0:0:0:
293,326,73309,1,0,0:0:0:0:
218,308,73378,2,2,B|200:300|190:288|190:288|184:307|204:332,1,66.6666666666667,2|0,0:0|2:0,0:0:0:0:
370,360,73516,2,2,B|402:364|425:380|425:380|408:333|380:327,1,133.333333333333,0|0,0:0|2:0,0:2:0:0:
135,374,73723,1,8,0:1:0:0:
125,368,73861,70,0,B|137:313|137:313|143:311|143:311|139:306|139:306|156:215|156:215|153:212|153:212|158:210|158:210|173:142,1,225.000008583069,0|0,2:0|2:0,0:0:0:0:
164,149,74206,2,2,B|121:135|84:164|84:164|83:157|83:157|86:201|37:246,1,166.666666666667,2|0,0:0|2:0,0:0:0:0:
204,359,74413,2,2,B|216:354|231:358|231:358|225:345|209:336,1,50.0000019073487,2|0,0:0|2:0,0:2:0:0:
51,361,74551,2,2,B|28:358|9:361|9:361|30:341|48:299,1,100,2|0,1:3|2:0,0:2:0:0:
50,309,74792,2,2,B|86:307|108:290|108:290|104:294|104:294|145:278|189:292,1,125,2|0,0:0|2:0,0:2:0:0:
318,374,74964,6,2,B|353:346|353:346|332:252|332:252|327:248|327:248|307:149|307:149|310:143|310:143|286:27,1,333.333333333333,2|0,0:1|2:0,0:1:0:0:
61,63,75206,2,2,B|71:106|71:106|160:127|160:127|167:123|167:123|225:136,1,200,2|0,0:1|2:0,0:1:0:0:
491,26,75378,1,8,0:1:0:0:
508,168,75516,2,2,B|508:186|518:206|518:206|498:204|473:181,1,66.6666666666667,2|0,0:0|2:0,0:2:0:0:
411,110,75654,2,2,B|430:108|448:93|448:93|435:112|435:137,1,66.6666666666667,2|0,0:0|2:0,0:2:0:0:
406,195,75861,69,2,0:2:0:0:
342,148,75930,1,2,0:2:0:0:
291,204,75999,1,2,0:2:0:0:
236,150,76068,2,0,B|220:140|212:122|212:122|205:152|231:190,1,83.3333333333333,2|0,0:2|2:0,0:0:0:0:
353,268,76206,6,2,B|401:302|361:330|394:376|394:376|373:342|334:315|334:315|365:274|450:261|450:261|409:188|409:188|402:189|402:189|406:183|406:183|381:138|381:138|404:107|392:70,1,550.000020980836,4|0,1:2|2:0,0:2:0:0:
387,70,76620,1,0,0:0:0:0:
313,41,76688,2,2,B|301:67|316:99|316:99|308:98|308:98|330:146|390:126|394:200|394:200|366:182|324:193,1,266.666666666667,2|0,0:0|2:0,0:2:0:0:
172,24,77033,70,2,B|137:35|137:35|124:119|124:119|128:124|128:124|116:222|116:222|111:226|111:226|96:314,1,300.000011444092,10|0,0:1|2:0,0:1:0:0:
44,350,77275,2,2,B|79:376|79:376|150:363|150:363|154:356|154:356|248:336|248:336|255:340|255:340|347:320|347:320|364:271,1,333.333333333333,2|0,0:1|2:0,0:1:0:0:
430,151,77516,2,2,B|457:124|493:142|493:142|487:140|487:140|510:215|472:252,1,166.666666666667,2|0,0:0|2:0,0:0:0:0:
446,331,77723,2,2,B|453:341|471:341|471:341|458:332|451:316,1,50.0000019073487,2|0,0:0|2:0,0:2:0:0:
309,225,77861,2,2,B|320:209|345:207|345:207|301:134|209:133|174:208|174:208|177:199|177:199|141:200|121:167,1,333.333333333333,2|0,1:3|2:0,0:2:0:0:
272,54,78275,6,2,B|288:72|288:72|276:156|276:156|271:159|271:159|258:248|258:248|262:256|262:256|248:358|248:358|226:371,1,333.333333333333,2|0,0:1|2:0,0:1:0:0:
0,285,78516,2,2,B|24:259|24:259|86:269|86:269|93:275|93:275|169:287|169:287|176:283|176:283|241:294,1,200,2|0,0:1|2:0,0:1:0:0:
414,384,78688,1,8,0:1:0:0:
419,374,78895,70,0,L|392:282,1,83.3333333333333,0|0,2:0|2:0,0:0:0:0:
399,284,79102,1,2,0:2:0:0:
350,341,79206,5,2,0:2:0:0:
317,234,79309,69,2,0:2:0:0:
440,213,79413,5,2,0:2:0:0:
414,143,79516,6,0,B|401:110|483:69|378:-5|191:38|437:177|336:275|288:288,1,366.666666666667,12|0,1:3|2:0,0:0:0:0:
147,360,80344,2,0,B|125:349|94:358|94:358|212:329|211:213,1,250.000009536744,8|0,0:1|2:0,0:0:0:0:
261,159,80758,2,0,P|257:116|78:55,1,250.000009536744,2|0,0:2|2:0,0:0:0:0:
24,218,81171,6,0,B|77:259|206:36|130:343|333:259|344:176,1,366.666666666667,2|0,1:2|2:0,0:0:0:0:
437,27,81999,2,0,B|459:10|460:-6|460:-6|513:243|596:20|371:251|412:-75|263:133|203:144|313:263,1,550.000020980836,8|0,0:1|2:0,0:0:0:0:
478,260,82826,38,2,B|515:325|509:379|509:379|520:292|520:292|470:273|413:276|413:276|387:235|387:235|379:237|379:237|383:231|383:231|343:176|343:176|401:157|399:86,1,550.000020980836,4|0,1:2|2:0,0:2:0:0:
396,100,83239,1,0,0:0:0:0:
472,99,83343,2,2,B|481:127|497:138|497:138|388:117|388:117|384:123|384:123|382:116|382:116|299:100,1,233.333333333333,2|0,0:0|2:0,0:2:0:0:
138,49,83654,6,2,B|116:85|116:85|134:149|134:149|139:151|139:151|169:227|169:227|166:233|166:233|197:312|197:312|233:336,1,300.000011444092,8|0,0:1|2:0,0:1:0:0:
121,327,83895,2,2,B|111:289|111:289|152:220|152:220|159:220|159:220|204:148|204:148|205:139|205:139|252:70|252:70|258:66|258:66|298:7,1,333.333333333333,2|0,0:1|2:0,0:1:0:0:
256,212,84136,2,2,B|244:258|291:288|291:288|276:252|299:193,1,166.666666666667,2|0,0:0|2:0,0:0:0:0:
365,115,84344,2,2,B|372:93|386:79|386:79|365:78|343:93,1,83.3333333333333,2|0,0:0|2:0,0:2:0:0:
406,252,84482,69,2,1:3:0:0:
419,276,84550,1,0,0:0:0:0:
411,324,84620,1,2,0:0:0:0:
343,359,84688,1,0,0:0:0:0:
279,322,84757,2,2,B|260:310|263:289|263:289|275:302|284:307,1,66.6666666666667,2|0,0:0|2:0,0:2:0:0:
476,365,84895,6,2,B|456:343|456:343|384:346|384:346|379:350|379:350|283:356|283:356|279:352|279:352|196:356|196:356|190:361|190:361|95:365,1,333.333333333333,2|0,0:1|2:0,0:1:0:0:
0,222,85137,2,2,B|18:192|18:192|101:184|101:184|107:189|107:189|212:181,1,200,2|0,0:1|2:0,0:1:0:0:
384,266,85308,1,8,0:1:0:0:
478,122,85446,2,2,B|421:125|401:189|401:189|403:181|403:181|350:194|302:170|302:170|325:208|304:246,1,300,2|0,0:0|2:0,0:2:0:0:
226,225,85792,2,2,B|223:212|195:196|195:196|228:205|244:216,1,83.3333333333333,2|0,0:0|2:0,0:2:0:0:
383,272,85930,2,2,B|415:305|395:361|395:361|375:330|338:317,1,166.666666666667,0|0,0:0|2:0,0:2:0:0:
161,263,86136,70,2,B|152:320|128:374|128:374|149:330|191:321|191:321|144:271|72:240|72:240|116:181|116:181|113:176|113:176|121:175|121:175|162:118|162:118|185:127|224:108,1,550.000020980836,4|0,1:2|2:0,0:2:0:0:
209,108,86550,1,0,0:0:0:0:
177,37,86619,2,2,B|167:20|149:9|149:9|157:27|160:45,1,66.6666666666667,2|0,0:0|2:0,0:0:0:0:
291,82,86757,2,2,B|324:67|330:24|330:24|307:46|269:52,1,133.333333333333,2|0,0:0|2:0,0:2:0:0:
240,253,86964,1,8,0:1:0:0:
245,261,87102,6,0,B|300:273|300:273|301:279|301:279|305:275|305:275|401:297|401:297|405:293|405:293|406:298|406:298|459:311,1,225.000008583069,0|0,2:0|0:0,0:0:0:0:
459,314,87447,2,2,B|435:332|429:354|429:354|405:315|417:280|417:280|411:278|411:278|426:261|430:219,1,166.666666666667,2|0,0:0|2:0,0:0:0:0:
485,139,87654,2,2,B|494:125|510:126|510:126|500:136|496:155,1,50.0000019073487,2|0,0:0|2:0,0:2:0:0:
339,170,87792,70,2,B|323:125|342:90|342:90|352:87|352:87|292:102|259:137,1,200,2|0,1:3|2:0,0:2:0:0:
207,290,88067,2,2,B|226:316|263:329|263:329|249:294|265:255,1,125,2|0,0:0|2:0,0:2:0:0:
205,70,88240,6,2,B|234:43|234:43|308:55|308:55|311:60|311:60|391:76|391:76|396:73|396:73|514:97,1,266.666666666667,2|0,0:1|2:0,0:1:0:0:
512,244,88447,2,2,B|495:276|495:276|448:283|448:283|443:280|443:280|372:288|372:288|368:294|368:294|280:304,1,200,2|0,0:1|2:0,0:1:0:0:
183,150,88619,1,8,0:1:0:0:
187,305,88757,70,2,B|268:353|268:353|234:212|234:212|203:241|151:225,1,300,2|0,0:0|0:0,0:2:0:0:
171,226,89102,1,2,0:2:0:0:
107,275,89171,1,2,0:2:0:0:
51,214,89240,1,2,0:2:0:0:
1,279,89309,2,0,B|6:300|-5:320|-5:320|15:302|31:269,1,83.3333333333333,2|0,0:2|2:0,0:0:0:0:
55,104,89447,6,2,B|43:19|5:-17|5:-17|57:19|79:40|79:40|74:48|1:114|1:114|10:155|10:155|5:160|5:160|11:161|11:161|19:200|19:200|56:206|95:223|103:274,1,550.000020980836,4|0,1:2|2:0,0:2:0:0:
101,281,89860,1,0,0:0:0:0:
27,305,89929,2,2,B|8:301|-3:279|-3:279|15:288|42:284,1,66.6666666666667,2|0,0:0|2:0,0:0:0:0:
175,318,90067,2,2,B|206:347|208:377|208:377|183:343|148:339,1,133.333333333333,0|0,0:0|2:0,0:2:0:0:
116,151,90275,70,2,B|152:130|152:130|228:143|228:143|233:148|233:148|313:163|313:163|322:159|322:159|440:184,1,300.000011444092,10|0,0:1|2:0,0:1:0:0:
426,102,90516,2,2,B|376:92|376:92|325:120|325:120|324:129|324:129|246:173|246:173|238:171|238:171|170:210|170:210|167:217|167:217|93:263,1,333.333333333333,2|0,0:1|2:0,0:1:0:0:
0,320,90757,2,2,B|-1:303|-22:280|-22:280|49:296|49:296|53:291|53:291|53:297|53:297|114:309,1,166.666666666667,2|0,0:0|2:0,0:0:0:0:
201,342,90964,2,2,B|212:352|207:368|207:368|199:355|189:346,1,50.0000019073487,2|0,0:0|2:0,0:2:0:0:
63,213,91102,2,2,B|62:176|37:154|37:154|104:176|108:116|160:114|160:114|156:121|156:121|209:120|240:153|239:197,1,333.333333333333,2|0,1:3|2:0,0:2:0:0:
297,362,91516,6,2,B|336:339|336:339|346:259|346:259|340:254|340:254|351:160|351:160|358:156|358:156|372:36,1,333.333333333333,2|0,0:1|2:0,0:1:0:0:
114,41,91757,2,2,B|134:84|134:84|223:100|223:100|229:96|229:96|322:113,1,200,2|0,0:1|2:0,0:1:0:0:
504,14,91929,1,8,1:0:0:0:
510,23,92102,70,0,B|496:54|496:54|503:67|503:67|488:122,1,100,0|0,2:0|2:0,0:0:0:0:
479,121,92378,1,2,0:2:0:0:
431,52,92482,5,2,0:2:0:0:
399,145,92585,69,2,0:2:0:0:
505,198,92688,5,2,0:2:0:0:
449,282,92757,70,2,B|503:371|503:371|488:335|489:293|489:293|426:306|389:302|389:302|373:252|373:252|367:251|367:251|372:245|372:245|355:182|355:182|382:157|397:116|397:116|370:102|351:52,1,550.000020980836,4|0,1:2|2:0,0:2:0:0:
368,73,93170,1,0,0:0:0:0:
447,23,93274,2,2,B|462:31|497:31|497:31|477:46|449:54,1,100,2|0,0:0|2:0,0:2:0:0:
293,48,93446,2,2,B|276:33|277:16|277:16|291:31|325:39,1,66.6666666666667,0|0,0:0|2:0,0:2:0:0:
459,206,93584,1,8,0:1:0:0:
506,141,93688,2,2,B|497:104|521:64|521:64|453:128|386:148|386:148|398:150|398:150|318:143|250:182,1,375,2|0,0:0|2:0,0:2:0:0:
39,367,94413,22,0,B|64:236|169:304|94:181|-72:145|49:36|91:44,1,350,2|0,1:2|2:0,0:0:0:0:
113,113,95240,2,0,B|43:141|66:205|4:253|4:253|34:354|143:359,1,350,2|0,0:2|2:0,0:0:0:0:
291,363,96068,6,0,B|167:345|297:200|201:232|139:255|93:152|136:69,1,350,4|0,1:3|2:0,0:0:0:0:
316,32,96895,2,0,B|311:53|332:70|332:70|338:167|3:69|101:324|166:309,1,419.999987182618,8|0,0:1|2:0,0:0:0:0:
262,354,97723,2,0,B|292:276|166:282|131:136|200:41|261:31,1,350,0|0,1:0|2:0,0:0:0:0:
243,45,98551,1,8,0:0:0:0:
144,5,98964,70,0,P|80:-3|29:45,1,120,0|0,1:0|2:0,0:0:0:0:
207,69,99378,2,0,B|162:92|140:-35|3:-25|10:118|-24:171|74:173|102:110,1,350,4|0,1:3|2:0,0:0:0:0:
280,27,100206,2,0,B|313:26|348:5|348:5|273:88|303:216|134:102|101:275,1,419.999987182618,8|0,0:1|2:0,0:0:0:0:
237,320,101033,2,0,B|239:231|42:200|94:58|188:40|217:77,1,350,0|0,1:0|2:0,0:0:0:0:
72,222,101861,2,0,B|52:241|16:252|16:252|118:335|157:225|307:166|331:301,1,419.999987182618,8|0,0:1|2:0,0:0:0:0:
395,155,102688,2,0,B|338:117|331:185|243:180|196:101|310:10|411:267,1,350,0|0,1:0|2:0,0:0:0:0:
286,357,103516,2,0,B|259:356|247:375|247:375|231:204|384:186|378:302|517:217|464:113,1,419.999987182618,8|0,0:1|2:0,0:0:0:0:
353,63,104344,2,0,B|400:118|511:131|87:264|554:222|433:346,1,350,0|0,1:0|2:0,0:0:0:0:
426,349,105171,1,8,0:0:0:0:
504,230,105585,6,0,P|511:182|469:129,1,120,0|0,1:0|2:0,0:0:0:0:
434,269,105999,2,0,B|396:178|552:201|526:65|277:150|308:283,1,350,4|0,1:3|2:0,0:0:0:0:
481,333,106826,2,0,B|497:367|517:374|517:374|280:370|381:217|242:243|297:328|165:295,1,419.999987182618,8|0,0:1|2:0,0:0:0:0:
64,365,107654,2,0,B|206:369|225:178|64:297|47:162|293:212|219:114,1,350,0|0,1:0|2:0,0:0:0:0:
103,36,108482,70,8,B|99:97|59:113|59:113|33:96|-4:95|-4:95|215:44|215:44|223:58|245:61|245:61|173:146|173:146|154:143|154:143|154:181|132:209|132:209|75:251|75:251|82:281|64:321|64:321|245:76|213:214|293:143|293:143|283:140|283:140|345:156|379:140|379:140|388:102|434:102|434:102|455:93|455:93|495:102|495:102|373:75|323:32|323:32|333:58|326:80|326:80|479:309|479:309|439:285|439:285|353:317|325:230|325:230|329:243|329:243|248:231|220:289|220:289|199:323|157:339|157:339|169:334|169:334|273:355|283:260,1,2399.99992675781,0|0,0:0|2:0,2:1:0:0:
