osu file format v14

[General]
AudioFilename: audio.mp3
AudioLeadIn: 0
PreviewTime: 66332
Countdown: 0
SampleSet: Soft
StackLeniency: 0.4
Mode: 0
LetterboxInBreaks: 0
WidescreenStoryboard: 1

[Editor]
DistanceSpacing: 1.2
BeatDivisor: 4
GridSize: 4
TimelineZoom: 1

[Metadata]
Title:Born To Be Wild
TitleUnicode:Born To Be Wild
Artist:Steppenwolf
ArtistUnicode:Steppenwolf
Creator:Arf
Version:Normal
Source:
Tags:rfandomization classic rock easy rider driving drive guitar riff sixties 60s
BeatmapID:1253087
BeatmapSetID:592205

[Difficulty]
HPDrainRate:3
CircleSize:3
OverallDifficulty:4
ApproachRate:4.5
SliderMultiplier:0.9
SliderTickRate:1

[Events]
//Background and Video events
0,0,"longdrive 3.jpg",0,0
//Break Periods
2,80300,85823
//Storyboard Layer 0 (Background)
//Storyboard Layer 1 (Fail)
//Storyboard Layer 2 (Pass)
//Storyboard Layer 3 (Foreground)
//Storyboard Sound Samples

[TimingPoints]
290,440.366972477064,4,2,0,65,1,0
730,397.350993377483,4,2,0,65,1,0
1127,439.56043956044,4,2,0,65,1,0
1566,400,4,2,0,65,1,0
1966,425.531914893617,4,2,0,65,1,0
2178,419.58041958042,4,2,0,65,1,0
2387,419.58041958042,4,2,0,65,1,0
4065,425.531914893617,4,2,0,65,1,0
5341,428.571428571429,4,2,0,65,1,0
5555,416.666666666667,4,2,0,65,1,0
6388,352.941176470588,4,2,0,65,1,0
6564,421.052631578947,4,2,0,65,1,0
6760,451.127819548872,4,2,0,65,1,0
6985,405.405405405405,4,2,0,65,1,0
7187,413.793103448276,4,2,0,65,1,0
7393,431.654676258993,4,2,0,65,1,0
7824,434.782608695652,4,2,0,65,1,0
8258,416.666666666667,4,2,0,65,1,0
10133,400,4,2,0,65,1,0
10333,400,4,2,0,65,1,0
10733,431.654676258993,4,2,0,65,1,0
11596,413.793103448276,4,2,0,65,1,0
12630,434.782608695652,4,2,0,65,1,0
12847,400,4,2,0,65,1,0
13247,408.163265306122,4,2,0,65,1,0
13451,382.165605095541,4,2,0,65,1,0
13833,408.163265306122,4,2,0,65,1,0
14037,410.958904109589,4,2,0,65,1,0
14447,422.535211267606,4,2,0,65,1,0
14869,402.684563758389,4,2,0,65,1,0
15473,428.571428571429,4,2,0,65,1,0
15687,416.666666666667,4,2,0,65,1,0
16103,416.666666666667,4,2,0,65,1,0
17353,408.163265306122,4,2,0,65,1,0
18781,405.405405405405,4,2,0,65,1,0
18879,394.736842105263,4,2,0,65,1,0
18978,419.58041958042,4,2,0,65,1,0
19397,410.958904109589,4,2,0,65,1,0
20629,422.535211267606,4,2,0,65,1,0
21474,392.156862745098,4,2,0,65,1,0
21866,413.793103448276,4,2,0,65,1,0
22072,400,4,2,0,65,1,0
22472,405.405405405405,4,2,0,65,1,0
22877,410.958904109589,4,2,0,65,1,0
23904,416.666666666667,4,2,0,65,1,0
24737,405.405405405405,4,2,0,65,1,0
25345,413.793103448276,4,2,0,65,1,0
25758,405.405405405405,4,2,0,65,1,0
25960,382.775119617225,4,2,0,65,1,0
26534,419.58041958042,4,2,0,65,1,0
26743,410.958904109589,4,2,0,65,1,0
27153,413.793103448276,4,2,0,65,1,1
31084,425.531914893617,4,2,0,65,1,1
31935,400,4,2,0,65,1,1
32135,425.531914893617,4,2,0,65,1,1
33198,394.736842105263,4,2,0,65,1,1
33790,422.535211267606,4,2,0,65,1,1
35268,413.793103448276,4,2,0,65,1,1
35681,-100,4,2,0,5,0,1
35785,-100,4,2,0,65,0,1
36509,428.571428571429,4,2,0,65,1,1
36723,408.163265306122,4,2,0,65,1,1
37131,419.58041958042,4,2,0,65,1,1
38389,410.958904109589,4,2,0,65,1,1
38799,416.666666666667,4,2,0,65,1,0
39215,413.793103448276,4,2,0,65,1,0
40456,425.531914893617,4,2,0,65,1,0
40881,410.958904109589,4,2,0,65,1,0
43757,405.405405405405,4,2,0,65,1,0
44567,410.958904109589,4,2,0,65,1,0
45799,400,4,2,0,65,1,0
46199,413.793103448276,4,2,0,65,1,0
47854,400,4,2,0,65,1,0
48254,405.405405405405,4,2,0,65,1,0
50281,413.793103448276,4,2,0,65,1,0
51522,400,4,2,0,65,1,0
51922,405.405405405405,4,2,0,65,1,0
52327,392.156862745098,4,2,0,65,1,0
52719,413.793103448276,4,2,0,65,1,0
53546,413.793103448276,4,2,0,65,1,1
56856,419.58041958042,4,2,0,65,1,1
57695,425.531914893617,4,2,0,65,1,1
58120,413.793103448276,4,2,0,65,1,1
60188,416.666666666667,4,2,0,65,1,1
61646,425.531914893617,4,2,0,65,1,1
62071,-100,4,2,0,5,0,1
62177,-100,4,2,0,65,0,1
62497,413.793103448276,4,2,0,65,1,1
63531,413.793103448276,4,2,0,65,1,1
64979,-100,4,2,0,65,0,0
65186,422.535211267606,4,2,0,65,1,1
65608,413.793103448276,4,2,0,65,1,1
66849,410.958904109589,4,2,0,65,1,1
69725,416.666666666667,4,2,0,65,1,1
70141,410.958904109589,4,2,0,65,1,1
72606,408.163265306122,4,2,0,65,1,1
73422,410.958904109589,4,2,0,65,1,1
76709,410.958904109589,4,2,0,65,1,0
79791,618.556701030928,4,2,0,65,1,0
80100,431.654676258993,4,2,0,65,1,0
81826,451.127819548872,4,2,0,65,1,0
83630,437.956204379562,4,2,0,65,1,0
85381,425.531914893617,4,2,0,65,1,0
87083,394.736842105263,4,2,0,65,1,0
87872,413.793103448276,4,2,0,65,1,0
88285,397.350993377483,4,2,0,65,1,0
88682,413.793103448276,4,2,0,65,1,0
89923,394.736842105263,4,2,0,65,1,0
90317,402.684563758389,4,2,0,65,1,0
91122,408.163265306122,4,2,0,65,1,0
91938,408.163265306122,4,2,0,65,1,0
93570,410.958904109589,4,2,0,65,1,1
96035,419.58041958042,4,2,0,65,1,1
96874,410.958904109589,4,2,0,65,1,1
99750,402.684563758389,4,2,0,65,1,1
100152,408.163265306122,4,2,0,65,1,1
106274,392.156862745098,4,2,0,65,1,1
106666,-100,4,2,0,65,0,0
107058,410.958904109589,4,2,0,65,1,0
107468,405.405405405405,4,2,0,65,1,0
108684,413.793103448276,4,2,0,65,1,0
109097,408.163265306122,4,2,0,65,1,0
109913,402.684563758389,4,2,0,65,1,0
110315,413.793103448276,4,2,0,65,1,0
111142,400,4,2,0,65,1,0
111942,413.793103448276,4,2,0,65,1,0
112769,392.156862745098,4,2,0,65,1,0
113161,408.163265306122,4,2,0,65,1,0
114385,394.736842105263,4,2,0,65,1,0
114779,419.58041958042,4,2,0,65,1,0
115198,405.405405405405,4,2,0,65,1,0
116008,408.163265306122,4,2,0,65,1,0
117640,405.405405405405,4,2,0,65,1,0
119667,413.793103448276,4,2,0,65,1,0
121735,408.163265306122,4,2,0,65,1,0
122959,405.405405405405,4,2,0,65,1,0
125391,410.958904109589,4,2,0,65,1,0
126212,408.163265306122,4,2,0,65,1,0
127028,379.746835443038,4,2,0,65,1,0
127217,416.666666666667,4,2,0,65,1,0
127425,402.684563758389,4,2,0,65,1,0
127626,392.156862745098,4,2,0,65,1,0
127822,413.793103448276,4,2,0,65,1,0
128028,392.156862745098,4,2,0,65,1,0
128420,416.666666666667,4,2,0,65,1,0
128628,447.761194029851,4,2,0,65,1,0
129075,410.958904109589,4,2,0,65,1,0

[Colours]
Combo1 : 123,151,15
Combo2 : 132,169,255
Combo3 : 235,165,48
Combo4 : 255,113,45

[HitObjects]
37,91,730,6,0,L|138:82,1,90,4|8,0:0|0:0,0:0:0:0:
180,79,1346,1,0,0:0:0:0:
239,74,1566,2,0,P|250:115|235:174,1,90,0|8,0:0|0:0,0:0:0:0:
204,200,2178,2,0,P|193:241|208:300,1,90,2|2,0:0|0:0,0:0:0:0:
301,327,3016,1,0,0:0:0:0:
346,298,3226,2,0,P|357:254|348:210,1,90,2|10,0:0|0:0,0:0:0:0:
301,115,4065,6,0,L|197:110,1,90,4|8,0:0|0:0,0:0:0:0:
157,107,4703,1,0,0:0:0:0:
103,103,4916,2,0,P|90:143|103:200,1,90,0|8,0:0|0:0,0:0:0:0:
147,214,5555,2,0,P|160:254|147:311,1,90,2|2,0:0|0:0,0:0:0:0:
37,353,6388,1,0,0:0:0:0:
12,312,6564,2,0,P|-1:272|12:215,1,90,2|8,0:0|0:0,0:0:0:0:
29,118,7393,6,0,B|72:105|72:105|119:109,1,90,4|8,0:0|0:0,0:0:0:0:
168,122,8041,1,0,0:0:0:0:
217,147,8258,2,0,B|261:150|261:150|304:137,1,90,0|8,0:0|0:0,0:0:0:0:
355,118,8883,2,0,L|352:219,1,90,2|2,0:0|0:0,0:0:0:0:
411,298,9716,1,0,0:0:0:0:
459,275,9924,2,0,L|456:185,1,88.5,2|8,0:0|0:0,0:0:0:0:
453,86,10733,6,0,B|410:97|410:97|357:91,1,90,4|8,0:0|0:0,0:0:0:0:
314,72,11380,1,0,0:0:0:0:
258,65,11596,2,0,B|212:59|212:59|169:70,1,90,0|8,0:0|0:0,0:0:0:0:
117,81,12216,2,0,B|136:127|110:181,1,90,2|2,0:0|0:0,0:0:0:0:
91,222,12847,2,0,L|33:231,2,45,8|0|2,0:0|0:0|0:0,0:0:0:0:
201,204,13642,1,8,0:0:0:0:
294,258,14037,5,4,0:0:0:0:
241,357,14447,1,8,0:0:0:0:
148,303,14869,1,0,0:0:0:0:
201,204,15271,1,8,0:0:0:0:
239,170,15473,2,0,P|250:127|242:83,1,88.5,2|2,0:0|0:0,0:0:0:0:
172,2,16311,1,0,0:0:0:0:
134,35,16519,2,0,P|124:80|131:123,1,90,2|10,0:0|0:0,0:0:0:0:
159,231,17353,6,0,L|69:241,2,90,0|8|0,0:0|0:0|0:0,0:0:0:0:
266,220,18577,1,8,0:0:0:0:
319,237,18781,2,0,B|324:281|324:281|309:333,1,90,2|2,0:0|0:0,0:0:0:0:
203,354,19602,1,0,0:0:0:0:
169,312,19806,2,0,B|164:268|164:268|179:216,1,90.5,2|10,0:0|0:0,0:0:0:0:
230,133,20629,6,0,L|332:139,2,90,0|8|0,0:0|0:0|0:0,0:0:0:0:
128,144,21866,1,8,0:0:0:0:
80,172,22072,2,0,L|76:274,1,90,2|2,0:0|0:0,0:0:0:0:
142,345,22877,1,0,0:0:0:0:
190,320,23082,2,0,L|186:230,1,90,2|10,0:0|0:0,0:0:0:0:
182,176,23698,1,0,0:0:0:0:
149,133,23904,6,0,P|106:131|62:146,1,90,0|8,0:0|0:0,0:0:0:0:
60,34,24737,2,0,P|102:48|146:46,1,90,0|8,2:0|2:0,2:0:0:0:
199,42,25345,2,0,B|244:39|244:39|285:54,1,90,2|2,0:0|0:0,0:0:0:0:
336,81,25960,2,0,L|366:37,2,45,8|0|10,0:0|0:0|0:0,0:0:0:0:
275,167,26743,1,10,0:0:0:0:
381,180,27153,5,4,0:0:0:0:
454,258,27566,2,0,L|446:360,2,90,8|0|8,0:0|0:0|0:0,0:0:0:0:
461,149,28808,2,0,L|511:148,2,45,2|0|10,0:0|0:0|0:0,0:0:0:0:
407,151,29428,2,0,B|361:157|361:157|313:187,1,90,0|0,0:0|0:0,0:0:0:0:
287,219,30049,1,10,0:0:0:0:
188,263,30463,5,4,0:0:0:0:
92,212,30877,2,0,L|91:167,1,45,8|0,0:0|0:0,0:0:0:0:
89,112,31296,1,0,0:0:0:0:
177,50,31722,2,0,L|229:52,1,45,8|0,0:0|0:0,0:0:0:0:
268,73,32135,2,0,L|304:29,2,45,2|0|8,0:0|0:0|0:0,0:0:0:0:
250,124,32773,2,0,P|240:165|255:218,1,90,2|0,0:0|0:0,0:0:0:0:
284,252,33395,1,10,0:0:0:0:
368,307,33790,5,4,0:0:0:0:
443,229,34212,2,0,L|453:121,1,90,8|0,0:0|0:0,0:0:0:0:
442,85,34846,1,0,0:0:0:0:
392,66,35057,1,8,0:0:0:0:
336,65,35268,2,0,P|281:74|204:45,1,135,0|10,0:0|0:0,0:0:0:0:
161,20,36095,2,0,P|117:3|67:4,1,90,0|0,0:0|0:0,0:0:0:0:
20,19,36723,1,10,0:0:0:0:
41,121,37131,5,4,0:0:0:0:
144,151,37550,2,0,B|152:196|152:196|134:254,1,90,8|4,0:0|0:0,0:0:0:0:
100,276,38179,2,0,B|107:336,1,45,0|8,0:0|0:0,0:0:0:0:
138,363,38594,1,0,0:0:0:0:
191,366,38799,5,4,0:0:0:0:
276,299,39215,1,8,0:0:0:0:
379,329,39628,2,0,L|391:377,2,45,0|0|8,0:0|0:0|0:0,0:0:0:0:
346,228,40456,6,0,P|342:176|356:131,1,90,0|8,0:0|0:0,0:0:0:0:
393,105,41086,1,0,0:0:0:0:
417,57,41291,2,0,L|312:43,1,90,0|8,0:0|0:0,0:0:0:0:
273,38,41908,2,0,B|277:84|277:84|253:139,1,90,2|2,0:0|0:0,0:0:0:0:
180,198,42730,1,0,0:0:0:0:
146,240,42935,2,0,B|142:286|142:286|166:341,1,90,2|10,0:0|0:0,0:0:0:0:
265,355,43757,5,0,0:0:0:0:
372,344,44162,1,8,0:0:0:0:
358,231,44567,1,0,0:0:0:0:
251,242,44977,1,0,0:0:0:0:
201,267,45183,2,0,P|154:265|113:244,1,90,2|2,0:0|0:0,0:0:0:0:
97,138,45999,1,0,0:0:0:0:
147,113,46199,2,0,P|194:115|235:136,1,90,2|2,0:0|0:0,0:0:0:0:
318,193,47026,6,0,B|341:147|341:147|382:119,2,90,0|8|0,0:0|0:0|0:0,0:0:0:0:
290,296,48254,1,8,0:0:0:0:
331,330,48456,2,0,L|421:323,1,90,2|2,0:0|0:0,0:0:0:0:
492,242,49267,1,0,0:0:0:0:
453,204,49470,2,0,L|363:197,1,90,2|10,0:0|0:0,0:0:0:0:
309,193,50078,1,0,0:0:0:0:
261,168,50281,6,0,P|251:118|268:65,1,90,0|8,0:0|0:0,0:0:0:0:
162,128,51108,2,0,P|170:171|160:215,1,90,0|8,0:0|0:0,0:0:0:0:
136,263,51722,2,0,L|244:269,1,90.5,2|2,0:0|0:0,0:0:0:0:
307,342,52523,1,0,0:0:0:0:
267,373,52719,2,0,L|177:368,1,90,10|10,0:0|0:0,0:0:0:0:
76,329,53546,5,4,0:0:0:0:
107,225,53959,2,0,P|60:221|11:243,2,90,8|0|8,0:0|0:0|0:0,0:0:0:0:
211,255,55201,2,0,L|216:308,2,45,2|0|10,0:0|0:0|0:0,0:0:0:0:
208,201,55821,2,0,B|210:155|210:155|234:108,1,90,2|0,0:0|0:0,0:0:0:0:
268,78,56442,1,10,0:0:0:0:
365,34,56856,5,4,0:0:0:0:
470,57,57275,2,0,L|481:114,1,45,8|0,0:0|0:0,0:0:0:0:
490,153,57695,1,0,0:0:0:0:
401,220,58120,2,0,L|350:221,1,45,8|0,0:0|0:0,0:0:0:0:
303,233,58533,2,0,L|269:195,2,45,2|0|8,0:0|0:0|0:0,0:0:0:0:
312,286,59154,2,0,P|306:327|271:374,1,90,2|0,0:0|0:0,0:0:0:0:
225,375,59775,1,10,0:0:0:0:
126,333,60188,5,4,0:0:0:0:
22,363,60604,2,0,P|19:315|41:265,1,90,8|0,0:0|0:0,0:0:0:0:
66,233,61229,1,0,0:0:0:0:
110,201,61438,1,8,0:0:0:0:
141,158,61646,2,0,P|167:90|142:28,1,135,0|10,0:0|0:0,0:0:0:0:
198,13,62497,2,0,L|290:19,1,90,0|0,0:0|0:0,0:0:0:0:
341,23,63117,1,10,0:0:0:0:
434,77,63531,5,4,0:0:0:0:
469,176,63944,2,0,L|460:274,1,90,8|0,0:0|0:0,0:0:0:0:
455,319,64565,2,0,L|517:324,2,45,0|8|0,0:0|0:0|0:0,0:0:0:0:
402,313,65186,5,4,0:0:0:0:
307,257,65608,1,8,0:0:0:0:
215,314,66021,1,4,0:0:0:0:
120,258,66435,2,0,L|70:292,1,45,8|0,0:0|0:0,0:0:0:0:
37,313,66849,5,4,0:0:0:0:
125,374,67259,1,8,0:0:0:0:
215,314,67670,2,0,P|229:268|213:212,1,90,4|8,0:0|0:0,0:0:0:0:
183,189,68287,2,0,P|175:145|189:102,1,90,0|0,0:0|0:0,0:0:0:0:
226,63,68903,1,8,0:0:0:0:
332,79,69314,1,4,0:0:0:0:
430,30,69725,2,0,L|463:73,1,45,8|0,0:0|0:0,0:0:0:0:
491,108,70141,5,4,0:0:0:0:
436,200,70551,1,8,0:0:0:0:
352,131,70962,2,0,L|368:87,2,45,4|0|8,0:0|0:0|0:0,0:0:0:0:
335,182,71579,1,0,0:0:0:0:
319,233,71784,5,4,0:0:0:0:
216,198,72195,1,8,0:0:0:0:
181,310,72606,1,4,0:0:0:0:
284,345,73014,2,0,L|331:359,1,45,8|0,0:0|0:0,0:0:0:0:
377,375,73422,6,0,P|394:333|385:286,1,90,4|8,0:0|0:0,0:0:0:0:
372,237,74038,2,0,P|365:193|381:151,2,90,2|2|2,0:0|0:0|0:0,0:0:0:0:
422,257,75065,1,4,0:0:0:0:
461,357,75476,2,0,L|400:360,1,45,8|0,0:0|0:0,0:0:0:0:
361,362,75887,1,4,0:0:0:0:
322,262,76298,2,0,L|383:259,1,45,8|0,0:0|0:0,0:0:0:0:
422,257,76709,5,4,0:0:0:0:
256,192,77119,12,4,80100,0:0:0:0:
170,138,87083,6,0,B|214:103|288:176|360:129,1,180,8|8,3:3|3:3,0:0:0:0:
433,205,88285,1,8,3:3:0:0:
348,264,88682,2,0,B|304:229|230:302|168:257,1,180,8|8,3:3|3:3,0:0:0:0:
89,208,89923,1,8,3:3:0:0:
19,128,90317,6,0,P|-17:210|24:294,1,180,4|4,3:1|3:0,0:0:0:0:
101,355,91530,1,8,3:0:0:0:
181,283,91938,2,0,P|215:202|178:121,1,180,4|4,3:1|3:0,0:0:0:0:
104,44,93162,1,8,3:0:0:0:
213,17,93570,6,0,B|257:10|257:10|309:22,1,90,4|8,0:0|0:0,0:0:0:0:
353,35,94186,1,0,0:0:0:0:
391,73,94391,2,0,B|384:117|384:117|397:171,1,90,2|8,0:0|0:0,0:0:0:0:
420,209,95008,1,2,0:0:0:0:
315,237,95419,1,2,0:0:0:0:
390,314,95830,1,2,0:0:0:0:
355,354,96035,2,0,L|248:352,1,90,2|8,0:0|0:0,0:0:0:0:
215,330,96664,1,0,0:0:0:0:
185,283,96874,6,0,L|179:189,1,90,4|8,0:0|0:0,0:0:0:0:
178,139,97490,1,0,0:0:0:0:
174,85,97695,2,0,P|130:74|76:91,1,90,2|8,0:0|0:0,0:0:0:0:
41,105,98312,1,2,0:0:0:0:
76,217,98723,1,2,0:0:0:0:
184,181,99134,1,2,0:0:0:0:
149,69,99545,1,2,0:0:0:0:
41,105,99951,1,0,0:0:0:0:
3,140,100152,6,0,P|-6:181|8:244,1,90,4|8,0:0|0:0,0:0:0:0:
25,275,100764,1,0,0:0:0:0:
70,304,100968,2,0,L|166:296,1,90,2|8,0:0|0:0,0:0:0:0:
213,292,101580,1,2,0:0:0:0:
238,177,101988,1,2,0:0:0:0:
353,203,102396,1,2,0:0:0:0:
328,318,102804,1,2,0:0:0:0:
213,292,103213,1,0,0:0:0:0:
165,265,103417,6,0,B|155:220|155:220|169:172,1,90,4|8,0:0|0:0,0:0:0:0:
190,129,104029,1,0,0:0:0:0:
235,99,104233,2,0,L|325:95,1,90,2|8,0:0|0:0,0:0:0:0:
378,95,104845,1,2,0:0:0:0:
484,119,105254,1,2,0:0:0:0:
458,234,105661,1,2,0:0:0:0:
352,210,106070,2,0,L|303:202,1,45,2|10,0:0|0:0,0:0:0:0:
254,193,106470,1,2,0:0:0:0:
200,202,106666,5,4,0:0:0:0:
200,305,107058,1,8,0:0:0:0:
309,304,107468,2,0,L|309:354,2,45,2|0|8,0:0|0:0|0:0,0:0:0:0:
309,249,108076,1,2,0:0:0:0:
310,141,108481,1,2,0:0:0:0:
203,141,108890,1,0,0:0:0:0:
148,141,109097,2,0,L|97:141,1,45,2|0,0:0|0:0,0:0:0:0:
49,142,109505,2,0,L|49:193,1,45,8|0,0:0|0:0,0:0:0:0:
51,241,109913,5,2,0:0:0:0:
155,242,110315,1,8,0:0:0:0:
153,349,110728,2,0,L|106:349,2,45,2|0|8,0:0|0:0|0:0,0:0:0:0:
207,347,111342,1,2,0:0:0:0:
314,347,111742,1,2,0:0:0:0:
314,241,112148,1,0,0:0:0:0:
368,241,112355,2,0,L|421:241,1,45,2|0,0:0|0:0,0:0:0:0:
470,240,112769,2,0,L|470:187,1,45,8|0,0:0|0:0,0:0:0:0:
470,144,113161,5,2,0:0:0:0:
362,142,113569,1,8,0:0:0:0:
363,34,113977,2,0,L|412:34,2,45,2|0|8,0:0|0:0|0:0,0:0:0:0:
309,33,114582,1,2,0:0:0:0:
204,33,114988,1,2,0:0:0:0:
204,140,115400,1,0,0:0:0:0:
258,141,115603,2,0,L|307:141,1,45,2|0,0:0|0:0,0:0:0:0:
356,141,116008,2,0,L|356:190,1,45,8|0,0:0|0:0,0:0:0:0:
355,239,116416,5,2,0:0:0:0:
247,237,116824,1,8,0:0:0:0:
247,344,117232,2,0,L|294:344,2,45,2|0|8,0:0|0:0|0:0,0:0:0:0:
192,343,117842,1,2,0:0:0:0:
138,342,118045,2,0,L|138:285,1,45,2|2,0:0|0:0,0:0:0:0:
138,242,118450,6,0,L|188:231,1,45,8|0,0:0|0:0,0:0:0:0:
181,177,118856,2,0,L|137:167,1,45,2|0,0:0|0:0,0:0:0:0:
125,114,119261,2,0,L|168:104,1,45,8|0,0:0|0:0,0:0:0:0:
221,95,119667,6,0,P|264:93|318:122,1,90,2|8,0:0|0:0,0:0:0:0:
398,168,120494,2,0,L|446:157,2,45,2|0|8,0:0|0:0|0:0,0:0:0:0:
301,216,121322,2,0,B|290:259|290:259|304:313,1,90,2|8,0:0|0:0,0:0:0:0:
317,354,121939,2,0,B|228:366,1,90,0|0,0:0|0:0,0:0:0:0:
174,370,122551,1,8,0:0:0:0:
91,298,122959,6,0,P|80:250|93:208,1,90,2|8,0:0|0:0,0:0:0:0:
125,109,123769,2,0,L|78:96,2,45,2|0|8,0:0|0:0|0:0,0:0:0:0:
229,136,124580,2,0,B|275:135|275:135|319:117,1,90,2|8,0:0|0:0,0:0:0:0:
365,97,125188,2,0,L|384:198,1,90.5,0|0,0:0|0:0,0:0:0:0:
391,240,125801,1,8,0:0:0:0:
318,318,126212,6,0,L|171:310,1,135,8|8,0:3|0:3,0:0:0:0:
93,176,127425,2,0,L|240:168,1,135,8|8,0:3|0:3,0:0:0:0:
331,68,128628,2,0,L|233:61,1,90,4|8,0:3|0:0,0:0:0:0:
133,51,129485,1,4,0:0:0:0:
