osu file format v14

[General]
AudioFilename: audio.mp3
AudioLeadIn: 0
PreviewTime: 66332
Countdown: 0
SampleSet: Soft
StackLeniency: 0.4
Mode: 0
LetterboxInBreaks: 0
WidescreenStoryboard: 1

[Editor]
DistanceSpacing: 1.5
BeatDivisor: 4
GridSize: 4
TimelineZoom: 2.3

[Metadata]
Title:Born To Be Wild
TitleUnicode:Born To Be Wild
Artist:Steppenwolf
ArtistUnicode:Steppenwolf
Creator:Arf
Version:Insane
Source:
Tags:rfandomization classic rock easy rider driving drive guitar riff sixties 60s
BeatmapID:1253086
BeatmapSetID:592205

[Difficulty]
HPDrainRate:5
CircleSize:4
OverallDifficulty:8
ApproachRate:8.5
SliderMultiplier:1.5
SliderTickRate:1

[Events]
//Background and Video events
0,0,"longdrive 3.jpg",0,0
//Break Periods
2,80300,86408
//Storyboard Layer 0 (Background)
//Storyboard Layer 1 (Fail)
//Storyboard Layer 2 (Pass)
//Storyboard Layer 3 (Foreground)
//Storyboard Sound Samples

[TimingPoints]
290,440.366972477064,4,2,0,65,1,0
730,397.350993377483,4,2,0,65,1,0
1127,439.56043956044,4,2,0,65,1,0
1566,400,4,2,0,65,1,0
1966,425.531914893617,4,2,0,65,1,0
2178,419.58041958042,4,2,0,65,1,0
2387,419.58041958042,4,2,0,65,1,0
4065,425.531914893617,4,2,0,65,1,0
5341,428.571428571429,4,2,0,65,1,0
5555,416.666666666667,4,2,0,65,1,0
6388,352.941176470588,4,2,0,65,1,0
6564,421.052631578947,4,2,0,65,1,0
6760,451.127819548872,4,2,0,65,1,0
6985,405.405405405405,4,2,0,65,1,0
7187,413.793103448276,4,2,0,65,1,0
7393,431.654676258993,4,2,0,65,1,0
7824,434.782608695652,4,2,0,65,1,0
8258,416.666666666667,4,2,0,65,1,0
10133,400,4,2,0,65,1,0
10333,400,4,2,0,65,1,0
10733,431.654676258993,4,2,0,65,1,0
11596,413.793103448276,4,2,0,65,1,0
12630,434.782608695652,4,2,0,65,1,0
12847,400,4,2,0,65,1,0
13247,408.163265306122,4,2,0,65,1,0
13451,382.165605095541,4,2,0,65,1,0
13833,408.163265306122,4,2,0,65,1,0
14037,410.958904109589,4,2,0,65,1,0
14447,422.535211267606,4,2,0,65,1,0
14869,402.684563758389,4,2,0,65,1,0
15473,428.571428571429,4,2,0,65,1,0
15687,416.666666666667,4,2,0,65,1,0
16103,416.666666666667,4,2,0,65,1,0
17353,408.163265306122,4,2,0,65,1,0
18781,405.405405405405,4,2,0,65,1,0
18879,394.736842105263,4,2,0,65,1,0
18978,419.58041958042,4,2,0,65,1,0
19397,410.958904109589,4,2,0,65,1,0
20629,422.535211267606,4,2,0,65,1,0
21474,392.156862745098,4,2,0,65,1,0
21866,413.793103448276,4,2,0,65,1,0
22072,400,4,2,0,65,1,0
22472,405.405405405405,4,2,0,65,1,0
22877,410.958904109589,4,2,0,65,1,0
23904,416.666666666667,4,2,0,65,1,0
24737,405.405405405405,4,2,0,65,1,0
25345,413.793103448276,4,2,0,65,1,0
25758,405.405405405405,4,2,0,65,1,0
25960,382.775119617225,4,2,0,65,1,0
26534,419.58041958042,4,2,0,65,1,0
26743,410.958904109589,4,2,0,65,1,0
27153,413.793103448276,4,2,0,65,1,1
31084,425.531914893617,4,2,0,65,1,1
31935,400,4,2,0,65,1,1
32135,425.531914893617,4,2,0,65,1,1
33198,394.736842105263,4,2,0,65,1,1
33790,422.535211267606,4,2,0,65,1,1
35268,413.793103448276,4,2,0,65,1,1
36509,428.571428571429,4,2,0,65,1,1
36723,408.163265306122,4,2,0,65,1,1
37131,419.58041958042,4,2,0,65,1,1
38389,410.958904109589,4,2,0,65,1,1
38799,416.666666666667,4,2,0,65,1,0
39215,413.793103448276,4,2,0,65,1,0
40456,425.531914893617,4,2,0,65,1,0
40881,410.958904109589,4,2,0,65,1,0
43757,405.405405405405,4,2,0,65,1,0
44567,410.958904109589,4,2,0,65,1,0
45799,400,4,2,0,65,1,0
46199,413.793103448276,4,2,0,65,1,0
47854,400,4,2,0,65,1,0
48254,405.405405405405,4,2,0,65,1,0
50281,413.793103448276,4,2,0,65,1,0
51522,400,4,2,0,65,1,0
51922,405.405405405405,4,2,0,65,1,0
52327,392.156862745098,4,2,0,65,1,0
52719,413.793103448276,4,2,0,65,1,0
53546,413.793103448276,4,2,0,65,1,1
56856,419.58041958042,4,2,0,65,1,1
57695,425.531914893617,4,2,0,65,1,1
58120,413.793103448276,4,2,0,65,1,1
60188,416.666666666667,4,2,0,65,1,1
61646,425.531914893617,4,2,0,65,1,1
62497,413.793103448276,4,2,0,65,1,1
63531,413.793103448276,4,2,0,65,1,1
64979,-100,4,2,0,65,0,0
65186,422.535211267606,4,2,0,65,1,1
65608,413.793103448276,4,2,0,65,1,1
66849,410.958904109589,4,2,0,65,1,1
69725,416.666666666667,4,2,0,65,1,1
70141,410.958904109589,4,2,0,65,1,1
72606,408.163265306122,4,2,0,65,1,1
73422,410.958904109589,4,2,0,65,1,1
76709,410.958904109589,4,2,0,65,1,0
79791,618.556701030928,4,2,0,65,1,0
80100,431.654676258993,4,2,0,65,1,0
81826,451.127819548872,4,2,0,65,1,0
83630,437.956204379562,4,2,0,65,1,0
85381,425.531914893617,4,2,0,65,1,0
87083,394.736842105263,4,2,0,65,1,0
87872,413.793103448276,4,2,0,65,1,0
88285,397.350993377483,4,2,0,65,1,0
88682,413.793103448276,4,2,0,65,1,0
89923,394.736842105263,4,2,0,65,1,0
90317,402.684563758389,4,2,0,65,1,0
91122,408.163265306122,4,2,0,65,1,0
91938,408.163265306122,4,2,0,65,1,0
93570,410.958904109589,4,2,0,65,1,1
96035,419.58041958042,4,2,0,65,1,1
96874,410.958904109589,4,2,0,65,1,1
99750,402.684563758389,4,2,0,65,1,1
100152,408.163265306122,4,2,0,65,1,1
106274,392.156862745098,4,2,0,65,1,1
106666,-100,4,2,0,65,0,0
107058,410.958904109589,4,2,0,65,1,0
107468,405.405405405405,4,2,0,65,1,0
108684,413.793103448276,4,2,0,65,1,0
109097,408.163265306122,4,2,0,65,1,0
109913,402.684563758389,4,2,0,65,1,0
110315,413.793103448276,4,2,0,65,1,0
111142,400,4,2,0,65,1,0
111942,413.793103448276,4,2,0,65,1,0
112769,392.156862745098,4,2,0,65,1,0
113161,408.163265306122,4,2,0,65,1,0
114385,394.736842105263,4,2,0,65,1,0
114779,419.58041958042,4,2,0,65,1,0
115198,405.405405405405,4,2,0,65,1,0
116008,408.163265306122,4,2,0,65,1,0
117640,405.405405405405,4,2,0,65,1,0
119667,413.793103448276,4,2,0,65,1,0
121735,408.163265306122,4,2,0,65,1,0
122959,405.405405405405,4,2,0,65,1,0
125391,410.958904109589,4,2,0,65,1,0
126212,408.163265306122,4,2,0,65,1,0
127028,379.746835443038,4,2,0,65,1,0
127217,416.666666666667,4,2,0,65,1,0
127425,402.684563758389,4,2,0,65,1,0
127626,392.156862745098,4,2,0,65,1,0
127822,413.793103448276,4,2,0,65,1,0
128028,392.156862745098,4,2,0,65,1,0
128420,416.666666666667,4,2,0,65,1,0
128628,447.761194029851,4,2,0,65,1,0
129075,410.958904109589,4,2,0,65,1,0

[Colours]
Combo1 : 123,151,15
Combo2 : 132,169,255
Combo3 : 235,165,48
Combo4 : 255,113,45

[HitObjects]
70,266,730,6,0,B|168:239|168:239|201:197,1,150,4|8,0:0|0:0,0:0:0:0:
198,110,1346,1,0,0:0:0:0:
243,28,1566,2,0,P|291:108|276:160,1,150,0|8,0:0|0:0,0:0:0:0:
259,247,2178,2,0,L|333:244,1,75,2|0,0:0|0:0,0:0:0:0:
354,331,2596,2,0,L|430:328,1,75,2|8,0:0|0:0,0:0:0:0:
485,238,3016,1,2,0:0:0:0:
366,170,3226,1,2,0:0:0:0:
482,104,3435,1,0,0:0:0:0:
329,48,3645,1,10,0:0:0:0:
329,48,4065,6,0,B|217:58|217:58|182:81,1,150,4|8,0:0|0:0,0:0:0:0:
121,142,4703,1,0,0:0:0:0:
79,221,4916,2,0,P|158:222|204:172,1,150,0|8,0:0|0:0,0:0:0:0:
237,89,5555,2,0,L|311:102,1,75,2|0,0:0|0:0,0:0:0:0:
302,191,5971,2,0,L|389:207,1,75,2|8,0:0|0:0,0:0:0:0:
465,143,6388,1,2,0:0:0:0:
465,143,6476,1,2,0:0:0:0:
465,143,6564,1,2,0:0:0:0:
469,232,6760,1,0,0:0:0:0:
302,191,6985,1,10,0:0:0:0:
306,280,7187,1,0,0:0:0:0:
148,246,7393,6,0,B|181:344|181:344|223:368,1,150,4|8,0:0|0:0,0:0:0:0:
310,372,8041,1,0,0:0:0:0:
399,361,8258,2,0,P|367:299|292:282,1,150,0|8,0:0|0:0,0:0:0:0:
205,299,8883,2,0,L|181:210,1,75,2|0,0:0|0:0,0:0:0:0:
255,169,9299,2,0,L|235:95,1,75,2|8,0:0|0:0,0:0:0:0:
143,28,9716,1,2,0:0:0:0:
75,131,9924,1,2,0:0:0:0:
24,23,10133,1,0,0:0:0:0:
182,119,10333,1,10,0:0:0:0:
182,119,10733,6,0,B|135:215|135:215|88:235,1,150,4|8,0:0|0:0,0:0:0:0:
10,257,11380,1,0,0:0:0:0:
26,346,11596,2,0,P|86:303|95:231,1,150,0|8,0:0|0:0,0:0:0:0:
71,144,12216,2,0,B|145:124|145:124|190:143|243:124,1,150,2|2,0:0|0:0,0:0:0:0:
333,94,12847,1,8,0:0:0:0:
304,242,13047,1,2,0:0:0:0:
304,242,13147,1,2,0:0:0:0:
304,242,13247,1,2,0:0:0:0:
462,193,13451,1,2,0:0:0:0:
246,138,13642,1,8,0:0:0:0:
410,289,13833,1,8,0:0:0:0:
432,72,14037,5,4,0:0:0:0:
361,163,14242,1,0,0:0:0:0:
321,54,14447,1,8,0:0:0:0:
462,193,14658,1,0,0:0:0:0:
262,170,14869,2,0,P|213:163|117:195,1,150,0|8,0:0|0:0,0:0:0:0:
109,304,15473,5,2,0:0:0:0:
138,300,15580,1,2,0:0:0:0:
168,298,15687,1,2,0:0:0:0:
119,194,15895,2,0,P|88:193|40:221,1,75,2|8,0:0|0:0,0:0:0:0:
11,330,16311,1,0,0:0:0:0:
119,194,16519,2,0,L|165:135,1,75,2|0,0:0|0:0,0:0:0:0:
324,55,16936,2,0,L|278:114,1,75,10|0,0:0|0:0,0:0:0:0:
214,211,17353,5,0,0:0:0:0:
210,58,17557,1,0,0:0:0:0:
352,141,17761,1,8,0:0:0:0:
166,135,17965,1,0,0:0:0:0:
386,64,18169,2,0,P|430:112|416:195,1,150,0|8,0:0|0:0,0:0:0:0:
361,275,18781,5,2,0:0:0:0:
371,303,18879,1,2,0:0:0:0:
379,330,18978,1,2,0:0:0:0:
419,191,19187,2,0,P|380:175|337:175,1,75,2|8,0:0|0:0,0:0:0:0:
237,178,19602,1,0,0:0:0:0:
286,279,19807,2,0,L|376:273,1,75,2|0,0:0|0:0,0:0:0:0:
237,178,20218,2,0,L|162:182,1,75,10|0,0:0|0:0,0:0:0:0:
38,188,20629,5,0,0:0:0:0:
105,286,20840,1,0,0:0:0:0:
96,119,21051,1,8,0:0:0:0:
20,272,21262,1,0,0:0:0:0:
188,266,21474,2,0,P|246:273|312:337,1,150,0|8,0:0|0:0,0:0:0:0:
210,375,22072,5,2,0:0:0:0:
180,375,22172,1,2,0:0:0:0:
150,376,22272,1,2,0:0:0:0:
20,272,22472,2,0,P|52:263|95:266,1,75,2|8,0:0|0:0,0:0:0:0:
196,297,22877,1,0,0:0:0:0:
255,206,23082,2,0,L|202:150,1,75,2|0,0:0|0:0,0:0:0:0:
96,41,23493,5,10,0:0:0:0:
244,87,23698,1,0,0:0:0:0:
54,199,23904,1,0,0:0:0:0:
202,245,24112,1,0,0:0:0:0:
96,41,24320,1,8,0:0:0:0:
54,199,24529,1,0,0:0:0:0:
226,141,24737,2,0,L|299:118,1,75
391,20,25142,1,8,0:0:0:0:
243,45,25345,5,2,0:0:0:0:
243,45,25448,1,2,0:0:0:0:
243,45,25551,1,2,0:0:0:0:
272,166,25758,2,0,L|296:256,1,75,2|8,0:0|0:0,0:0:0:0:
328,366,26151,1,0,0:0:0:0:
356,355,26247,1,0,0:0:0:0:
384,345,26342,1,10,0:0:0:0:
230,292,26534,1,0,0:0:0:0:
272,166,26743,2,0,L|354:135,1,75,10|0,0:0|0:0,0:0:0:0:
174,74,27153,6,0,P|147:99|134:143,1,75,4|0,0:0|0:0,0:0:0:0:
145,276,27566,2,0,L|67:287,1,75,8|0,0:0|0:0,0:0:0:0:
39,174,27980,1,0,0:0:0:0:
145,276,28187,1,0,0:0:0:0:
183,139,28394,2,0,B|201:104|201:104|238:75,1,75,8|0,0:0|0:0,0:0:0:0:
191,219,28808,6,0,B|173:254|173:254|136:283,1,75
21,255,29221,1,10,0:0:0:0:
191,219,29428,2,0,P|257:221|328:272,1,150,2|0,0:0|0:0,0:0:0:0:
419,376,30049,1,10,0:0:0:0:
457,247,30256,1,2,0:0:0:0:
325,267,30463,6,0,P|295:282|267:314,1,75,4|0,0:0|0:0,0:0:0:0:
133,345,30877,1,8,0:0:0:0:
194,208,31084,1,0,0:0:0:0:
325,267,31296,2,0,P|355:252|383:220,1,75
459,69,31722,1,8,0:0:0:0:
293,77,31935,1,0,0:0:0:0:
466,169,32135,6,0,B|488:199|488:199|498:242,2,75,0|0|10,0:0|0:0|0:0,0:0:0:0:
293,77,32773,2,0,P|269:138|185:156,1,150,2|0,0:0|0:0,0:0:0:0:
47,99,33395,1,10,0:0:0:0:
214,81,33592,1,0,0:0:0:0:
151,239,33790,6,0,L|115:313,1,75,4|0,0:0|0:0,0:0:0:0:
320,305,34212,2,0,L|287:237,1,75,8|0,0:0|0:0,0:0:0:0:
214,81,34635,1,0,0:0:0:0:
383,93,34846,1,0,0:0:0:0:
287,237,35057,1,8,0:0:0:0:
298,45,35268,6,0,P|364:-1|450:23,1,150
422,163,35888,1,10,0:0:0:0:
254,173,36095,2,0,L|178:178,1,75,2|0,0:0|0:0,0:0:0:0:
27,186,36509,1,2,0:0:0:0:
114,317,36723,1,10,0:0:0:0:
150,327,36825,1,2,0:0:0:0:
187,328,36927,1,2,0:0:0:0:
222,316,37029,1,2,0:0:0:0:
253,294,37131,6,0,P|288:283|334:290,1,75,4|0,0:0|0:0,0:0:0:0:
466,342,37550,2,0,L|475:249,1,75,8|0,0:0|0:0,0:0:0:0:
484,117,37970,1,4,0:0:0:0:
473,267,38179,1,0,0:0:0:0:
351,168,38389,1,8,0:0:0:0:
512,195,38594,1,0,0:0:0:0:
351,168,38799,6,0,P|272:172|216:214,1,150,4|8,0:0|0:0,0:0:0:0:
216,212,39421,1,0,0:0:0:0:
175,320,39628,2,0,L|96:287,2,75,0|0|8,0:0|0:0|0:0,0:0:0:0:
276,351,40249,5,0,0:0:0:0:
386,349,40456,2,0,P|401:319|397:271,1,75
376,163,40881,1,8,0:0:0:0:
508,205,41086,1,0,0:0:0:0:
339,235,41291,2,0,P|296:173|319:105,1,150,0|8,0:0|0:0,0:0:0:0:
447,25,41908,5,2,0:0:0:0:
417,28,42011,1,2,0:0:0:0:
387,31,42113,1,2,0:0:0:0:
243,112,42319,2,0,L|317:107,1,75,2|8,0:0|0:0,0:0:0:0:
480,101,42730,1,0,0:0:0:0:
406,228,42935,2,0,L|481:224,1,75,2|0,0:0|0:0,0:0:0:0:
329,340,43346,2,0,L|254:344,1,75,10|0,0:0|0:0,0:0:0:0:
115,350,43757,5,0,0:0:0:0:
179,238,43959,1,0,0:0:0:0:
59,164,44162,1,8,0:0:0:0:
123,52,44365,1,0,0:0:0:0:
245,117,44567,2,0,P|318:107|377:57,1,150,0|8,0:0|0:0,0:0:0:0:
409,151,45183,5,2,0:0:0:0:
409,181,45286,1,2,0:0:0:0:
409,211,45388,1,2,0:0:0:0:
378,346,45594,2,0,P|343:333|310:298,1,75,2|8,0:0|0:0,0:0:0:0:
262,222,45999,1,0,0:0:0:0:
322,100,46199,2,0,L|245:107,1,75,2|0,0:0|0:0,0:0:0:0:
410,211,46612,2,0,L|488:202,1,75,10|0,0:0|0:0,0:0:0:0:
499,89,47026,5,0,0:0:0:0:
410,211,47233,1,0,0:0:0:0:
301,91,47440,1,8,0:0:0:0:
212,213,47647,1,0,0:0:0:0:
161,70,47854,2,0,P|234:60|301:91,1,150,0|8,0:0|0:0,0:0:0:0:
379,174,48456,5,2,0:0:0:0:
408,169,48558,1,2,0:0:0:0:
437,166,48659,1,2,0:0:0:0:
375,275,48862,2,0,L|288:287,1,75,2|8,0:0|0:0,0:0:0:0:
181,300,49267,1,0,0:0:0:0:
96,222,49470,2,0,L|84:140,1,75,2|0,0:0|0:0,0:0:0:0:
67,34,49875,5,10,0:0:0:0:
201,106,50078,1,0,0:0:0:0:
96,222,50281,1,0,0:0:0:0:
144,49,50487,1,0,0:0:0:0:
198,213,50694,1,8,0:0:0:0:
21,157,50901,1,0,0:0:0:0:
201,106,51108,2,0,P|267:94|342:129,1,150,0|8,0:0|0:0,0:0:0:0:
439,194,51722,5,2,0:0:0:0:
436,223,51822,1,2,0:0:0:0:
432,253,51922,1,2,0:0:0:0:
382,353,52124,2,0,L|303:358,1,75,2|8,0:0|0:0,0:0:0:0:
170,364,52523,1,0,0:0:0:0:
170,364,52621,1,0,0:0:0:0:
170,364,52719,1,10,0:0:0:0:
229,254,52925,1,0,0:0:0:0:
127,116,53132,1,10,0:0:0:0:
476,52,53546,6,0,L|381:94,1,75,4|0,0:0|0:0,0:0:0:0:
288,137,53959,2,0,P|306:174|349:202,1,75,8|0,0:0|0:0,0:0:0:0:
477,212,54373,1,0,0:0:0:0:
407,82,54580,1,0,0:0:0:0:
332,195,54787,2,0,B|326:233|326:233|340:278,1,75,8|0,0:0|0:0,0:0:0:0:
247,338,55201,6,0,B|253:300|253:300|239:255,1,75
182,160,55614,1,10,0:0:0:0:
334,53,55821,2,0,P|354:124|331:194,1,150,2|0,0:0|0:0,0:0:0:0:
172,238,56442,1,10,0:0:0:0:
302,362,56649,1,2,0:0:0:0:
240,177,56856,6,0,B|227:140|227:140|198:106,1,75,4|0,0:0|0:0,0:0:0:0:
91,38,57275,1,8,0:0:0:0:
266,0,57485,1,0,0:0:0:0:
240,177,57695,2,0,P|205:196|158:201,1,75
0,173,58120,1,8,0:0:0:0:
114,46,58326,1,0,0:0:0:0:
78,228,58533,6,0,P|47:258|3:268,2,75,0|2|10,0:0|0:0|0:0,0:0:0:0:
158,103,59154,2,0,P|217:66|309:71,1,150,2|0,0:0|0:0,0:0:0:0:
429,111,59775,2,0,P|472:105|498:82,1,75,10|0,0:0|0:0,0:0:0:0:
326,210,60188,6,0,P|319:256|326:287,1,75,4|0,0:0|0:0,0:0:0:0:
427,184,60604,2,0,P|434:138|427:107,1,75,8|0,0:0|0:0,0:0:0:0:
284,64,61021,1,0,0:0:0:0:
433,9,61229,1,0,0:0:0:0:
427,184,61438,1,8,0:0:0:0:
284,64,61646,6,0,P|214:83|160:140,1,150
166,270,62284,1,10,0:0:0:0:
321,317,62497,2,0,L|412:309,1,75,2|0,0:0|0:0,0:0:0:0:
497,223,62910,1,0,0:0:0:0:
371,178,63117,1,8,0:0:0:0:
395,310,63324,1,0,0:0:0:0:
473,84,63531,6,0,L|451:158,1,75,4|0,0:0|0:0,0:0:0:0:
395,310,63944,2,0,P|355:302|319:264,1,75,8|0,0:0|0:0,0:0:0:0:
275,142,64358,1,0,0:0:0:0:
181,243,64565,1,0,0:0:0:0:
347,194,64772,1,8,0:0:0:0:
240,314,64979,1,0,0:0:0:0:
174,102,65186,6,0,P|194:69|237:46,1,75,4|0,0:0|0:0,0:0:0:0:
404,295,65608,2,0,P|384:328|341:351,1,75,8|0,0:0|0:0,0:0:0:0:
370,60,66021,2,0,P|401:80|420:112,1,75,4|0,0:0|0:0,0:0:0:0:
243,176,66435,1,8,0:0:0:0:
404,295,66642,1,0,0:0:0:0:
420,112,66849,6,0,L|429:32,1,75,4|0,0:0|0:0,0:0:0:0:
327,173,67259,2,0,L|321:91,1,75,8|0,0:0|0:0,0:0:0:0:
241,236,67670,2,0,L|219:155,1,75,4|0,0:0|0:0,0:0:0:0:
172,324,68081,2,0,L|124:254,1,75,8|0,0:0|0:0,0:0:0:0:
83,37,68492,6,0,L|92:112,1,75,4|0,0:0|0:0,0:0:0:0:
190,98,68903,2,0,L|185:173,1,75,8|0,0:0|0:0,0:0:0:0:
289,160,69314,2,0,L|272:233,1,75,4|0,0:0|0:0,0:0:0:0:
112,300,69725,1,8,0:0:0:0:
293,364,69933,1,0,0:0:0:0:
185,173,70141,6,0,P|166:126|144:100,1,75,4|0,0:0|0:0,0:0:0:0:
323,237,70551,2,0,P|331:192|326:151,1,75,8|0,0:0|0:0,0:0:0:0:
458,210,70962,1,4,0:0:0:0:
272,296,71168,1,0,0:0:0:0:
328,163,71373,1,8,0:0:0:0:
414,349,71579,1,0,0:0:0:0:
138,309,71784,6,0,L|189:254,1,75,4|0,0:0|0:0,0:0:0:0:
374,75,72195,2,0,L|322:129,1,75,8|0,0:0|0:0,0:0:0:0:
81,191,72606,2,0,L|156:191,1,75,4|0,0:0|0:0,0:0:0:0:
353,192,73014,1,8,0:0:0:0:
215,296,73218,1,0,0:0:0:0:
374,309,73422,6,0,L|323:255,1,75,4|0,0:0|0:0,0:0:0:0:
138,75,73832,2,0,L|190:130,1,75,8|0,0:0|0:0,0:0:0:0:
428,192,74243,2,0,L|352:192,1,75,4|0,0:0|0:0,0:0:0:0:
81,191,74654,2,0,L|156:191,1,75,8|0,0:0|0:0,0:0:0:0:
374,75,75065,6,0,L|323:130,1,75,4|0,0:0|0:0,0:0:0:0:
188,254,75476,1,8,0:0:0:0:
256,84,75682,1,0,0:0:0:0:
256,283,75887,2,0,L|256:369,1,75,4|0,0:0|0:0,0:0:0:0:
361,177,76298,1,8,0:0:0:0:
151,177,76504,1,0,0:0:0:0:
256,358,76709,5,4,0:0:0:0:
256,192,76914,12,4,80100,0:0:0:0:
98,114,87083,6,0,L|140:146,2,37.5,4|0|0,3:0|3:0|3:0,3:0:0:0:
181,54,87477,2,0,L|196:91,2,37.5,8|0|0,3:0|3:0|3:0,3:0:0:0:
283,33,87872,2,0,L|277:86,2,37.5,8|0|0,3:0|3:0|3:0,3:0:0:0:
382,49,88285,2,0,L|364:93,2,37.5,8|0|0,3:0|3:0|3:0,3:0:0:0:
330,177,88682,6,0,L|284:180,2,37.5,4|0|0,3:0|3:0|3:0,3:0:0:0:
397,241,89095,2,0,L|434:243,2,37.5,8|0|0,3:0|3:0|3:0,3:0:0:0:
324,299,89509,2,0,L|278:302,2,37.5,8|0|0,3:0|3:0|3:0,3:0:0:0:
392,353,89923,2,0,L|429:355,2,37.5,8|0|0,3:0|3:0|3:0,3:0:0:0:
201,333,90317,5,4,3:1:0:0:
87,240,90518,1,0,3:0:0:0:
87,240,90619,1,0,3:0:0:0:
87,240,90719,1,8,3:0:0:0:
225,189,90921,1,0,3:0:0:0:
225,189,91021,1,0,3:0:0:0:
225,189,91122,1,4,3:0:0:0:
101,89,91326,1,0,3:0:0:0:
101,89,91428,1,0,3:0:0:0:
101,89,91530,1,8,3:0:0:0:
167,251,91734,1,0,3:0:0:0:
268,64,91938,5,4,3:1:0:0:
384,148,92142,1,0,3:0:0:0:
384,148,92244,1,0,3:0:0:0:
384,148,92346,1,8,3:0:0:0:
246,202,92550,1,0,3:0:0:0:
246,202,92652,1,0,3:0:0:0:
246,202,92754,1,4,3:0:0:0:
364,286,92958,1,0,3:0:0:0:
364,286,93060,1,0,3:0:0:0:
364,286,93162,1,8,3:0:0:0:
219,343,93366,1,8,3:0:0:0:
339,209,93570,6,0,P|375:207|420:236,1,75,4|0,0:0|0:0,0:0:0:0:
472,335,93980,1,8,0:0:0:0:
486,163,94186,1,0,0:0:0:0:
306,290,94391,2,0,B|268:299|268:299|219:296,2,75,2|0|8,0:0|0:0|0:0,0:0:0:0:
390,201,95008,2,0,L|378:118,1,75,2|0,0:0|0:0,0:0:0:0:
248,44,95419,2,0,L|258:118,1,75,2|8,0:0|0:0,0:0:0:0:
277,227,95830,1,0,0:0:0:0:
402,274,96035,2,0,B|441:263|441:263|473:230,2,75,2|2|8,0:0|0:0|0:0,0:0:0:0:
277,227,96664,1,0,0:0:0:0:
189,145,96874,6,0,B|168:113|168:113|132:89,2,75,4|0|8,0:0|0:0|0:0,0:0:0:0:
146,266,97490,1,0,0:0:0:0:
250,353,97695,2,0,P|314:326|337:247,1,150,2|8,0:0|0:0,0:0:0:0:
339,137,98312,2,0,L|279:88,1,75,2|0,0:0|0:0,0:0:0:0:
148,83,98723,2,0,L|206:130,1,75,2|8,0:0|0:0,0:0:0:0:
339,42,99134,2,0,L|279:91,1,75,2|0,0:0|0:0,0:0:0:0:
205,242,99545,2,0,L|263:194,1,75,2|8,0:0|0:0,0:0:0:0:
348,134,99951,1,0,0:0:0:0:
314,326,100152,6,0,P|244:305|205:242,1,150,4|8,0:0|0:0,0:0:0:0:
183,129,100764,1,0,0:0:0:0:
296,96,100968,2,0,P|366:117|405:180,1,150,2|8,0:0|0:0,0:0:0:0:
403,297,101580,2,0,L|318:292,1,75,2|0,0:0|0:0,0:0:0:0:
186,215,101988,2,0,L|266:221,1,75,2|8,0:0|0:0,0:0:0:0:
251,365,102396,2,0,L|256:280,1,75,2|0,0:0|0:0,0:0:0:0:
340,149,102805,2,0,L|334:229,1,75,2|8,0:0|0:0,0:0:0:0:
328,350,103213,1,0,0:0:0:0:
151,342,103417,6,0,B|110:249|110:249|118:202,1,150,4|8,0:0|0:0,0:0:0:0:
152,101,104029,1,0,0:0:0:0:
117,4,104233,2,0,P|73:38|56:134,1,150,2|8,0:0|0:0,0:0:0:0:
48,224,104845,2,0,P|85:219|119:199,1,75,2|0,0:0|0:0,0:0:0:0:
187,37,105254,2,0,P|163:66|152:102,1,75,2|8,0:0|0:0,0:0:0:0:
281,229,105662,2,0,P|256:200|223:182,1,75,2|0,0:0|0:0,0:0:0:0:
117,201,106070,1,2,0:0:0:0:
152,101,106274,1,10,0:0:0:0:
224,182,106470,1,2,0:0:0:0:
289,47,106666,6,0,B|319:29|319:29|367:19,1,75,4|0,0:0|0:0,0:0:0:0:
423,183,107058,2,0,B|393:201|393:201|352:208,1,75,8|0,0:0|0:0,0:0:0:0:
224,182,107468,1,2,0:0:0:0:
189,333,107670,1,0,0:0:0:0:
81,214,107873,1,8,0:0:0:0:
189,333,108076,6,0,B|229:331|229:331|272:315,1,75,0|2,0:0|0:0,0:0:0:0:
81,214,108481,2,0,B|41:216|41:216|8:228,1,75,0|8,0:0|0:0,0:0:0:0:
81,327,108890,1,0,0:0:0:0:
188,179,109097,1,2,0:0:0:0:
188,362,109301,1,0,0:0:0:0:
81,214,109505,1,8,0:0:0:0:
254,271,109709,1,0,0:0:0:0:
117,143,109913,6,0,P|108:104|119:60,1,75,2|0,0:0|0:0,0:0:0:0:
251,198,110315,2,0,P|260:237|249:281,1,75,8|0,0:0|0:0,0:0:0:0:
140,318,110728,1,2,0:0:0:0:
251,198,110935,1,0,0:0:0:0:
317,358,111142,1,8,0:0:0:0:
428,238,111342,6,0,L|485:182,1,75,0|2,0:0|0:0,0:0:0:0:
436,43,111742,2,0,L|382:95,1,75,0|8,0:0|0:0,0:0:0:0:
291,209,112148,1,0,0:0:0:0:
118,153,112355,1,2,0:0:0:0:
291,96,112562,1,0,0:0:0:0:
184,244,112769,1,8,0:0:0:0:
184,61,112965,1,0,0:0:0:0:
256,281,113161,6,0,B|276:355,1,75,2|0,0:0|0:0,0:0:0:0:
98,225,113569,2,0,B|117:152,1,75,8|0,0:0|0:0,0:0:0:0:
154,16,113977,1,2,0:0:0:0:
259,113,114181,1,0,0:0:0:0:
117,152,114385,1,8,0:0:0:0:
233,30,114582,6,0,P|269:28|314:44,1,75,0|2,0:0|0:0,0:0:0:0:
287,211,114988,2,0,P|251:213|206:197,1,75,0|8,0:0|0:0,0:0:0:0:
41,145,115400,1,0,0:0:0:0:
148,293,115603,1,2,0:0:0:0:
148,110,115806,1,0,0:0:0:0:
41,258,116008,1,8,0:0:0:0:
214,202,116212,1,0,0:0:0:0:
77,80,116416,6,0,L|12:13,1,75,2|0,0:0|0:0,0:0:0:0:
95,239,116824,2,0,L|147:292,1,75,8|0,0:0|0:0,0:0:0:0:
248,375,117232,1,2,0:0:0:0:
267,239,117436,1,0,0:0:0:0:
147,292,117640,1,8,0:0:0:0:
316,314,117842,1,0,0:0:0:0:
68,326,118045,5,2,0:0:0:0:
183,202,118248,1,0,0:0:0:0:
243,362,118450,1,8,0:0:0:0:
91,230,118653,1,0,0:0:0:0:
257,265,118856,1,2,0:0:0:0:
68,326,119058,1,0,0:0:0:0:
243,362,119261,1,8,0:0:0:0:
91,230,119464,1,0,0:0:0:0:
300,129,119667,6,0,L|367:96,1,75,2|0,0:0|0:0,0:0:0:0:
493,30,120080,1,8,0:0:0:0:
508,187,120287,1,0,0:0:0:0:
367,97,120494,1,2,0:0:0:0:
389,262,120701,1,0,0:0:0:0:
253,166,120908,1,8,0:0:0:0:
275,331,121115,1,0,0:0:0:0:
149,234,121322,6,0,P|117:210|95:173,1,75,2|0,0:0|0:0,0:0:0:0:
36,54,121735,1,8,0:0:0:0:
14,219,121939,1,0,0:0:0:0:
154,128,122143,1,2,0:0:0:0:
132,293,122347,1,0,0:0:0:0:
269,198,122551,1,8,0:0:0:0:
247,363,122755,1,0,0:0:0:0:
346,185,122959,6,0,P|330:147|299:126,1,75,2|0,0:0|0:0,0:0:0:0:
167,41,123364,1,8,0:0:0:0:
332,7,123567,1,0,0:0:0:0:
172,127,123769,1,2,0:0:0:0:
370,86,123972,1,0,0:0:0:0:
172,213,124175,1,8,0:0:0:0:
409,163,124377,1,0,0:0:0:0:
177,284,124580,6,0,P|143:278|111:245,1,75,2|0,0:0|0:0,0:0:0:0:
69,46,124986,1,8,0:0:0:0:
34,212,125188,1,0,0:0:0:0:
156,51,125391,1,2,0:0:0:0:
114,251,125596,1,0,0:0:0:0:
242,55,125801,1,8,0:0:0:0:
195,286,126007,1,0,0:0:0:0:
361,99,126212,6,0,L|428:33,1,75,8|0,0:3|0:0,0:0:0:0:
414,46,126518,1,8,0:3:0:0:
414,46,126620,1,4,0:3:0:0:
151,285,126824,6,0,L|84:351,1,75,8|0,0:3|0:0,0:0:0:0:
97,337,127122,1,8,0:3:0:0:
97,337,127217,1,4,0:3:0:0:
151,99,127425,6,0,L|84:33,1,75,8|0,0:3|0:0,0:0:0:0:
97,46,127724,1,8,0:3:0:0:
97,46,127822,1,4,0:3:0:0:
361,285,128028,6,0,L|428:351,1,75,8|0,0:3|0:0,0:0:0:0:
414,337,128322,1,8,0:3:0:0:
414,337,128420,1,4,0:3:0:0:
255,122,128628,5,4,0:3:0:0:
145,302,129075,1,8,0:0:0:0:
367,302,129485,1,4,0:0:0:0:
