osu file format v14

[General]
AudioFilename: audio.mp3
AudioLeadIn: 0
PreviewTime: 66332
Countdown: 0
SampleSet: Soft
StackLeniency: 0.4
Mode: 0
LetterboxInBreaks: 0
WidescreenStoryboard: 0

[Editor]
DistanceSpacing: 1.7
BeatDivisor: 4
GridSize: 4
TimelineZoom: 1

[Metadata]
Title:Born To Be Wild
TitleUnicode:Born To Be Wild
Artist:Steppenwolf
ArtistUnicode:Steppenwolf
Creator:Arf
Version:Hard
Source:
Tags:rfandomization classic rock easy rider driving drive guitar riff sixties 60s
BeatmapID:1253085
BeatmapSetID:592205

[Difficulty]
HPDrainRate:4
CircleSize:3.5
OverallDifficulty:6
ApproachRate:7
SliderMultiplier:1.2
SliderTickRate:1

[Events]
//Background and Video events
0,0,"longdrive 3.jpg",0,0
//Break Periods
2,80299,86183
//Storyboard Layer 0 (Background)
//Storyboard Layer 1 (Fail)
//Storyboard Layer 2 (Pass)
//Storyboard Layer 3 (Foreground)
//Storyboard Sound Samples

[TimingPoints]
290,440.366972477064,4,2,0,65,1,0
730,397.350993377483,4,2,0,65,1,0
1127,439.56043956044,4,2,0,65,1,0
1566,400,4,2,0,65,1,0
1966,425.531914893617,4,2,0,65,1,0
2178,419.58041958042,4,2,0,65,1,0
2387,419.58041958042,4,2,0,65,1,0
4065,425.531914893617,4,2,0,65,1,0
5341,428.571428571429,4,2,0,65,1,0
5555,416.666666666667,4,2,0,65,1,0
6388,352.941176470588,4,2,0,65,1,0
6564,421.052631578947,4,2,0,65,1,0
6760,451.127819548872,4,2,0,65,1,0
6985,405.405405405405,4,2,0,65,1,0
7187,413.793103448276,4,2,0,65,1,0
7393,431.654676258993,4,2,0,65,1,0
7824,434.782608695652,4,2,0,65,1,0
8258,416.666666666667,4,2,0,65,1,0
10133,400,4,2,0,65,1,0
10333,400,4,2,0,65,1,0
10733,431.654676258993,4,2,0,65,1,0
11596,413.793103448276,4,2,0,65,1,0
12630,434.782608695652,4,2,0,65,1,0
12847,400,4,2,0,65,1,0
13247,408.163265306122,4,2,0,65,1,0
13451,382.165605095541,4,2,0,65,1,0
13833,408.163265306122,4,2,0,65,1,0
14037,410.958904109589,4,2,0,65,1,0
14447,422.535211267606,4,2,0,65,1,0
14869,402.684563758389,4,2,0,65,1,0
15473,428.571428571429,4,2,0,65,1,0
15687,416.666666666667,4,2,0,65,1,0
16103,416.666666666667,4,2,0,65,1,0
17353,408.163265306122,4,2,0,65,1,0
18781,405.405405405405,4,2,0,65,1,0
18879,394.736842105263,4,2,0,65,1,0
18978,419.58041958042,4,2,0,65,1,0
19397,410.958904109589,4,2,0,65,1,0
20629,422.535211267606,4,2,0,65,1,0
21474,392.156862745098,4,2,0,65,1,0
21866,413.793103448276,4,2,0,65,1,0
22072,400,4,2,0,65,1,0
22472,405.405405405405,4,2,0,65,1,0
22877,410.958904109589,4,2,0,65,1,0
23904,416.666666666667,4,2,0,65,1,0
24737,405.405405405405,4,2,0,65,1,0
25345,413.793103448276,4,2,0,65,1,0
25758,405.405405405405,4,2,0,65,1,0
25960,382.775119617225,4,2,0,65,1,0
26534,419.58041958042,4,2,0,65,1,0
26743,410.958904109589,4,2,0,65,1,0
27153,413.793103448276,4,2,0,65,1,1
31084,425.531914893617,4,2,0,65,1,1
31935,400,4,2,0,65,1,1
32135,425.531914893617,4,2,0,65,1,1
33198,394.736842105263,4,2,0,65,1,1
33790,422.535211267606,4,2,0,65,1,1
35268,413.793103448276,4,2,0,65,1,1
36509,428.571428571429,4,2,0,65,1,1
36723,408.163265306122,4,2,0,65,1,1
37131,419.58041958042,4,2,0,65,1,1
38389,410.958904109589,4,2,0,65,1,1
38799,416.666666666667,4,2,0,65,1,0
39215,413.793103448276,4,2,0,65,1,0
40456,425.531914893617,4,2,0,65,1,0
40881,410.958904109589,4,2,0,65,1,0
43757,405.405405405405,4,2,0,65,1,0
44567,410.958904109589,4,2,0,65,1,0
45799,400,4,2,0,65,1,0
46199,413.793103448276,4,2,0,65,1,0
47854,400,4,2,0,65,1,0
48254,405.405405405405,4,2,0,65,1,0
50281,413.793103448276,4,2,0,65,1,0
51522,400,4,2,0,65,1,0
51922,405.405405405405,4,2,0,65,1,0
52327,392.156862745098,4,2,0,65,1,0
52719,413.793103448276,4,2,0,65,1,0
53546,413.793103448276,4,2,0,65,1,1
56856,419.58041958042,4,2,0,65,1,1
57695,425.531914893617,4,2,0,65,1,1
58120,413.793103448276,4,2,0,65,1,1
60188,416.666666666667,4,2,0,65,1,1
61646,425.531914893617,4,2,0,65,1,1
62497,413.793103448276,4,2,0,65,1,1
63531,413.793103448276,4,2,0,65,1,1
64979,-100,4,2,0,65,0,0
65186,422.535211267606,4,2,0,65,1,1
65608,413.793103448276,4,2,0,65,1,1
66849,410.958904109589,4,2,0,65,1,1
69725,416.666666666667,4,2,0,65,1,1
70141,410.958904109589,4,2,0,65,1,1
72606,408.163265306122,4,2,0,65,1,1
73422,410.958904109589,4,2,0,65,1,1
76709,410.958904109589,4,2,0,65,1,0
79791,618.556701030928,4,2,0,65,1,0
80100,431.654676258993,4,2,0,65,1,0
81826,451.127819548872,4,2,0,65,1,0
83630,437.956204379562,4,2,0,65,1,0
85381,425.531914893617,4,2,0,65,1,0
87083,394.736842105263,4,2,0,65,1,0
87872,413.793103448276,4,2,0,65,1,0
88285,397.350993377483,4,2,0,65,1,0
88682,413.793103448276,4,2,0,65,1,0
89923,394.736842105263,4,2,0,65,1,0
90317,402.684563758389,4,2,0,65,1,0
91122,408.163265306122,4,2,0,65,1,0
91938,408.163265306122,4,2,0,65,1,0
93570,410.958904109589,4,2,0,65,1,1
96035,419.58041958042,4,2,0,65,1,1
96874,410.958904109589,4,2,0,65,1,1
99750,402.684563758389,4,2,0,65,1,1
100152,408.163265306122,4,2,0,65,1,1
106274,392.156862745098,4,2,0,65,1,1
106666,-100,4,2,0,65,0,0
107058,410.958904109589,4,2,0,65,1,0
107468,405.405405405405,4,2,0,65,1,0
108684,413.793103448276,4,2,0,65,1,0
109097,408.163265306122,4,2,0,65,1,0
109913,402.684563758389,4,2,0,65,1,0
110315,413.793103448276,4,2,0,65,1,0
111142,400,4,2,0,65,1,0
111942,413.793103448276,4,2,0,65,1,0
112769,392.156862745098,4,2,0,65,1,0
113161,408.163265306122,4,2,0,65,1,0
114385,394.736842105263,4,2,0,65,1,0
114779,419.58041958042,4,2,0,65,1,0
115198,405.405405405405,4,2,0,65,1,0
116008,408.163265306122,4,2,0,65,1,0
117640,405.405405405405,4,2,0,65,1,0
119667,413.793103448276,4,2,0,65,1,0
121735,408.163265306122,4,2,0,65,1,0
122959,405.405405405405,4,2,0,65,1,0
125391,410.958904109589,4,2,0,65,1,0
126212,408.163265306122,4,2,0,65,1,0
127028,379.746835443038,4,2,0,65,1,0
127217,416.666666666667,4,2,0,65,1,0
127425,402.684563758389,4,2,0,65,1,0
127626,392.156862745098,4,2,0,65,1,0
127822,413.793103448276,4,2,0,65,1,0
128028,392.156862745098,4,2,0,65,1,0
128420,416.666666666667,4,2,0,65,1,0
128628,447.761194029851,4,2,0,65,1,0
129075,410.958904109589,4,2,0,65,1,0

[Colours]
Combo1 : 123,151,15
Combo2 : 132,169,255
Combo3 : 235,165,48
Combo4 : 255,113,45

[HitObjects]
63,185,730,6,0,B|153:169|153:169|182:143,1,120,4|8,0:0|0:0,0:0:0:0:
235,92,1346,1,0,0:0:0:0:
260,8,1566,2,0,P|305:42|317:120,1,120,0|8,0:0|0:0,0:0:0:0:
308,184,2178,2,0,L|291:251,1,60,2|0,0:0|0:0,0:0:0:0:
377,233,2596,2,0,L|391:174,1,60,2|8,0:0|0:0,0:0:0:0:
406,91,3016,1,2,0:0:0:0:
320,101,3226,2,0,B|287:107|287:107|247:102,1,60,2|0,0:0|0:0,0:0:0:0:
226,30,3645,2,0,B|259:24|259:24|299:29,1,60,10|0,0:0|0:0,0:0:0:0:
261,104,4065,6,0,P|199:107|146:48,1,120,4|8,0:0|0:0,0:0:0:0:
226,30,4703,1,0,0:0:0:0:
261,104,4916,2,0,B|241:194|241:194|206:222,1,120,0|8,0:0|0:0,0:0:0:0:
156,266,5555,2,0,L|207:300,1,60,2|0,0:0|0:0,0:0:0:0:
219,212,5971,2,0,L|169:178,1,60,2|8,0:0|0:0,0:0:0:0:
99,130,6388,2,0,L|62:153,2,30,2|2|10,0:0|0:0|0:0,0:0:0:0:
174,94,6760,1,0,0:0:0:0:
108,48,6985,1,10,0:0:0:0:
326,130,7393,6,0,L|316:253,1,120,4|8,0:0|0:0,0:0:0:0:
386,296,8041,1,0,0:0:0:0:
399,212,8258,2,0,L|408:92,1,120,0|8,0:0|0:0,0:0:0:0:
354,20,8883,2,0,L|290:30,1,60,2|0,0:0|0:0,0:0:0:0:
266,118,9299,2,0,L|325:108,1,60,2|8,0:0|0:0,0:0:0:0:
408,92,9716,1,2,0:0:0:0:
470,148,9924,2,0,B|464:178|464:178|472:217,1,60,2|0,0:0|0:0,0:0:0:0:
388,256,10333,2,0,B|394:226|394:226|386:187,1,60,10|0,0:0|0:0,0:0:0:0:
316,300,10733,6,0,P|361:337|420:334,1,120,4|8,0:0|0:0,0:0:0:0:
491,290,11380,1,0,0:0:0:0:
456,213,11596,2,0,P|409:176|350:178,1,120,0|8,0:0|0:0,0:0:0:0:
263,173,12216,2,0,B|182:163|182:163|146:143,1,120,2|2,0:0|0:0,0:0:0:0:
102,77,12847,1,8,0:0:0:0:
60,157,13047,2,0,L|31:164,2,30,2|2|2,0:0|0:0|0:0,0:0:0:0:
149,144,13451,1,2,0:0:0:0:
156,252,13642,1,8,0:0:0:0:
51,282,13833,1,8,0:0:0:0:
156,252,14037,6,0,P|187:271|201:304,1,60,4|0,0:0|0:0,0:0:0:0:
270,324,14447,2,0,P|251:355|218:369,1,60,8|0,0:0|0:0,0:0:0:0:
198,291,14869,2,0,P|246:246|297:249,1,120,0|8,0:0|0:0,0:0:0:0:
373,284,15473,6,0,B|386:346,1,60,2|2,0:0|0:0,0:0:0:0:
466,321,15895,2,0,L|451:255,1,60,2|8,0:0|0:0,0:0:0:0:
397,200,16311,1,0,0:0:0:0:
317,166,16519,2,0,B|288:144|288:144|273:117,1,60,2|0,0:0|0:0,0:0:0:0:
309,45,16936,2,0,B|337:66|337:66|352:93,1,60,10|0,0:0|0:0,0:0:0:0:
317,166,17353,5,0,0:0:0:0:
262,230,17557,1,0,0:0:0:0:
344,247,17761,2,0,L|402:259,1,60,8|0,0:0|0:0,0:0:0:0:
487,278,18169,2,0,P|456:327|400:347,1,120,0|8,0:0|0:0,0:0:0:0:
318,331,18781,6,0,L|259:316,1,58.4,2|2,0:0|0:0,0:0:0:0:
219,242,19187,2,0,L|277:227,1,60,2|8,0:0|0:0,0:0:0:0:
360,211,19602,1,0,0:0:0:0:
396,135,19807,2,0,B|365:129|365:129|329:134,1,60,2|0,0:0|0:0,0:0:0:0:
294,48,20218,2,0,B|325:54|325:54|353:50,1,60,10|0,0:0|0:0,0:0:0:0:
456,47,20629,6,0,L|472:106,1,60
476,188,21051,2,0,L|458:245,1,60,8|0,0:0|0:0,0:0:0:0:
411,315,21474,2,0,P|375:258|393:193,1,120,0|8,0:0|0:0,0:0:0:0:
365,126,22072,6,0,P|395:124|443:149,2,60,2|2|2,0:0|0:0|0:0,0:0:0:0:
297,169,22674,1,8,0:0:0:0:
297,169,22877,1,0,0:0:0:0:
221,205,23082,2,0,P|191:202|164:188,1,60,2|0,0:0|0:0,0:0:0:0:
138,108,23493,1,10,0:0:0:0:
223,114,23698,1,0,0:0:0:0:
304,90,23904,6,0,P|338:101|367:131,2,60,0|0|8,0:0|0:0|0:0,0:0:0:0:
223,114,24529,1,0,0:0:0:0:
139,123,24737,2,0,P|105:112|74:83,2,60,0|0|8,0:0|0:0|0:0,0:0:0:0:
185,202,25345,6,0,P|174:236|145:267,1,60,2|2,0:0|0:0,0:0:0:0:
245,296,25758,2,0,P|256:262|275:237,1,60,2|8,0:0|0:0,0:0:0:0:
353,229,26151,2,0,L|381:263,2,30,0|0|10,0:0|0:0|0:0,0:0:0:0:
298,165,26534,1,0,0:0:0:0:
385,100,26743,1,10,0:0:0:0:
150,70,27153,6,0,L|83:61,1,60,4|0,0:0|0:0,0:0:0:0:
151,152,27566,2,0,L|218:143,1,60,8|0,0:0|0:0,0:0:0:0:
294,138,27980,1,0,0:0:0:0:
259,214,28187,1,0,0:0:0:0:
211,144,28394,2,0,P|218:105|238:77,1,60,8|0,0:0|0:0,0:0:0:0:
304,55,28808,6,0,L|423:41,1,120,0|10,0:0|0:0,0:0:0:0:
505,59,29428,2,0,P|505:28|488:-18,2,60,2|0|0,0:0|0:0|0:0,0:0:0:0:
469,136,30049,2,0,P|461:164|460:194,1,60,10|2,0:0|0:0,0:0:0:0:
477,277,30463,6,0,L|413:285,1,60,4|0,0:0|0:0,0:0:0:0:
334,298,30877,1,8,0:0:0:0:
386,363,31084,1,0,0:0:0:0:
417,284,31296,2,0,P|415:246|403:219,1,60
365,152,31722,1,8,0:0:0:0:
326,226,31935,1,0,0:0:0:0:
407,226,32135,6,0,L|492:221,2,60,0|0|10,0:0|0:0|0:0,0:0:0:0:
326,226,32773,2,0,P|286:171|299:105,1,120,2|0,0:0|0:0,0:0:0:0:
351,54,33395,1,10,0:0:0:0:
183,60,33790,6,0,L|113:63,1,60,4|0,0:0|0:0,0:0:0:0:
89,143,34212,2,0,L|148:140,1,60,8|0,0:0|0:0,0:0:0:0:
230,138,34635,2,0,P|257:113|269:83,2,60,0|0|8,0:0|0:0|0:0,0:0:0:0:
188,211,35268,6,0,P|178:267|216:330,1,120,0|0,0:0|0:0,0:0:0:0:
306,321,35888,1,10,0:0:0:0:
306,321,36095,2,0,P|333:268|324:206,1,120,2|2,0:0|0:0,0:0:0:0:
273,129,36723,2,0,L|232:140,2,30,10|2|2,0:0|0:0|0:0,0:0:0:0:
355,108,37131,5,4,0:0:0:0:
432,247,37550,2,0,L|355:256,1,60,8|0,0:0|0:0,0:0:0:0:
346,333,37970,2,0,L|405:326,1,60,4|0,0:0|0:0,0:0:0:0:
495,316,38389,1,8,0:0:0:0:
432,247,38594,1,0,0:0:0:0:
427,159,38799,6,0,P|434:129|459:100,1,60,4|0,0:0|0:0,0:0:0:0:
367,71,39215,2,0,P|361:100|343:124,1,60,8|0,0:0|0:0,0:0:0:0:
285,185,39628,2,0,P|308:202|338:209,2,60,0|0|8,0:0|0:0|0:0,0:0:0:0:
217,134,40249,5,0,0:0:0:0:
148,84,40456,2,0,P|115:82|72:97,1,60
32,148,40881,2,0,L|35:208,1,60,8|0,0:0|0:0,0:0:0:0:
60,288,41291,2,0,P|115:315|175:317,1,120,0|8,0:0|0:0,0:0:0:0:
257,313,41908,6,0,L|246:245,1,60,2|2,0:0|0:0,0:0:0:0:
345,213,42319,2,0,L|335:272,1,60,2|8,0:0|0:0,0:0:0:0:
329,356,42730,2,0,P|368:350|400:321,2,60,0|2|0,0:0|0:0|0:0,0:0:0:0:
245,350,43346,2,0,L|178:341,1,60,10|0,0:0|0:0,0:0:0:0:
101,334,43757,5,0,0:0:0:0:
151,266,43959,1,0,0:0:0:0:
93,204,44162,2,0,B|85:173|85:173|90:145,1,60,8|0,0:0|0:0,0:0:0:0:
129,70,44567,2,0,P|161:106|166:180,1,120,0|8,0:0|0:0,0:0:0:0:
151,266,45183,6,0,P|208:263|230:252,1,60,2|2,0:0|0:0,0:0:0:0:
282,219,45594,2,0,P|311:212|341:215,1,60,2|8,0:0|0:0,0:0:0:0:
423,229,45999,1,0,0:0:0:0:
394,149,46199,2,0,B|376:120|376:120|370:89,1,60,2|0,0:0|0:0,0:0:0:0:
427,35,46612,2,0,B|445:64|445:64|451:95,1,60,10|0,0:0|0:0,0:0:0:0:
394,149,47026,5,0,0:0:0:0:
423,229,47233,1,0,0:0:0:0:
504,216,47440,2,0,P|496:187|477:165,1,60,8|0,0:0|0:0,0:0:0:0:
394,149,47854,2,0,B|304:158|304:158|255:148,1,120,0|8,0:0|0:0,0:0:0:0:
191,139,48456,6,0,L|203:80,1,60,2|2,0:0|0:0,0:0:0:0:
275,152,48862,2,0,L|262:210,1,60,2|8,0:0|0:0,0:0:0:0:
245,293,49267,1,0,0:0:0:0:
319,338,49470,2,0,P|351:338|386:320,1,60,2|0,0:0|0:0,0:0:0:0:
452,290,49875,5,10,0:0:0:0:
381,244,50078,1,0,0:0:0:0:
456,206,50281,2,0,P|487:214|511:231,2,60,0|0|8,0:0|0:0|0:0,0:0:0:0:
381,244,50901,1,0,0:0:0:0:
298,262,51108,2,0,P|234:253|187:213,1,120,0|8,0:0|0:0,0:0:0:0:
166,138,51722,6,0,L|173:71,1,60,2|2,0:0|0:0,0:0:0:0:
86,28,52124,2,0,L|92:87,1,60,2|8,0:0|0:0,0:0:0:0:
84,173,52523,2,0,L|48:191,2,30,0|0|10,0:0|0:0|0:0,0:0:0:0:
166,138,52925,1,0,0:0:0:0:
92,88,53132,1,10,0:0:0:0:
256,325,53546,6,0,L|191:334,1,60,4|0,0:0|0:0,0:0:0:0:
225,251,53959,2,0,L|284:242,1,60,8|0,0:0|0:0,0:0:0:0:
368,236,54373,1,0,0:0:0:0:
334,312,54580,1,0,0:0:0:0:
285,242,54787,2,0,P|286:212|300:184,1,60,8|0,0:0|0:0,0:0:0:0:
367,136,55201,6,0,P|319:103|261:111,1,120,0|10,0:0|0:0,0:0:0:0:
192,160,55821,2,0,P|177:129|179:95,2,60,2|0|0,0:0|0:0|0:0,0:0:0:0:
229,235,56442,2,0,P|227:264|213:291,1,60,10|2,0:0|0:0,0:0:0:0:
197,374,56856,6,0,L|264:372,1,60,4|0,0:0|0:0,0:0:0:0:
340,370,57275,1,8,0:0:0:0:
299,291,57485,1,0,0:0:0:0:
213,291,57695,2,0,L|153:292,1,60
69,293,58120,1,8,0:0:0:0:
110,365,58326,1,0,0:0:0:0:
153,292,58533,6,0,P|141:251|125:227,2,60,0|2|10,0:0|0:0|0:0,0:0:0:0:
194,365,59154,2,0,B|283:354|283:354|314:332,1,120,2|0,0:0|0:0,0:0:0:0:
367,277,59775,1,10,0:0:0:0:
265,143,60188,6,0,L|195:136,1,60,4|0,0:0|0:0,0:0:0:0:
256,59,60604,2,0,L|315:53,1,60,8|0,0:0|0:0,0:0:0:0:
400,50,61021,2,0,P|393:19|374:-8,2,60,0|0|8,0:0|0:0|0:0,0:0:0:0:
377,133,61646,6,0,P|368:171|301:219,1,120
210,218,62284,1,10,0:0:0:0:
210,218,62497,2,0,P|160:188|140:133,1,120,2|0,0:0|0:0,0:0:0:0:
149,42,63117,1,8,0:0:0:0:
295,98,63531,6,0,L|306:156,1,60,4|0,0:0|0:0,0:0:0:0:
324,239,63944,2,0,P|357:226|377:200,2,60,8|0|0,0:0|0:0|0:0,0:0:0:0:
239,235,64565,1,0,0:0:0:0:
277,309,64772,1,8,0:0:0:0:
324,239,64979,1,0,0:0:0:0:
286,165,65186,5,4,0:0:0:0:
119,147,65608,1,8,0:0:0:0:
171,308,66021,1,4,0:0:0:0:
340,308,66435,2,0,L|362:246,1,60,8|0,0:0|0:0,0:0:0:0:
392,147,66849,5,4,0:0:0:0:
256,48,67259,1,8,0:0:0:0:
256,309,67670,1,4,0:0:0:0:
119,209,68081,1,8,0:0:0:0:
171,48,68492,5,4,0:0:0:0:
340,48,68903,1,8,0:0:0:0:
392,209,69314,1,4,0:0:0:0:
256,309,69725,2,0,L|256:243,1,60,8|0,0:0|0:0,0:0:0:0:
256,153,70141,5,4,0:0:0:0:
335,15,70551,1,8,0:0:0:0:
166,16,70962,2,0,L|214:86,1,60,4|0,0:0|0:0,0:0:0:0:
256,153,71373,1,8,0:0:0:0:
162,273,71784,5,4,0:0:0:0:
350,273,72195,1,8,0:0:0:0:
350,111,72606,1,4,0:0:0:0:
162,111,73014,2,0,L|207:169,1,60,8|0,0:0|0:0,0:0:0:0:
256,234,73422,5,4,0:0:0:0:
375,72,73832,1,8,0:0:0:0:
136,311,74243,1,4,0:0:0:0:
424,191,74654,1,8,0:0:0:0:
87,192,75065,5,4,0:0:0:0:
375,311,75476,1,8,0:0:0:0:
136,72,75887,1,4,0:0:0:0:
256,360,76298,2,0,L|255:286,1,60,8|0,0:0|0:0,0:0:0:0:
256,192,76709,5,4,0:0:0:0:
256,192,76914,12,4,80099,0:0:0:0:
83,99,87083,6,0,L|100:156,1,60,4|0,3:0|3:0,3:0:0:0:
178,125,87477,2,0,L|182:192,1,60,8|0,3:0|3:0,3:0:0:0:
262,160,87872,2,0,L|257:221,1,60,4|0,3:0|3:0,3:0:0:0:
340,210,88285,2,0,L|323:275,1,60,8|0,3:0|3:0,3:0:0:0:
267,353,88682,6,0,L|250:296,1,60,4|0,3:0|3:0,3:0:0:0:
172,327,89095,2,0,L|168:260,1,60,8|0,3:0|3:0,3:0:0:0:
88,292,89509,2,0,L|93:231,1,60,4|0,3:0|3:0,3:0:0:0:
12,242,89923,2,0,L|29:177,1,60,8|0,3:0|3:0,3:0:0:0:
52,97,90317,5,4,3:1:0:0:
131,71,90518,2,0,L|121:39,2,30,0|0|8,3:0|3:0|3:0,3:0:0:0:
124,154,90921,2,0,L|100:178,2,30,0|0|4,3:0|3:0|3:0,3:0:0:0:
200,118,91326,2,0,L|248:123,2,30,0|0|8,3:0|3:0|3:0,3:0:0:0:
131,71,91734,1,0,3:0:0:0:
207,35,91938,5,4,3:1:0:0:
289,48,92142,2,0,L|339:55,2,30,0|0|8,3:0|3:0|3:0,3:0:0:0:
317,127,92550,2,0,L|367:134,2,30,0|0|4,3:0|3:0|3:0,3:0:0:0:
345,206,92958,2,0,L|395:213,2,30,0|0|8,3:0|3:0|3:0,3:0:0:0:
262,191,93366,1,0,3:0:0:0:
287,277,93570,6,0,L|362:291,1,60,4|0,0:0|0:0,0:0:0:0:
427,306,93980,1,8,0:0:0:0:
371,368,94186,1,0,0:0:0:0:
346,288,94391,2,0,P|363:250|442:223,1,120,2|8,0:0|0:0,0:0:0:0:
458,141,95008,2,0,L|394:135,1,60,2|0,0:0|0:0,0:0:0:0:
337,61,95419,2,0,L|401:55,1,60,2|8,0:0|0:0,0:0:0:0:
480,47,95830,1,0,0:0:0:0:
458,141,96035,2,0,B|489:153|489:153|520:186,2,60,2|2|8,0:0|0:0|0:0,0:0:0:0:
374,133,96664,1,0,0:0:0:0:
289,130,96874,6,0,P|305:180|377:220,1,120,4|8,0:0|0:0,0:0:0:0:
440,236,97490,1,0,0:0:0:0:
380,295,97695,2,0,B|295:303|295:303|266:322,1,120,2|8,0:0|0:0,0:0:0:0:
198,372,98312,2,0,P|184:342|182:309,1,60,2|0,0:0|0:0,0:0:0:0:
249,265,98723,2,0,P|263:295|265:328,1,60,2|8,0:0|0:0,0:0:0:0:
181,315,99134,2,0,P|167:285|165:252,1,60,2|0,0:0|0:0,0:0:0:0:
232,208,99545,2,0,P|246:238|248:271,1,60,2|8,0:0|0:0,0:0:0:0:
164,258,99951,1,0,0:0:0:0:
156,174,100152,6,0,P|195:135|280:138,1,120,4|8,0:0|0:0,0:0:0:0:
339,146,100764,1,0,0:0:0:0:
317,65,100968,2,0,B|226:46|226:46|201:26,1,120,2|8,0:0|0:0,0:0:0:0:
121,20,101580,2,0,L|128:88,1,60,2|0,0:0|0:0,0:0:0:0:
53,121,101988,2,0,L|46:61,1,60,2|8,0:0|0:0,0:0:0:0:
127,80,102396,2,0,L|134:148,1,60,2|0,0:0|0:0,0:0:0:0:
60,181,102805,2,0,L|53:121,1,60,2|8,0:0|0:0,0:0:0:0:
133,140,103213,1,0,0:0:0:0:
135,223,103417,6,0,P|90:262|26:259,1,120,4|8,0:0|0:0,0:0:0:0:
59,180,104029,1,0,0:0:0:0:
133,138,104233,2,0,B|221:151|221:151|250:169,1,120,2|8,0:0|0:0,0:0:0:0:
304,229,104845,2,0,B|339:229|339:229|365:215,1,60,2|0,0:0|0:0,0:0:0:0:
382,135,105254,2,0,B|347:135|347:135|321:149,1,60,2|8,0:0|0:0,0:0:0:0:
361,217,105662,2,0,B|396:217|396:217|422:203,1,60,2|0,0:0|0:0,0:0:0:0:
463,135,106070,2,0,B|457:104|457:104|430:64,1,60,2|10,0:0|0:0,0:0:0:0:
382,135,106470,1,2,0:0:0:0:
418,205,106666,5,4,0:0:0:0:
278,288,107058,1,8,0:0:0:0:
437,339,107468,2,0,B|463:351|463:351|489:377,2,60,2|0|8,0:0|0:0|0:0,0:0:0:0:
359,307,108076,6,0,L|295:324,1,60,0|2,0:0|0:0,0:0:0:0:
219,342,108481,1,0,0:0:0:0:
187,184,108890,1,0,0:0:0:0:
187,184,109097,2,0,P|196:212|214:236,1,60,2|0,0:0|0:0,0:0:0:0:
294,237,109505,2,0,P|316:205|323:177,1,60,8|0,0:0|0:0,0:0:0:0:
329,104,109913,5,2,0:0:0:0:
491,61,110315,1,8,0:0:0:0:
443,216,110728,2,0,L|460:277,2,60,2|0|8,0:0|0:0|0:0,0:0:0:0:
421,134,111342,6,0,P|393:146|370:174,1,60,0|2,0:0|0:0,0:0:0:0:
325,237,111742,1,0,0:0:0:0:
466,328,112148,1,0,0:0:0:0:
380,344,112355,2,0,B|347:348|347:348|313:342,1,60,2|0,0:0|0:0,0:0:0:0:
242,311,112769,2,0,B|215:306|215:306|182:310,1,60,8|0,0:0|0:0,0:0:0:0:
99,324,113161,5,2,0:0:0:0:
211,199,113569,1,8,0:0:0:0:
82,90,113977,2,0,B|58:106|58:106|36:135,2,60,2|0|8,0:0|0:0|0:0,0:0:0:0:
159,58,114582,6,0,L|220:71,1,60,0|2,0:0|0:0,0:0:0:0:
299,89,114988,1,0,0:0:0:0:
408,216,115400,2,0,L|471:197,2,60,0|2|0,0:0|0:0|0:0,0:0:0:0:
326,236,116008,2,0,B|296:244|296:244|261:241,1,60,8|0,0:0|0:0,0:0:0:0:
184,222,116416,5,2,0:0:0:0:
268,70,116824,1,8,0:0:0:0:
103,101,117232,2,0,B|74:92|74:92|49:68,2,60,2|0|8,0:0|0:0|0:0,0:0:0:0:
186,103,117842,5,0,0:0:0:0:
186,103,118045,2,0,L|164:178,1,60,2|0,0:0|0:0,0:0:0:0:
112,223,118450,2,0,L|134:298,1,60,8|0,0:0|0:0,0:0:0:0:
153,358,118856,1,2,0:0:0:0:
153,358,119058,1,0,0:0:0:0:
211,297,119261,1,8,0:0:0:0:
211,297,119464,1,0,0:0:0:0:
128,280,119667,6,0,P|102:293|81:324,1,60,2|0,0:0|0:0,0:0:0:0:
120,196,120080,2,0,P|88:204|65:222,1,60,8|0,0:0|0:0,0:0:0:0:
157,118,120494,2,0,P|123:110|92:115,1,60,2|0,0:0|0:0,0:0:0:0:
225,62,120908,2,0,P|196:42|163:31,1,60,8|0,0:0|0:0,0:0:0:0:
249,133,121322,6,0,P|275:120|296:89,1,60,2|0,0:0|0:0,0:0:0:0:
257,217,121735,2,0,P|289:209|312:191,1,60,8|0,0:0|0:0,0:0:0:0:
220,295,122143,2,0,P|254:303|285:298,1,60,2|0,0:0|0:0,0:0:0:0:
152,351,122551,2,0,P|181:371|214:382,1,60,8|0,0:0|0:0,0:0:0:0:
75,312,122959,6,0,L|55:370,1,60,2|0,0:0|0:0,0:0:0:0:
158,291,123364,2,0,L|150:360,1,60,8|0,0:0|0:0,0:0:0:0:
243,260,123769,2,0,L|248:329,1,60,2|0,0:0|0:0,0:0:0:0:
323,220,124175,2,0,L|337:280,1,60,8|0,0:0|0:0,0:0:0:0:
406,199,124580,6,0,L|426:141,1,60,2|0,0:0|0:0,0:0:0:0:
323,220,124986,2,0,L|331:151,1,60,8|0,0:0|0:0,0:0:0:0:
238,251,125391,2,0,L|233:182,1,60,2|0,0:0|0:0,0:0:0:0:
158,291,125801,2,0,L|144:231,1,60,8|0,0:0|0:0,0:0:0:0:
130,153,126212,5,8,0:3:0:0:
140,70,126416,2,0,L|103:43,2,30,0|8|4,0:0|0:3|0:3,0:0:0:0:
209,118,126824,1,8,0:3:0:0:
252,189,127028,2,0,L|225:229,2,30,0|8|4,0:0|0:3|0:3,0:0:0:0:
296,114,127425,5,8,0:3:0:0:
350,52,127626,1,0,0:0:0:0:
350,52,127724,1,8,3:3:0:0:
350,52,127822,1,4,3:3:0:0:
374,128,128028,1,8,0:3:0:0:
454,152,128224,2,0,L|487:124,2,30,0|8|4,0:0|0:3|0:3,0:0:0:0:
393,205,128628,5,4,0:3:0:0:
255,301,129075,1,8,0:0:0:0:
119,205,129485,1,4,0:0:0:0:
