osu file format v14

[General]
AudioFilename: Wonderland of snow.mp3
AudioLeadIn: 0
PreviewTime: 11412
Countdown: 0
SampleSet: None
StackLeniency: 0.7
Mode: 2
LetterboxInBreaks: 0
WidescreenStoryboard: 1

[Editor]
Bookmarks: 61645,83505,112459,128622,129552,30163
DistanceSpacing: 0.8
BeatDivisor: 4
GridSize: 8
TimelineZoom: 2.6

[Metadata]
Title:Spongebob Soundtracks Part III
TitleUnicode:Spongebob Soundtracks Part III
Artist:Stephen Hillenburg
ArtistUnicode:Stephen Hillenburg
Creator:_wwwww
Version:Wonderland of snow
Source:
Tags:
BeatmapID:2008741
BeatmapSetID:959465

[Difficulty]
HPDrainRate:7
CircleSize:4.6
OverallDifficulty:7
ApproachRate:9.2
SliderMultiplier:1.8
SliderTickRate:1

[Events]
//Background and Video events
0,0,"046a - Snowball Effect (021).jpg",0,0
//Break Periods
//Storyboard Layer 0 (Background)
//Storyboard Layer 1 (Fail)
//Storyboard Layer 2 (Pass)
//Storyboard Layer 3 (Foreground)
//Storyboard Sound Samples

[TimingPoints]
250,465.116279069767,4,2,0,5,1,0

[HitObjects]
160,160,250,6,0,L|171:275,1,90
344,256,715,2,0,L|360:160,1,90
192,96,1180,2,0,L|80:96,1,90
268,167,1645,2,0,L|364:167,1,90
56,320,2110,5,0,0:0:0:0:
224,320,2343,1,0,0:0:0:0:
56,320,2575,1,0,0:0:0:0:
432,192,3040,1,0,0:0:0:0:
264,192,3273,1,0,0:0:0:0:
432,192,3505,2,0,L|440:296,1,90
144,192,3970,6,0,L|32:192,1,90
232,96,4436,2,0,L|360:96,1,90
152,192,4901,2,0,L|144:288,1,90
368,288,5366,2,0,L|352:184,1,90
56,96,5831,5,0,0:0:0:0:
224,96,6063,1,0,0:0:0:0:
392,96,6296,1,0,0:0:0:0:
208,192,6761,6,0,L|328:192,1,90
120,296,7226,2,0,L|8:296,1,90
456,96,7691,5,0,0:0:0:0:
288,96,7923,1,0,0:0:0:0:
120,96,8156,1,0,0:0:0:0:
448,256,8622,6,0,L|328:256,1,90
160,256,9087,2,0,L|264:256,1,90
448,256,9552,1,0,0:0:0:0:
280,256,9784,1,0,0:0:0:0:
448,256,10017,1,0,0:0:0:0:
72,128,10482,5,0,0:0:0:0:
184,160,10715,1,0,0:0:0:0:
72,128,10947,1,0,0:0:0:0:
312,160,11412,6,0,L|416:160,1,90
216,264,11877,2,0,L|96:264,1,90
359,283,12343,1,0,0:0:0:0:
216,264,12575,1,0,0:0:0:0:
359,283,12808,1,0,0:0:0:0:
216,264,13040,1,0,0:0:0:0:
512,64,13273,6,0,L|384:64,1,90
224,64,13738,2,0,L|216:192,1,90
408,64,14203,2,0,L|498:64,1,90
304,192,14668,2,0,L|424:192,1,90
176,192,15133,1,0,0:0:0:0:
176,192,15366,1,0,0:0:0:0:
376,216,15598,1,0,0:0:0:0:
136,312,16063,6,0,L|128:200,1,90
312,192,16529,2,0,L|424:192,1,90
104,96,16994,1,0,0:0:0:0:
272,96,17226,1,0,0:0:0:0:
440,96,17459,1,0,0:0:0:0:
217,268,17924,5,0,0:0:0:0:
74,247,18156,1,0,0:0:0:0:
217,268,18389,1,0,0:0:0:0:
74,247,18622,1,0,0:0:0:0:
408,96,18854,5,0,0:0:0:0:
240,96,19086,1,0,0:0:0:0:
72,96,19319,1,0,0:0:0:0:
286,208,19784,2,0,L|380:208,1,90
208,272,20249,2,0,L|87:272,1,90
336,192,20715,1,0,0:0:0:0:
336,192,20948,1,0,0:0:0:0:
136,216,21180,1,0,0:0:0:0:
320,288,21645,6,0,L|328:192,1,90
160,200,22110,2,0,L|152:96,1,90
480,296,22575,1,0,0:0:0:0:
280,296,22808,1,0,0:0:0:0:
480,296,23040,1,0,0:0:0:0:
256,200,23505,5,0,0:0:0:0:
200,152,23738,1,0,0:0:0:0:
312,152,23970,1,0,0:0:0:0:
112,264,24203,1,0,0:0:0:0:
408,264,24436,1,0,0:0:0:0:
256,48,24784,1,0,0:0:0:0:
112,264,25133,5,0,0:0:0:0:
256,232,25366,1,0,0:0:0:0:
88,160,25598,1,0,0:0:0:0:
408,168,25831,1,0,0:0:0:0:
48,48,26063,1,0,0:0:0:0:
256,200,26296,5,0,0:0:0:0:
88,160,26529,1,0,0:0:0:0:
256,200,26761,1,0,0:0:0:0:
448,272,27226,6,0,L|344:272,1,90
176,272,27691,2,0,L|280:272,1,90
96,176,28156,1,0,0:0:0:0:
328,176,28389,1,0,0:0:0:0:
184,56,28854,5,0,0:0:0:0:
328,176,29087,1,0,0:0:0:0:
160,232,29319,1,0,0:0:0:0:
352,40,29552,1,0,0:0:0:0:
136,112,29784,1,0,0:0:0:0:
280,232,30017,6,0,L|384:232,1,90
144,320,30482,2,0,L|136:224,1,90
344,160,30947,2,0,L|240:160,1,90
464,160,31412,2,0,L|472:64,1,90
264,56,31877,5,0,0:0:0:0:
40,56,32110,1,0,0:0:0:0:
224,168,32575,1,0,0:0:0:0:
432,168,32808,1,0,0:0:0:0:
224,168,33040,1,0,0:0:0:0:
88,296,33505,1,0,0:0:0:0:
288,296,33738,2,0,L|400:296,1,90
88,296,34203,6,0,L|80:200,1,90
288,160,34668,2,0,L|184:160,1,90
408,88,35133,2,0,L|304:88,1,90
96,184,35598,5,0,0:0:0:0:
320,208,35831,1,0,0:0:0:0:
96,184,36063,1,0,0:0:0:0:
392,304,36529,2,0,L|400:184,1,90
216,224,36994,2,0,L|224:96,1,90
424,88,37459,5,0,0:0:0:0:
224,88,37808,1,0,0:0:0:0:
424,88,38156,1,0,0:0:0:0:
120,184,38389,5,0,0:0:0:0:
304,192,38622,1,0,0:0:0:0:
496,200,38854,1,0,0:0:0:0:
120,184,39087,1,0,0:0:0:0:
304,192,39319,6,0,L|296:296,1,90
96,296,39784,1,0,0:0:0:0:
280,192,40249,2,0,L|240:80,1,90
456,88,40715,1,0,0:0:0:0:
240,104,41180,5,0,0:0:0:0:
456,88,41412,1,0,0:0:0:0:
288,240,41877,1,0,0:0:0:0:
96,256,42110,1,0,0:0:0:0:
288,240,42343,1,0,0:0:0:0:
64,128,42575,1,0,0:0:0:0:
288,240,42808,1,0,0:0:0:0:
88,336,43040,6,0,L|200:336,1,90
400,336,43505,2,0,L|512:336,1,90
296,264,43970,2,0,L|288:144,1,90
160,152,44436,1,0,0:0:0:0:
384,176,44668,1,0,0:0:0:0:
64,272,44901,5,0,0:0:0:0:
240,256,45133,1,0,0:0:0:0:
64,272,45366,2,0,L|176:272,1,90
328,272,45831,2,0,L|224:272,1,90
112,272,46296,1,0,0:0:0:0:
328,272,46529,1,0,0:0:0:0:
32,72,46761,5,0,0:0:0:0:
272,72,47110,1,0,0:0:0:0:
96,176,47459,1,0,0:0:0:0:
296,72,47691,1,0,0:0:0:0:
512,280,48040,5,0,0:0:0:0:
352,280,48389,1,0,0:0:0:0:
56,280,48622,1,0,0:0:0:0:
416,112,49087,5,0,0:0:0:0:
248,152,49319,1,0,0:0:0:0:
80,192,49552,1,0,0:0:0:0:
416,280,50017,5,0,0:0:0:0:
80,192,50249,1,0,0:0:0:0:
256,144,50482,1,0,0:0:0:0:
80,192,50715,1,0,0:0:0:0:
288,320,50947,6,0,L|400:320,1,90
176,320,51412,2,0,L|80:320,1,90
288,320,51877,2,0,L|384:320,1,90
48,56,52343,5,0,0:0:0:0:
376,56,52575,1,0,0:0:0:0:
48,56,52808,1,0,0:0:0:0:
440,192,53273,5,0,0:0:0:0:
208,192,53505,1,0,0:0:0:0:
352,264,53738,1,0,0:0:0:0:
208,192,53970,1,0,0:0:0:0:
408,264,54203,6,0,L|416:136,1,90
224,96,54668,2,0,L|120:96,1,90
336,96,55133,2,0,L|432:96,1,90
224,96,55598,2,0,L|352:96,1,90
80,336,56063,5,0,0:0:0:0:
392,336,56295,1,0,0:0:0:0:
80,336,56528,1,0,0:0:0:0:
232,272,56994,2,0,L|240:152,1,90
392,200,57459,2,0,L|384:88,1,90
160,96,57924,5,0,0:0:0:0:
472,88,58156,1,0,0:0:0:0:
160,96,58389,1,0,0:0:0:0:
392,232,58854,5,0,0:0:0:0:
48,232,59087,1,0,0:0:0:0:
176,296,59319,1,0,0:0:0:0:
392,232,59552,1,0,0:0:0:0:
176,296,59784,5,0,0:0:0:0:
480,296,60017,1,0,0:0:0:0:
296,296,60249,1,0,0:0:0:0:
112,48,60715,2,0,L|104:160,1,90
280,192,61180,2,0,L|400:192,1,90
176,280,61645,6,0,L|168:160,1,90
352,280,62110,2,0,L|360:184,1,90
208,96,62575,2,0,L|336:96,1,90
128,240,63040,2,0,L|240:240,1,90
416,144,63505,5,0,0:0:0:0:
224,144,63738,1,0,0:0:0:0:
416,144,63970,1,0,0:0:0:0:
176,288,64436,1,0,0:0:0:0:
360,288,64668,1,0,0:0:0:0:
176,288,64901,2,0,L|72:288,1,90
272,288,65366,2,0,L|392:288,1,90
152,216,65831,6,0,L|144:112,1,90
328,88,66296,2,0,L|456:88,1,90
232,88,66761,2,0,L|112:88,1,90
472,192,67226,5,0,0:0:0:0:
312,192,67459,1,0,0:0:0:0:
152,192,67691,1,0,0:0:0:0:
384,320,68156,6,0,L|392:208,1,90
224,208,68622,2,0,L|112:208,1,90
440,72,69087,5,0,0:0:0:0:
144,72,69319,1,0,0:0:0:0:
440,72,69552,1,0,0:0:0:0:
128,232,70017,5,0,0:0:0:0:
432,232,70249,1,0,0:0:0:0:
208,288,70482,1,0,0:0:0:0:
432,232,70715,1,0,0:0:0:0:
72,72,70947,5,0,0:0:0:0:
392,72,71179,1,0,0:0:0:0:
72,72,71412,1,0,0:0:0:0:
280,184,71877,2,0,L|168:184,1,90
368,296,72343,2,0,L|496:296,1,90
128,296,72808,6,0,L|8:296,1,90
232,296,73273,2,0,L|240:176,1,90
56,128,73738,2,0,L|160:128,1,90
336,128,74203,2,0,L|456:128,1,90
280,232,74668,5,0,0:0:0:0:
64,232,74901,1,0,0:0:0:0:
320,320,75366,2,0,L|328:264,1,45
184,256,75598,2,0,L|176:200,1,45
360,208,75831,2,0,L|376:152,1,45
120,152,76063,2,0,L|96:80,1,45
376,72,76296,1,0,0:0:0:0:
192,72,76529,6,0,L|88:72,1,90
328,72,76994,2,0,L|336:200,1,90
160,216,77459,2,0,L|48:216,1,90
272,216,77924,2,0,L|368:216,1,90
72,296,78389,5,0,0:0:0:0:
256,296,78622,1,0,0:0:0:0:
48,296,79087,1,0,0:0:0:0:
256,296,79319,2,0,L|264:240,1,45
480,240,79552,2,0,L|464:176,1,45
264,176,79784,2,0,L|256:128,1,45
24,80,80017,1,0,0:0:0:0:
208,80,80249,6,0,L|312:80,1,90
488,152,80715,2,0,L|384:152,1,90
192,232,81180,2,0,L|80:232,1,90
296,304,81645,2,0,L|408:304,1,90
152,120,82110,5,0,0:0:0:0:
352,120,82343,1,0,0:0:0:0:
256,288,82808,1,0,0:0:0:0:
40,288,83040,1,0,0:0:0:0:
256,288,83273,1,0,0:0:0:0:
496,288,83738,5,0,0:0:0:0:
288,288,83970,1,0,0:0:0:0:
88,288,84203,1,0,0:0:0:0:
496,288,84436,1,0,0:0:0:0:
280,200,84901,6,0,L|272:80,1,90
456,200,85366,2,0,L|464:80,1,90
96,168,85831,1,0,0:0:0:0:
280,200,86063,1,0,0:0:0:0:
96,168,86296,1,0,0:0:0:0:
304,72,86761,6,0,L|416:72,1,90
208,72,87226,2,0,L|112:72,1,90
472,192,87691,1,0,0:0:0:0:
280,192,87924,1,0,0:0:0:0:
72,192,88389,1,0,0:0:0:0:
288,296,88622,6,0,L|360:296,1,45
192,296,88854,2,0,L|128:296,1,45
376,192,89087,2,0,L|296:192,1,45
72,192,89319,1,0,0:0:0:0:
256,64,89552,5,0,0:0:0:0:
464,64,89784,1,0,0:0:0:0:
288,64,90017,1,0,0:0:0:0:
80,64,90482,6,0,L|208:64,1,90
336,152,90947,2,0,L|232:152,1,90
72,264,91412,1,0,0:0:0:0:
240,264,91645,1,0,0:0:0:0:
432,264,92110,5,0,0:0:0:0:
280,144,92343,1,0,0:0:0:0:
448,48,92575,1,0,0:0:0:0:
216,48,92808,1,0,0:0:0:0:
512,336,93040,1,0,0:0:0:0:
280,336,93273,6,0,L|184:336,1,90
392,336,93738,2,0,L|400:240,1,90
224,216,94203,2,0,L|336:216,1,90
144,112,94668,2,0,L|256:112,1,90
384,112,95133,5,0,0:0:0:0:
192,144,95366,1,0,0:0:0:0:
384,112,95598,1,0,0:0:0:0:
248,280,96063,6,0,L|136:280,1,90
312,224,96529,2,0,L|416:224,1,90
104,128,96994,1,0,0:0:0:0:
256,128,97226,1,0,0:0:0:0:
480,264,97691,1,0,0:0:0:0:
304,264,97924,1,0,0:0:0:0:
136,264,98156,1,0,0:0:0:0:
344,264,98622,5,0,0:0:0:0:
56,112,98854,1,0,0:0:0:0:
256,112,99319,1,0,0:0:0:0:
472,112,99552,1,0,0:0:0:0:
256,112,99784,1,0,0:0:0:0:
448,280,100249,1,0,0:0:0:0:
144,280,100482,1,0,0:0:0:0:
328,192,100715,5,0,0:0:0:0:
112,192,100947,1,0,0:0:0:0:
328,192,101180,1,0,0:0:0:0:
152,48,101645,2,0,L|272:48,1,90
424,48,102110,2,0,L|320:48,1,90
104,144,102575,5,0,0:0:0:0:
192,232,102808,1,0,0:0:0:0:
104,312,103040,1,0,0:0:0:0:
336,312,103505,2,0,L|216:312,1,90
440,312,103970,2,0,L|448:216,1,90
96,184,104436,5,0,0:0:0:0:
312,184,104668,1,0,0:0:0:0:
96,184,104901,1,0,0:0:0:0:
288,272,105366,2,0,L|384:272,1,90
198,272,105831,2,0,L|302:272,1,90
112,88,106296,5,0,0:0:0:0:
272,88,106529,1,0,0:0:0:0:
424,88,106761,1,0,0:0:0:0:
304,168,107226,2,0,L|296:280,1,90
120,264,107691,2,0,L|-8:264,1,90
480,272,108156,5,0,0:0:0:0:
112,160,108389,1,0,0:0:0:0:
480,72,108622,1,0,0:0:0:0:
208,72,109087,5,0,0:0:0:0:
512,184,109319,1,0,0:0:0:0:
368,224,109552,1,0,0:0:0:0:
32,160,109784,1,0,0:0:0:0:
168,208,110017,5,0,0:0:0:0:
496,288,110249,1,0,0:0:0:0:
168,208,110482,1,0,0:0:0:0:
392,48,110947,6,0,L|408:152,1,90
248,136,111412,2,0,L|144:136,1,90
400,224,111877,1,0,0:0:0:0:
216,248,112110,1,0,0:0:0:0:
400,224,112343,1,0,0:0:0:0:
136,248,112808,6,0,L|128:144,1,90
296,176,113273,2,0,L|304:72,1,90
80,304,113738,1,0,0:0:0:0:
248,304,113970,1,0,0:0:0:0:
408,304,114203,1,0,0:0:0:0:
208,192,114668,6,0,L|328:192,1,90
128,192,115133,2,0,L|120:296,1,90
352,304,115598,1,0,0:0:0:0:
184,304,115830,1,0,0:0:0:0:
8,304,116063,1,0,0:0:0:0:
346,192,116529,6,0,L|256:192,1,90
88,104,116994,2,0,L|208:104,1,90
400,104,117459,1,0,0:0:0:0:
200,104,117691,1,0,0:0:0:0:
400,104,117924,1,0,0:0:0:0:
144,192,118389,6,0,L|40:192,1,90
232,256,118854,2,0,L|352:256,1,90
24,328,119319,1,0,0:0:0:0:
488,336,119552,1,0,0:0:0:0:
24,328,119784,1,0,0:0:0:0:
432,336,120249,5,0,0:0:0:0:
136,328,120482,1,0,0:0:0:0:
320,240,120715,1,0,0:0:0:0:
16,232,120947,1,0,0:0:0:0:
464,136,121180,1,0,0:0:0:0:
48,136,121412,1,0,0:0:0:0:
216,240,121645,1,0,0:0:0:0:
400,184,122110,6,0,L|304:184,1,90
136,184,122575,2,0,L|240:184,1,90
432,304,123040,1,0,0:0:0:0:
240,304,123273,1,0,0:0:0:0:
432,304,123505,1,0,0:0:0:0:
104,304,123970,5,0,0:0:0:0:
288,304,124203,1,0,0:0:0:0:
104,304,124436,1,0,0:0:0:0:
472,64,124668,1,0,0:0:0:0:
304,64,124901,1,0,0:0:0:0:
472,64,125133,1,0,0:0:0:0:
232,64,125366,6,0,L|128:64,1,90
320,160,125831,2,0,L|448:160,1,90
232,240,126296,2,0,L|112:240,1,90
336,320,126761,1,0,0:0:0:0:
8,320,126994,1,0,0:0:0:0:
232,240,127226,6,0,L|352:240,1,90
144,176,127691,2,0,L|24:176,1,90
232,128,128156,1,0,0:0:0:0:
56,128,128389,1,0,0:0:0:0:
296,176,128622,1,0,0:0:0:0:
496,240,128651,1,0,0:0:0:0:
360,304,129058,1,0,0:0:0:0:
0,304,129087,1,0,0:0:0:0:
