osu file format v14

[General]
AudioFilename: Troop Movement.mp3
AudioLeadIn: 0
PreviewTime: 22061
Countdown: 3
SampleSet: None
StackLeniency: 0.7
Mode: 2
LetterboxInBreaks: 0
WidescreenStoryboard: 1

[Editor]
Bookmarks: 17697
DistanceSpacing: 0.8
BeatDivisor: 12
GridSize: 8
TimelineZoom: 2.799999

[Metadata]
Title:Spongebob Soundtracks Part III
TitleUnicode:Spongebob Soundtracks Part III
Artist:Stephen Hillenburg
ArtistUnicode:Stephen Hillenburg
Creator:_wwwww
Version:Troop movement
Source:
Tags:
BeatmapID:2008740
BeatmapSetID:959465

[Difficulty]
HPDrainRate:5
CircleSize:4
OverallDifficulty:6
ApproachRate:9.6
SliderMultiplier:2.1
SliderTickRate:1

[Events]
//Background and Video events
0,0,"hqdefault (7).jpg",0,0
//Break Periods
//Storyboard Layer 0 (Background)
//Storyboard Layer 1 (Fail)
//Storyboard Layer 2 (Pass)
//Storyboard Layer 3 (Foreground)
//Storyboard Sound Samples

[TimingPoints]
243,1090.90909090909,4,2,0,35,1,0
28645,1111.11111111111,4,2,0,35,1,0
28645,-50,4,2,0,35,0,0
37533,1132.07547169811,4,2,0,35,1,0
43193,-50,4,2,0,35,0,0
44325,-33.3333333333333,4,2,0,35,0,0
44608,-50,4,2,0,35,0,0
46589,1153.84615384615,4,2,0,35,1,0
46589,-40,4,2,0,35,0,0
51150,1153.84615384615,4,2,0,35,1,0
51150,-25,4,2,0,35,0,0
55765,1176.47058823529,4,2,0,35,1,0

[HitObjects]
176,192,17697,5,0,0:0:0:0:
368,112,17970,1,2,0:0:0:0:
304,112,18061,1,2,0:0:0:0:
240,112,18152,1,2,0:0:0:0:
176,112,18242,1,2,0:0:0:0:
432,296,18515,5,0,0:0:0:0:
200,296,18788,1,4,0:0:0:0:
392,296,19061,2,0,L|392:272,1,17.5
312,264,19242,2,0,L|312:232,1,17.5
400,240,19424,2,0,L|400:208,1,17.5
320,216,19606,2,0,L|320:184,1,17.5
408,184,19788,1,0,0:0:0:0:
96,184,19879,5,0,0:0:0:0:
272,184,20152,1,2,0:0:0:0:
208,152,20242,1,2,0:0:0:0:
208,88,20333,1,2,0:0:0:0:
272,56,20424,1,2,0:0:0:0:
96,56,20697,5,0,0:0:0:0:
320,56,20970,1,0,0:0:0:0:
184,144,21242,2,0,L|184:176,1,17.5
104,176,21424,2,0,L|104:208,1,17.5
208,208,21606,2,0,L|208:240,1,17.5
288,232,21788,2,0,L|288:264,1,17.5
208,208,21970,1,0,0:0:0:0:
448,208,22061,5,0,0:0:0:0:
256,96,22333,1,2,0:0:0:0:
320,96,22424,1,2,0:0:0:0:
384,96,22515,1,2,0:0:0:0:
448,96,22605,1,2,0:0:0:0:
256,296,22879,5,0,0:0:0:0:
48,296,23152,1,0,0:0:0:0:
256,296,23424,2,0,L|264:264,1,17.5
184,256,23606,2,0,L|176:224,1,17.5
272,224,23788,2,0,L|280:200,1,17.5
184,184,23970,2,0,L|176:160,1,17.5
272,224,24152,1,0,0:0:0:0:
480,224,24242,5,0,0:0:0:0:
296,48,24515,1,2,0:0:0:0:
376,56,24606,1,2,0:0:0:0:
296,48,24697,1,2,0:0:0:0:
376,56,24788,1,2,0:0:0:0:
160,152,25061,5,0,0:0:0:0:
352,152,25333,1,0,0:0:0:0:
216,304,25606,2,0,L|184:304,1,17.5
288,248,25788,2,0,L|264:248,1,17.5
344,304,25970,2,0,L|320:304,1,17.5
392,248,26152,2,0,L|360:248,1,17.5
288,248,26333,1,0,0:0:0:0:
48,248,26424,5,0,0:0:0:0:
256,96,26697,1,2,0:0:0:0:
320,96,26788,1,2,0:0:0:0:
368,96,26879,1,2,0:0:0:0:
400,96,26970,1,2,0:0:0:0:
216,184,27242,5,0,0:0:0:0:
448,184,27515,1,0,0:0:0:0:
256,192,27697,12,0,27879,0:0:0:0:
152,184,28061,5,0,0:0:0:0:
312,184,28515,1,0,0:0:0:0:
152,184,28645,2,0,P|184:296|248:176,1,315
72,184,29756,1,0,0:0:0:0:
256,96,30033,1,0,0:0:0:0:
200,96,30126,1,0,0:0:0:0:
144,96,30219,1,0,0:0:0:0:
352,184,30311,6,0,L|368:248,1,35
272,224,30496,2,0,L|264:272,1,35
360,184,30682,2,0,L|376:224,1,35
137,271,30867,2,0,P|82:262|162:102,1,315
328,112,31978,1,0,0:0:0:0:
184,192,32255,6,0,L|176:248,1,35
96,232,32440,2,0,L|88:272,1,35
232,256,32626,2,0,L|240:296,1,35
56,296,32811,2,0,L|48:344,1,35
224,280,32996,1,0,0:0:0:0:
408,256,33089,2,0,P|432:208|392:264,1,315
144,112,34200,1,0,0:0:0:0:
312,112,34478,5,0,0:0:0:0:
256,112,34570,1,0,0:0:0:0:
312,112,34663,1,0,0:0:0:0:
240,192,34756,2,0,L|232:232,1,35
328,216,34941,2,0,L|336:256,1,35
184,288,35126,2,0,L|144:288,1,35
384,288,35311,2,0,P|432:272|312:200,1,315
120,104,36422,1,0,0:0:0:0:
256,192,36607,12,0,36978,0:0:0:0:
208,192,37070,6,0,L|216:152,1,35
120,160,37256,2,0,L|112:120,1,35
208,192,37441,1,0,0:0:0:0:
352,192,37533,2,0,L|352:136,1,52.5
432,192,37910,1,0,0:0:0:0:
488,192,38005,1,0,0:0:0:0:
432,192,38099,1,0,0:0:0:0:
160,296,38382,6,0,L|160:240,1,52.5
296,296,38948,1,0,0:0:0:0:
224,296,39042,1,0,0:0:0:0:
152,296,39136,1,0,0:0:0:0:
240,248,39231,1,0,0:0:0:0:
328,200,39325,1,0,0:0:0:0:
240,248,39419,1,0,0:0:0:0:
152,296,39514,1,0,0:0:0:0:
224,296,39608,1,0,0:0:0:0:
296,296,39702,1,0,0:0:0:0:
64,192,39797,6,0,B|56:160|56:160|64:136,1,52.5
152,136,40174,1,0,0:0:0:0:
240,136,40268,1,0,0:0:0:0:
328,136,40363,1,0,0:0:0:0:
152,136,40646,2,0,L|152:192,1,52.5
336,216,41212,6,0,L|344:248,1,17.5
256,240,41400,2,0,L|248:264,1,17.5
344,256,41589,2,0,L|352:288,1,17.5
248,280,41778,2,0,L|240:304,1,17.5
336,296,41966,1,0,0:0:0:0:
56,296,42061,6,0,L|48:240,1,52.5
120,296,42438,1,0,0:0:0:0:
184,296,42532,1,0,0:0:0:0:
120,296,42627,1,0,0:0:0:0:
288,96,42910,5,0,0:0:0:0:
448,96,43193,2,0,L|320:96,1,105
416,144,43570,1,0,0:0:0:0:
360,144,43665,1,0,0:0:0:0:
304,144,43759,1,0,0:0:0:0:
392,192,43853,1,0,0:0:0:0:
336,192,43948,1,0,0:0:0:0:
280,192,44042,1,0,0:0:0:0:
344,240,44136,1,0,0:0:0:0:
400,240,44231,1,0,0:0:0:0:
184,240,44325,6,0,L|8:240,1,157.500006008148
224,312,44797,2,0,L|288:312,1,35
88,312,45174,1,0,0:0:0:0:
272,312,45457,1,0,0:0:0:0:
48,312,45740,1,0,0:0:0:0:
432,312,46023,5,0,0:0:0:0:
144,152,46212,1,0,0:0:0:0:
432,312,46400,1,0,0:0:0:0:
72,64,46589,2,0,B|232:64|232:64|104:64,1,262.5
432,192,47454,5,0,0:0:0:0:
184,288,47742,2,0,B|40:288|40:288|168:288,1,262.5
456,288,48608,1,0,0:0:0:0:
88,192,48896,2,0,P|72:144|120:56,1,131.25
264,56,49377,1,0,0:0:0:0:
168,64,49473,1,0,0:0:0:0:
304,136,49762,5,0,0:0:0:0:
200,200,50050,1,0,0:0:0:0:
440,288,50338,1,0,0:0:0:0:
80,312,50627,5,0,0:0:0:0:
368,152,50816,1,0,0:0:0:0:
80,312,51004,1,0,0:0:0:0:
384,320,51150,2,0,P|432:264|224:88,1,420
88,248,52015,1,0,0:0:0:0:
280,320,52303,6,0,P|296:208|64:72,1,420
328,48,53169,1,0,0:0:0:0:
48,152,53457,5,0,0:0:0:0:
248,272,53938,1,0,0:0:0:0:
128,272,54034,1,0,0:0:0:0:
336,272,54323,1,0,0:0:0:0:
192,152,54611,1,0,0:0:0:0:
336,152,54899,1,0,0:0:0:0:
72,64,55188,5,0,0:0:0:0:
256,64,55380,1,0,0:0:0:0:
440,64,55573,1,0,0:0:0:0:
40,184,55765,1,0,0:0:0:0:
40,208,55765,1,0,0:0:0:0:
40,232,55765,1,0,0:0:0:0:
40,256,55765,1,0,0:0:0:0:
40,280,55765,1,0,0:0:0:0:
40,208,55765,1,0,0:0:0:0:
40,208,55765,1,0,0:0:0:0:
472,192,56059,1,0,0:0:0:0:
32,248,56647,1,0,0:0:0:0:
480,248,57235,1,0,0:0:0:0:
32,248,57823,5,0,0:0:0:0:
480,248,58117,1,0,0:0:0:0:
32,248,58412,1,0,0:0:0:0:
480,248,59000,1,0,0:0:0:0:
32,248,59588,1,0,0:0:0:0:
480,248,60176,1,0,0:0:0:0:
256,192,60470,12,0,62823,0:0:0:0:
