osu file format v14

[General]
AudioFilename: Silver sparkle.mp3
AudioLeadIn: 0
PreviewTime: 32291
Countdown: 0
SampleSet: None
StackLeniency: 0.7
Mode: 2
LetterboxInBreaks: 0
WidescreenStoryboard: 1

[Editor]
Bookmarks: 52249,53957
DistanceSpacing: 0.8
BeatDivisor: 4
GridSize: 8
TimelineZoom: 2.6

[Metadata]
Title:Spongebob Soundtracks Part III
TitleUnicode:Spongebob Soundtracks Part III
Artist:Stephen Hillenburg
ArtistUnicode:Stephen Hillenburg
Creator:_wwwww
Version:Silver sparkle
Source:
Tags:
BeatmapID:2008738
BeatmapSetID:959465

[Difficulty]
HPDrainRate:5
CircleSize:4
OverallDifficulty:0
ApproachRate:9.6
SliderMultiplier:2
SliderTickRate:1

[Events]
//Background and Video events
0,0,"hqdefault (1).jpg",0,0
//Break Periods
//Storyboard Layer 0 (Background)
//Storyboard Layer 1 (Fail)
//Storyboard Layer 2 (Pass)
//Storyboard Layer 3 (Foreground)
//Storyboard Sound Samples

[TimingPoints]
363,213.523131672598,4,2,0,5,1,0
11679,-142.857142857143,4,2,0,5,0,0
14882,-100,4,2,0,5,0,0
25131,-142.857142857143,4,2,0,5,0,0
28548,-100,4,2,0,5,0,0
32391,-133.333333333333,4,2,0,5,0,0

[HitObjects]
160,104,363,6,0,B|48:104|48:104|200:104|200:104|40:104,1,400
352,104,1003,6,0,B|464:104|464:104|312:104|312:104|472:104|472:104|392:104|392:104,1,500
152,104,1644,2,0,P|80:120|184:224,1,300
376,320,2071,6,0,B|448:280|448:280|456:128,1,200
248,144,2498,2,0,L|48:144,1,200
448,264,2925,2,0,L|240:264,1,200
56,264,3352,2,0,P|40:200|144:144,1,200
352,72,3779,5,0,0:0:0:0:
136,80,3992,2,0,L|128:184,1,100
384,192,4206,1,0,0:0:0:0:
176,192,4419,2,0,L|208:296,1,100
440,256,4633,1,0,0:0:0:0:
56,112,4846,2,0,L|160:152,1,100
464,112,5060,1,0,0:0:0:0:
256,192,5274,12,0,5381,0:0:0:0:
176,48,5487,6,0,B|392:128|392:128|432:264|432:264|336:368|336:368|160:368|160:368|64:264|64:264|88:144|88:144|344:32,1,1200
313,45,6768,6,0,P|200:112|376:160,1,400
363,184,7195,2,0,B|256:120|256:120|128:120|128:120|48:200|48:200|128:272|128:272|256:272|256:272|432:144|432:144|256:40,1,1000
248,32,8370,6,0,L|472:32,1,200
200,32,8850,2,0,L|-8:32,1,200
288,64,9277,2,0,B|352:88|400:136|416:208|416:208|64:208,1,550
256,192,9544,12,0,9597,0:0:0:0:
67,208,9864,6,0,L|312:208,2,200
400,304,10505,2,0,P|424:240|128:64,1,500
456,56,11252,1,0,0:0:0:0:
214,50,11679,6,0,B|265:209|265:209|441:105,1,349.999989318848
423,116,12213,2,0,P|424:192|112:16,1,769.999976501466
96,32,13387,2,0,B|168:200|168:200|288:48,1,349.999989318848
271,68,13921,2,0,P|192:64|352:256,1,629.999980773926
152,120,15096,6,0,L|264:320,2,200
488,112,15736,1,0,0:0:0:0:
312,168,15950,2,0,L|480:288,2,200
0,248,16590,1,0,0:0:0:0:
224,192,16804,2,0,L|448:192,1,200
56,88,17231,2,0,L|296:88,1,200
464,88,17658,2,0,L|232:88,1,200
96,192,18085,2,0,P|80:264|176:352,1,200
256,344,18405,6,0,P|328:216|80:80,1,500
81,79,18939,2,0,B|240:72|240:72|224:320|224:320|456:288|456:288|416:64|416:64|72:80,1,1200
81,79,20220,2,0,B|160:216|160:216|240:120|240:120|320:248,1,400
301,219,20647,2,0,B|328:48|328:48|80:80|80:80|32:312|32:312|440:240|440:240|448:192,1,1100
444,214,21822,6,0,L|208:216,1,200
40,96,22249,2,0,L|240:96,1,200
440,64,22676,2,0,B|360:88|360:192|392:248|392:248|224:192|112:256,1,500
256,192,22996,12,0,23049,0:0:0:0:
248,304,23316,6,0,L|472:312,2,200
64,200,23957,2,0,B|88:120|88:120|176:72|176:72|400:64|400:64|296:224|296:224|184:224|184:224|192:256,1,700
352,304,25238,6,0,P|384:240|240:96,1,279.999991455078
270,94,25665,2,0,B|64:128|64:128|432:152|432:152|208:176,1,769.999976501466
241,172,26839,2,0,P|184:248|360:320,1,349.999989318848
354,326,27373,2,0,B|80:288|80:288|312:264|312:264|120:240,1,699.999978637696
208,192,28548,6,0,L|352:32,2,200
512,48,29188,1,0,0:0:0:0:
304,184,29402,2,0,L|144:304,2,200
32,104,30042,1,0,0:0:0:0:
216,192,30256,2,0,L|0:200,1,200
256,248,30683,2,0,L|480:264,1,200
248,160,31110,6,0,L|424:40,1,200
216,48,31537,2,0,P|144:80|256:304,1,400
256,192,31964,12,0,32284,0:0:0:0:
400,72,32391,6,0,P|424:160|336:280,1,225.000008583069
232,192,32818,2,0,L|400:192,1,150.000005722046
192,104,33245,2,0,L|112:104,1,75.0000028610231
408,104,33459,1,0,0:0:0:0:
272,192,33672,2,0,L|424:192,1,150.000005722046
256,280,34099,6,0,L|336:280,1,75.0000028610231
48,280,34313,1,0,0:0:0:0:
192,192,34526,2,0,L|40:192,1,150.000005722046
240,104,34953,2,0,L|328:104,1,75.0000028610231
56,104,35167,1,0,0:0:0:0:
224,192,35380,6,0,L|400:192,1,150.000005722046
232,272,35701,2,0,P|176:264|192:112,1,225.000008583069
288,96,36128,2,0,L|448:96,1,150.000005722046
320,40,36448,2,0,P|272:96|368:176,1,225.000008583069
256,176,36875,6,0,L|88:176,1,150.000005722046
312,272,37302,2,0,L|232:272,2,75.0000028610231
200,272,37622,1,0,0:0:0:0:
312,272,37729,2,0,B|360:208|360:208|336:136,1,150.000005722046
248,88,38049,5,0,0:0:0:0:
464,120,38263,1,0,0:0:0:0:
304,152,38476,1,0,0:0:0:0:
136,176,38690,1,0,0:0:0:0:
296,224,38903,1,0,0:0:0:0:
64,232,39117,6,0,P|48:144|176:80,1,225.000008583069
256,72,39544,2,0,L|432:72,1,150.000005722046
240,160,39971,2,0,L|88:160,1,150.000005722046
104,208,40291,1,0,0:0:0:0:
80,192,40398,1,0,0:0:0:0:
112,184,40505,1,0,0:0:0:0:
96,192,40612,1,0,0:0:0:0:
184,256,40718,6,0,B|328:256|328:256|432:120,1,300.000011444092
272,128,41252,2,0,L|104:128,1,150.000005722046
416,304,41572,2,0,L|248:304,1,150.000005722046
96,208,42000,2,0,L|256:208,1,150.000005722046
384,120,42427,2,0,L|128:120,1,225.000008583069
432,216,42854,2,0,L|272:216,1,150.000005722046
136,216,43281,2,0,L|376:216,1,225.000008583069
32,120,43708,2,0,L|184:120,1,150.000005722046
336,120,44135,5,0,0:0:0:0:
264,120,44242,1,0,0:0:0:0:
192,120,44348,1,0,0:0:0:0:
280,120,44455,1,0,0:0:0:0:
368,120,44562,2,0,P|392:168|224:256,1,300.000011444092
256,192,44669,12,0,44882,0:0:0:0:
414,192,45202,6,0,L|262:192,1,150.000005722046
72,192,45629,1,0,0:0:0:0:
368,304,45843,2,0,P|400:0|72:232,1,900.000034332277
60,205,47124,2,0,L|392:160,1,300.000011444092
357,164,47551,2,0,P|288:240|344:32,1,750.000028610231
336,88,48619,6,0,L|168:88,1,150.000005722046
368,184,49046,2,0,L|520:184,2,150.000005722046
160,296,49686,2,0,P|104:256|256:88,1,375.000014305115
344,136,50327,6,0,L|168:136,2,150.000005722046
168,224,50967,2,0,P|64:232|198:193,1,600.000022888185
376,288,52249,6,0,P|384:208|232:56,1,300.000011444092
244,58,52676,2,0,L|408:48,1,150.000005722046
393,48,52889,2,0,P|264:192|88:160,1,375.000014305115
393,48,53530,1,0,0:0:0:0:
136,288,53957,6,0,P|128:208|280:56,1,300.000011444092
268,58,54384,2,0,L|104:48,1,150.000005722046
119,48,54597,2,0,P|280:136|496:96,1,375.000014305115
119,48,55238,1,0,0:0:0:0:
328,192,55665,6,0,L|216:304,2,150.000005722046
24,144,56306,1,0,0:0:0:0:
192,152,56519,2,0,L|328:224,2,150.000005722046
472,56,57160,1,0,0:0:0:0:
280,152,57373,2,0,L|432:160,1,150.000005722046
96,272,57800,6,0,P|64:224|104:120,1,150.000005722046
368,64,58227,2,0,P|416:88|480:160,1,150.000005722046
80,192,58654,2,0,L|240:168,1,150.000005722046
432,208,59081,6,0,L|464:296,1,75.0000028610231
344,272,59295,2,0,L|304:344,1,75.0000028610231
56,192,59508,2,0,P|144:184|264:72,1,225.000008583069
56,192,59935,2,0,P|264:192|416:-8,1,450.000017166138
96,304,60790,6,0,B|96:248|112:152|144:96|256:96,1,300.000011444092
256,95,61217,2,0,L|416:96,1,150.000005722046
64,208,61537,2,0,L|240:208,1,150.000005722046
384,208,61964,1,0,0:0:0:0:
40,120,62177,2,0,L|216:120,1,150.000005722046
376,120,62604,1,0,0:0:0:0:
104,192,62818,2,0,P|88:288|104:352,1,150.000005722046
392,336,63138,2,0,P|432:288|192:40,1,525.000020027161
48,128,63992,1,0,0:0:0:0:
