osu file format v14

[General]
AudioFilename: Music to drive by.mp3
AudioLeadIn: 0
PreviewTime: 22602
Countdown: 0
SampleSet: Soft
StackLeniency: 0.7
Mode: 2
LetterboxInBreaks: 0
WidescreenStoryboard: 1

[Editor]
Bookmarks: 14193,37261,61645,69894,83505,128622,129552,168238,91764,75451
DistanceSpacing: 0.8
BeatDivisor: 4
GridSize: 8
TimelineZoom: 2.6

[Metadata]
Title:Spongebob Soundtracks Part III
TitleUnicode:Spongebob Soundtracks Part III
Artist:Stephen Hillenburg
ArtistUnicode:Stephen Hillenburg
Creator:_wwwww
Version:Music to Drive By
Source:
Tags:
BeatmapID:2008737
BeatmapSetID:959465

[Difficulty]
HPDrainRate:4
CircleSize:5
OverallDifficulty:3
ApproachRate:9
SliderMultiplier:2
SliderTickRate:1

[Events]
//Background and Video events
0,0,"hqdefault (4).jpg",0,0
//Break Periods
//Storyboard Layer 0 (Background)
//Storyboard Layer 1 (Fail)
//Storyboard Layer 2 (Pass)
//Storyboard Layer 3 (Foreground)
//Storyboard Sound Samples

[TimingPoints]
216,476.190476190476,4,2,0,30,1,0
5103,468.75,4,2,0,30,1,0
5103,-200,4,2,0,30,0,0
6094,468.75,4,2,0,30,1,0
6094,-100,4,2,0,30,0,0
7078,468.75,4,2,0,30,1,0
7078,-66.6666666666667,4,2,0,30,0,0
8057,454.545454545455,4,2,0,30,1,0
8057,-100,4,2,0,30,0,0
36311,454.545454545455,4,2,0,30,1,0
38245,458.015267175573,4,2,0,30,1,0
51069,447.761194029851,4,2,0,30,1,0
53748,458.015267175573,4,2,0,30,1,0
62918,465.116279069767,4,2,0,30,1,0
85352,458.015267175573,4,2,0,30,1,0
99950,461.538461538462,4,2,0,30,1,0
109255,451.127401129943,4,2,0,30,1,0
114781,465.117401129944,4,2,0,30,1,0
129725,483.870967741935,4,2,0,30,1,0
130692,-66.6666666666667,4,2,0,30,0,0
131176,-100,4,2,0,30,0,0
131729,454.547401129943,4,2,0,30,1,0
146184,461.538461538462,4,2,0,30,1,0
155414,458.015267175573,4,2,0,30,1,0

[HitObjects]
152,144,216,5,0,0:0:0:0:
352,144,692,1,0,0:0:0:0:
128,256,1168,1,0,0:0:0:0:
376,256,1406,2,0,P|384:176|272:48,1,250
56,256,2120,1,0,0:0:0:0:
240,256,2596,5,0,0:0:0:0:
384,256,3073,1,0,0:0:0:0:
208,168,3311,2,0,P|200:96|272:168,1,250
136,168,4025,1,0,0:0:0:0:
376,168,5103,6,0,L|272:168,1,100
376,120,6094,2,0,L|144:120,1,200
376,288,7078,2,0,L|56:288,1,300.000011444092
80,248,7663,1,0,0:0:0:0:
80,200,7722,1,0,0:0:0:0:
88,152,7781,1,0,0:0:0:0:
104,112,7839,1,0,0:0:0:0:
136,80,7898,1,0,0:0:0:0:
176,64,7956,1,0,0:0:0:0:
432,64,8057,6,0,L|304:64,1,100
136,192,8511,2,0,L|128:304,1,100
216,264,8852,1,0,0:0:0:0:
304,264,8966,2,0,L|312:144,1,100
80,80,9420,2,0,L|192:80,1,100
272,80,9761,1,0,0:0:0:0:
360,80,9875,2,0,L|464:80,1,100
272,192,10329,6,0,L|160:192,1,100
320,288,10784,2,0,L|432:288,1,100
220,288,11238,2,0,L|364:288,1,100
104,288,11693,2,0,P|48:240|136:144,1,200
248,64,12375,1,0,0:0:0:0:
192,72,12488,1,0,0:0:0:0:
248,64,12602,2,0,L|376:64,1,100
208,152,13057,2,0,L|200:272,1,100
368,256,13511,2,0,L|488:256,1,100
256,192,13966,6,0,P|248:136|280:96,1,100
384,80,14420,2,0,P|376:144|328:152,1,100
128,152,14875,2,0,P|80:168|72:240,1,100
384,112,15329,6,0,L|392:224,1,100
256,232,15784,2,0,L|360:232,1,100
120,232,16238,2,0,L|112:112,1,100
256,80,16693,2,0,L|144:80,1,100
440,160,17147,2,0,L|448:288,1,100
288,304,17602,2,0,L|144:304,1,100
288,240,17943,1,0,0:0:0:0:
408,240,18057,2,0,P|416:160|400:120,1,100
224,64,18511,2,0,L|96:64,1,100
328,64,18966,6,0,P|232:360|184:64,1,800
368,136,21238,2,0,L|376:224,1,50
272,184,21466,1,0,0:0:0:0:
392,208,21693,2,0,L|384:288,1,50
192,256,21920,1,0,0:0:0:0:
312,256,22147,2,0,L|320:192,1,50
80,96,22375,2,0,L|152:96,1,50
400,48,22602,6,0,L|408:160,1,100
248,120,23057,2,0,L|240:240,1,100
416,192,23511,2,0,L|424:320,1,100
256,320,23966,2,0,L|368:320,1,100
72,48,24420,6,0,L|64:160,1,100
224,120,24875,2,0,L|232:240,1,100
56,192,25329,2,0,L|48:320,1,100
224,320,25784,2,0,L|112:320,1,100
456,80,26238,6,0,L|464:192,1,100
312,184,26693,2,0,L|208:184,1,100
368,264,27147,2,0,L|480:264,1,100
280,264,27602,2,0,L|272:120,1,100
112,320,28057,2,0,P|72:272|288:336,1,800
112,320,30102,1,0,0:0:0:0:
128,296,30102,1,0,0:0:0:0:
296,248,30329,5,0,0:0:0:0:
456,224,30557,1,0,0:0:0:0:
440,200,30557,1,0,0:0:0:0:
240,120,30784,1,0,0:0:0:0:
80,144,31238,1,0,0:0:0:0:
248,208,31693,6,0,L|392:208,1,100
192,208,32147,2,0,L|184:104,1,100
336,88,32602,2,0,L|200:88,1,100
464,88,33057,2,0,L|472:208,1,100
352,256,33511,2,0,L|240:256,1,100
432,336,33966,1,0,0:0:0:0:
224,336,34193,2,0,L|352:336,2,100
384,248,34875,2,0,L|496:248,1,100
320,152,35329,2,0,L|176:152,1,100
88,56,35784,1,0,0:0:0:0:
48,152,36011,1,0,0:0:0:0:
208,48,36238,5,0,0:0:0:0:
408,80,36311,2,0,L|416:160,1,50
200,288,36538,2,0,P|144:248|272:136,1,300
384,48,37674,5,0,0:0:0:0:
192,96,38245,1,0,0:0:0:0:
248,112,38359,1,0,0:0:0:0:
192,96,38474,1,0,0:0:0:0:
248,112,38588,1,0,0:0:0:0:
128,144,38703,2,0,P|96:208|200:272,1,200
384,280,39619,6,0,L|392:160,1,100
256,152,40077,2,0,L|168:152,1,50
312,152,40306,1,0,0:0:0:0:
200,280,40535,2,0,L|88:280,1,100
272,272,40993,2,0,L|392:272,1,100
64,48,41451,2,0,L|56:168,1,100
192,48,41909,2,0,L|288:48,1,50
144,48,42138,1,0,0:0:0:0:
248,144,42367,6,0,L|128:144,1,100
344,144,42825,2,0,P|352:216|256:328,1,200
392,336,43512,1,0,0:0:0:0:
208,336,43741,2,0,L|112:336,1,50
240,272,43970,2,0,P|248:200|152:288,1,300
352,72,45115,5,0,0:0:0:0:
144,72,45573,1,0,0:0:0:0:
368,136,46031,2,0,L|376:280,1,100
200,192,46489,2,0,L|72:192,1,100
408,136,46947,6,0,L|416:272,1,100
272,272,47405,2,0,L|368:272,1,50
224,272,47634,1,0,0:0:0:0:
440,272,47863,2,0,L|320:272,1,100
224,160,48321,1,0,0:0:0:0:
352,160,48550,1,0,0:0:0:0:
64,272,48779,6,0,L|56:160,1,100
152,168,49122,1,0,0:0:0:0:
252,168,49237,2,0,L|140:168,1,100
304,256,49695,2,0,L|424:256,1,100
112,184,50153,2,0,B|96:136|112:88|112:88|424:88,1,400
304,136,51292,1,0,0:0:0:0:
424,160,51516,5,0,0:0:0:0:
432,200,51572,1,0,0:0:0:0:
424,232,51628,1,0,0:0:0:0:
432,264,51684,1,0,0:0:0:0:
424,296,51740,1,0,0:0:0:0:
400,320,51796,1,0,0:0:0:0:
352,336,51852,1,0,0:0:0:0:
296,336,51908,1,0,0:0:0:0:
224,336,51964,1,0,0:0:0:0:
80,240,52188,5,0,0:0:0:0:
224,184,52412,1,0,0:0:0:0:
232,144,52468,1,0,0:0:0:0:
224,112,52524,1,0,0:0:0:0:
192,80,52580,1,0,0:0:0:0:
152,72,52636,1,0,0:0:0:0:
376,64,52860,1,0,0:0:0:0:
288,144,53083,5,0,0:0:0:0:
280,184,53139,1,0,0:0:0:0:
288,224,53195,1,0,0:0:0:0:
96,224,53307,1,0,0:0:0:0:
376,224,53531,1,0,0:0:0:0:
96,224,53748,6,0,L|88:104,1,100
256,80,54206,2,0,L|264:208,1,100
416,224,54664,2,0,L|424:104,1,100
256,224,55122,2,0,L|136:224,1,100
416,224,55580,6,0,L|424:104,1,100
256,80,56038,2,0,L|248:208,1,100
96,224,56496,2,0,L|88:104,1,100
264,224,56954,2,0,L|364:224,1,100
48,304,57412,6,0,L|184:304,1,100
288,304,57870,2,0,L|184:304,1,100
368,304,58328,2,0,L|480:304,1,100
256,192,58786,2,0,L|144:192,1,100
376,312,59244,6,0,B|480:288|472:240|288:208|288:208|472:192|480:144|384:88|384:88|280:32|176:216|160:56,1,800
336,48,61534,1,0,0:0:0:0:
416,112,61763,1,0,0:0:0:0:
232,184,61992,1,0,0:0:0:0:
192,224,62106,1,0,0:0:0:0:
208,272,62221,1,0,0:0:0:0:
264,280,62335,1,0,0:0:0:0:
400,176,62450,5,0,0:0:0:0:
416,224,62564,1,0,0:0:0:0:
400,256,62679,1,0,0:0:0:0:
416,280,62793,1,0,0:0:0:0:
152,280,62918,6,0,L|40:280,1,100
200,192,63383,2,0,L|96:192,1,100
192,136,63731,1,0,0:0:0:0:
288,80,63848,2,0,L|416:80,1,100
192,136,64313,2,0,L|184:256,1,100
368,248,64778,6,0,L|248:248,1,100
112,248,65243,2,0,L|248:248,1,100
160,192,65592,1,0,0:0:0:0:
264,160,65708,2,0,P|328:112|312:72,1,100
176,80,66173,2,0,L|56:80,1,100
224,80,66638,2,0,L|232:208,1,100
160,192,66987,1,0,0:0:0:0:
256,208,67104,2,0,L|344:208,1,50
216,256,67336,6,0,L|208:312,1,50
440,120,67569,2,0,L|368:120,1,50
112,80,67801,2,0,P|64:128|192:248,1,250
432,256,68499,1,0,0:0:0:0:
289,133,68964,6,0,L|88:132,1,200
109,170,69545,1,0,0:0:0:0:
89,132,69662,1,0,0:0:0:0:
109,170,69778,1,0,0:0:0:0:
216,176,69894,1,0,0:0:0:0:
256,224,70011,1,0,0:0:0:0:
208,264,70127,1,0,0:0:0:0:
400,304,70359,6,0,L|408:176,1,100
216,216,70824,2,0,L|208:96,1,100
384,224,71290,2,0,L|392:96,1,100
184,144,71755,2,0,L|176:32,1,100
360,152,72220,2,0,L|368:24,1,100
176,296,72685,2,0,L|160:160,1,100
344,192,73150,1,0,0:0:0:0:
256,192,73266,1,0,0:0:0:0:
168,192,73383,1,0,0:0:0:0:
328,272,73615,6,0,L|440:272,1,100
280,272,74080,2,0,L|160:272,1,100
424,64,74545,2,0,L|432:184,1,100
96,64,75011,2,0,L|88:152,1,50
328,64,75243,2,0,P|368:96|288:240,1,250
64,240,75941,1,0,0:0:0:0:
328,64,76406,6,0,L|120:80,2,200
112,304,77801,6,0,L|104:176,1,100
296,216,78266,2,0,L|304:96,1,100
128,224,78732,2,0,L|120:96,1,100
328,144,79197,2,0,L|336:32,1,100
152,152,79662,2,0,L|144:24,1,100
336,200,80127,2,0,L|448:200,1,100
280,288,80592,1,0,0:0:0:0:
368,288,80708,1,0,0:0:0:0:
280,288,80824,1,0,0:0:0:0:
112,192,81057,6,0,L|8:128,1,100
224,80,81522,2,0,L|336:80,1,100
104,304,81987,2,0,L|96:216,1,50
208,224,82336,1,0,0:0:0:0:
424,192,82452,2,0,L|432:120,1,50
128,160,82801,2,0,L|120:88,1,50
432,80,83150,1,0,0:0:0:0:
72,64,83383,1,0,0:0:0:0:
392,304,83848,5,0,0:0:0:0:
176,240,84313,1,0,0:0:0:0:
416,152,84778,2,0,B|440:200|440:200|416:248|416:248|440:288|440:288|416:336,1,200
224,320,85810,6,0,L|344:320,1,100
120,320,86268,1,0,0:0:0:0:
96,320,86497,1,0,0:0:0:0:
256,192,86726,6,0,L|136:192,1,100
352,192,87184,1,0,0:0:0:0:
144,56,87642,2,0,L|136:192,1,100
296,96,88100,2,0,L|304:224,1,100
160,216,88558,2,0,L|56:216,1,100
392,336,89016,2,0,L|416:208,1,100
264,232,89474,2,0,L|256:96,1,100
336,112,89817,5,0,0:0:0:0:
408,104,89932,1,0,0:0:0:0:
336,88,90046,1,0,0:0:0:0:
408,104,90161,1,0,0:0:0:0:
200,104,90390,2,0,L|96:104,1,100
256,192,90848,2,0,L|368:192,1,100
200,264,91306,6,0,L|200:320,1,50
264,312,91535,2,0,L|320:312,1,50
160,312,91764,2,0,L|32:312,1,100
384,256,92222,2,0,L|392:128,1,100
192,48,92680,6,0,L|312:48,1,100
120,136,93138,2,0,L|112:256,1,100
200,240,93481,1,0,0:0:0:0:
288,248,93596,2,0,L|400:248,1,100
256,336,94054,2,0,L|112:336,1,100
352,336,94512,1,0,0:0:0:0:
376,336,94741,1,0,0:0:0:0:
120,192,94970,6,0,L|112:64,1,100
200,88,95313,1,0,0:0:0:0:
96,112,95428,2,0,L|200:112,1,100
352,112,95886,2,0,L|232:112,1,100
120,216,96344,6,0,L|240:216,2,100
304,200,97031,1,0,0:0:0:0:
328,232,97145,1,0,0:0:0:0:
304,264,97260,1,0,0:0:0:0:
328,304,97374,1,0,0:0:0:0:
368,320,97489,1,0,0:0:0:0:
416,320,97603,1,0,0:0:0:0:
200,320,97718,5,0,0:0:0:0:
152,304,97832,1,0,0:0:0:0:
128,256,97947,1,0,0:0:0:0:
152,208,98061,1,0,0:0:0:0:
248,184,98176,2,0,L|264:112,1,50
80,56,98405,5,0,0:0:0:0:
56,104,98519,1,0,0:0:0:0:
80,144,98634,1,0,0:0:0:0:
56,192,98748,1,0,0:0:0:0:
104,216,98863,1,0,0:0:0:0:
160,224,98977,1,0,0:0:0:0:
384,64,99092,5,0,0:0:0:0:
416,104,99206,1,0,0:0:0:0:
400,152,99321,1,0,0:0:0:0:
352,176,99435,1,0,0:0:0:0:
400,192,99550,1,0,0:0:0:0:
432,232,99664,1,0,0:0:0:0:
168,232,99779,6,0,L|160:152,1,50
352,304,99950,2,0,L|464:304,1,100
224,232,100411,2,0,L|112:232,1,100
336,152,100873,2,0,L|448:152,1,100
208,88,101334,1,0,0:0:0:0:
400,40,101565,6,0,L|400:104,1,50
168,88,101796,2,0,L|56:88,1,100
296,160,102257,2,0,L|408:160,1,100
184,240,102719,2,0,L|72:240,1,100
312,304,103180,1,0,0:0:0:0:
144,304,103411,6,0,L|144:240,1,50
424,192,103642,2,0,L|304:192,1,100
144,72,104103,2,0,L|272:72,1,100
408,232,104565,2,0,L|272:232,1,100
120,72,105026,1,0,0:0:0:0:
280,72,105257,6,0,L|280:128,1,50
80,136,105488,2,0,B|16:216|112:304|112:304|240:280|400:320|400:320|296:296|216:224|224:208|424:176,1,800
312,96,107565,1,0,0:0:0:0:
88,48,107796,1,0,0:0:0:0:
168,120,108026,1,0,0:0:0:0:
488,264,108257,1,0,0:0:0:0:
384,336,108488,1,0,0:0:0:0:
184,280,108719,1,0,0:0:0:0:
304,224,108950,1,0,0:0:0:0:
56,80,109255,6,0,L|48:192,1,100
224,80,109706,2,0,L|112:80,1,100
296,80,110157,2,0,L|304:224,1,100
128,208,110608,2,0,L|240:208,1,100
400,208,111059,2,0,L|504:208,1,100
264,296,111510,2,0,L|364:296,1,100
144,296,111961,2,0,L|280:296,2,100
264,192,112638,1,0,0:0:0:0:
112,80,112864,5,0,0:0:0:0:
352,80,113089,1,0,0:0:0:0:
376,96,113202,1,0,0:0:0:0:
352,104,113315,1,0,0:0:0:0:
376,120,113427,1,0,0:0:0:0:
440,144,113540,1,0,0:0:0:0:
152,152,113766,2,0,L|144:216,1,50
376,184,113991,2,0,P|408:232|240:328,1,300
40,104,114781,1,0,0:0:0:0:
256,56,115246,5,0,0:0:0:0:
272,96,115362,1,0,0:0:0:0:
256,128,115478,1,0,0:0:0:0:
272,160,115594,1,0,0:0:0:0:
248,192,115711,1,0,0:0:0:0:
200,208,115827,1,0,0:0:0:0:
136,216,115943,1,0,0:0:0:0:
72,216,116060,1,0,0:0:0:0:
144,232,116176,5,0,0:0:0:0:
216,248,116292,1,0,0:0:0:0:
288,280,116408,1,0,0:0:0:0:
312,344,116525,1,0,0:0:0:0:
216,344,116641,1,0,0:0:0:0:
400,256,117106,6,0,L|408:128,1,100
312,152,117455,1,0,0:0:0:0:
224,152,117571,1,0,0:0:0:0:
216,168,117804,1,0,0:0:0:0:
385,224,118036,6,0,L|393:336,1,100
208,320,118501,1,0,0:0:0:0:
200,304,118734,1,0,0:0:0:0:
336,104,118967,2,0,L|208:104,1,100
56,104,119432,1,0,0:0:0:0:
112,104,119548,1,0,0:0:0:0:
168,104,119664,1,0,0:0:0:0:
336,128,119897,2,0,P|344:184|336:232,1,100
176,232,120362,2,0,L|171:343,1,100
384,320,120827,5,0,0:0:0:0:
144,232,121292,2,0,L|136:176,1,50
384,56,121525,2,0,P|440:104|344:232,1,250
144,232,122222,1,0,0:0:0:0:
352,144,122687,6,0,L|128:144,2,200
176,240,124083,2,0,L|40:240,1,100
288,304,124548,2,0,L|400:304,1,100
192,160,125013,2,0,L|56:160,1,100
320,224,125478,2,0,L|432:224,1,100
216,304,125943,2,0,L|104:304,1,100
320,224,126408,6,0,L|208:224,1,100
368,112,126874,1,0,0:0:0:0:
448,112,126990,1,0,0:0:0:0:
368,112,127106,1,0,0:0:0:0:
184,112,127339,2,0,L|64:112,1,100
256,192,127804,2,0,L|368:192,1,100
64,264,128269,1,0,0:0:0:0:
336,264,128734,5,0,0:0:0:0:
152,264,128850,1,0,0:0:0:0:
288,192,129083,1,0,0:0:0:0:
464,192,129199,1,0,0:0:0:0:
88,80,129432,1,0,0:0:0:0:
440,80,129725,1,0,0:0:0:0:
208,152,130208,5,0,0:0:0:0:
416,288,130692,2,0,L|88:288,1,300.000011444092
376,72,131729,6,0,L|456:176,1,100
160,176,132183,2,0,L|32:176,1,100
232,280,132638,2,0,L|304:280,1,50
80,280,132865,1,0,0:0:0:0:
248,136,133092,2,0,L|148:136,1,100
312,136,133547,2,0,L|440:136,1,100
64,192,134001,6,0,L|192:192,1,100
320,192,134456,2,0,L|448:192,1,100
128,280,134797,2,0,L|232:280,1,100
472,192,135138,2,0,L|480:256,1,50
208,72,135365,2,0,L|80:72,1,100
312,72,135819,2,0,L|320:192,1,100
248,176,136160,1,0,0:0:0:0:
176,184,136274,1,0,0:0:0:0:
248,192,136388,1,0,0:0:0:0:
432,280,136501,6,0,L|120:296,1,300
400,88,137638,5,0,0:0:0:0:
288,120,137865,2,0,L|280:200,1,50
368,160,138092,2,0,L|376:224,1,50
296,216,138319,1,0,0:0:0:0:
16,256,138547,6,0,L|120:256,1,100
272,256,139001,2,0,L|144:256,1,100
472,256,139456,2,0,P|480:192|464:144,1,100
392,128,139797,1,0,0:0:0:0:
304,128,139910,2,0,L|216:128,1,50
440,128,140138,1,0,0:0:0:0:
288,208,140365,2,0,L|408:208,1,100
224,208,140819,2,0,L|120:208,1,100
416,320,141274,6,0,L|424:192,1,100
272,216,141729,2,0,L|336:216,1,50
136,216,141956,1,0,0:0:0:0:
264,96,142183,2,0,L|200:96,1,50
440,96,142410,2,0,L|456:168,1,50
320,192,142638,5,0,0:0:0:0:
336,224,142751,1,0,0:0:0:0:
320,248,142865,1,0,0:0:0:0:
336,280,142979,1,0,0:0:0:0:
320,304,143092,1,0,0:0:0:0:
112,296,143206,5,0,0:0:0:0:
72,256,143319,1,0,0:0:0:0:
72,208,143433,1,0,0:0:0:0:
240,88,143547,2,0,L|312:88,1,50
88,88,143774,2,0,L|32:88,1,50
120,136,144001,2,0,L|120:208,1,50
344,152,144229,1,0,0:0:0:0:
392,184,144342,1,0,0:0:0:0:
312,216,144456,5,0,0:0:0:0:
392,248,144569,1,0,0:0:0:0:
312,272,144683,1,0,0:0:0:0:
360,304,144797,1,0,0:0:0:0:
312,304,144910,1,0,0:0:0:0:
264,304,145024,1,0,0:0:0:0:
168,304,145138,1,0,0:0:0:0:
96,304,145251,1,0,0:0:0:0:
160,232,145365,5,0,0:0:0:0:
96,184,145479,1,0,0:0:0:0:
160,232,145592,1,0,0:0:0:0:
96,184,145706,2,0,L|88:120,1,50
320,136,145933,2,0,L|384:136,1,50
64,64,146184,6,0,L|152:64,1,50
320,64,146414,2,0,L|392:64,1,50
112,136,146645,2,0,L|104:256,1,100
392,200,147107,2,0,L|408:328,1,100
104,312,147568,1,0,0:0:0:0:
400,312,147799,2,0,L|464:312,1,50
104,104,148030,6,0,L|88:248,1,100
392,136,148491,2,0,L|400:240,1,100
112,216,148953,2,0,L|96:360,1,100
432,72,149414,1,0,0:0:0:0:
104,72,149645,2,0,L|48:72,1,50
392,72,149876,6,0,L|400:184,1,100
160,160,150337,2,0,L|96:248,1,100
432,304,150799,2,0,L|344:208,1,100
64,304,151260,1,0,0:0:0:0:
408,304,151491,2,0,L|472:304,1,50
160,264,151722,2,0,P|112:200|328:280,1,800
224,248,153799,5,0,0:0:0:0:
448,96,154030,1,0,0:0:0:0:
336,128,154260,1,0,0:0:0:0:
128,64,154491,1,0,0:0:0:0:
104,64,154491,1,0,0:0:0:0:
376,272,154953,1,0,0:0:0:0:
400,272,154953,1,0,0:0:0:0:
184,264,155414,6,0,L|176:152,1,100
328,144,155872,2,0,L|440:144,1,100
256,232,156330,2,0,L|248:344,1,100
72,80,156788,2,0,L|200:80,1,100
360,88,157246,2,0,L|368:216,1,100
208,208,157704,2,0,L|64:208,1,100
296,320,158162,6,0,L|176:320,2,100
144,208,158849,1,0,0:0:0:0:
424,80,159078,2,0,L|432:200,1,100
256,80,159536,2,0,L|368:80,1,100
184,80,159994,2,0,L|176:192,1,100
392,184,160337,2,0,L|320:184,1,50
136,184,160681,6,0,L|272:184,1,100
392,184,161139,1,0,0:0:0:0:
104,184,161368,2,0,L|96:296,1,100
176,296,161711,1,0,0:0:0:0:
392,88,161826,6,0,L|456:88,1,50
240,88,162055,2,0,L|160:88,1,50
264,136,162284,2,0,L|272:208,1,50
80,224,162513,2,0,L|160:224,1,50
432,296,162742,6,0,L|304:296,1,100
24,288,163200,2,0,L|144:288,1,100
264,192,163658,2,0,L|328:192,1,50
144,192,163887,1,0,0:0:0:0:
264,80,164116,2,0,L|152:80,1,100
352,80,164574,2,0,L|368:216,1,100
112,192,165032,1,0,0:0:0:0:
256,256,165261,6,0,L|144:256,2,100
408,256,165948,2,0,L|288:256,1,100
88,72,166406,1,0,0:0:0:0:
240,72,166635,2,0,L|152:72,1,50
384,72,166864,1,0,0:0:0:0:
80,192,167322,5,0,0:0:0:0:
416,320,167551,2,0,P|448:240|304:168,1,250
64,200,168238,1,0,0:0:0:0:
