osu file format v14

[General]
AudioFilename: audio.mp3
AudioLeadIn: 0
PreviewTime: 13839
Countdown: 0
SampleSet: None
StackLeniency: 0.7
Mode: 2
LetterboxInBreaks: 0
WidescreenStoryboard: 1

[Editor]
Bookmarks: 117929,151967,179801
DistanceSpacing: 0.8
BeatDivisor: 6
GridSize: 8
TimelineZoom: 2.6

[Metadata]
Title:Spongebob Soundtracks Part III
TitleUnicode:Spongebob Soundtracks Part III
Artist:Stephen Hillenburg
ArtistUnicode:Stephen Hillenburg
Creator:_wwwww
Version:GoodBye Samba A
Source:
Tags:
BeatmapID:2008736
BeatmapSetID:959465

[Difficulty]
HPDrainRate:4
CircleSize:4
OverallDifficulty:3
ApproachRate:9.2
SliderMultiplier:2.3
SliderTickRate:4

[Events]
//Background and Video events
0,0,"download (1).jpg",0,0
//Break Periods
//Storyboard Layer 0 (Background)
//Storyboard Layer 1 (Fail)
//Storyboard Layer 2 (Pass)
//Storyboard Layer 3 (Foreground)
//Storyboard Sound Samples

[TimingPoints]
399,480,4,2,0,5,1,0
13359,-200,4,2,0,5,0,0
13839,472.44094488189,4,2,0,5,1,0
13839,-200,4,2,0,5,0,0
25650,-66.6666666666667,4,2,0,5,0,0
26594,-200,4,2,0,5,0,0
27539,-66.6666666666667,4,2,0,5,0,0
28484,-200,4,2,0,5,0,0
43602,-100,4,2,0,5,0,0
44075,476.190476190476,4,2,0,5,1,0
58836,-200,4,2,0,5,0,0
59313,470.588235294118,4,2,0,5,1,0
59313,-200,4,2,0,5,0,0
73901,-100,4,2,0,5,0,0
74425,480,4,2,0,5,1,0
87842,470.588235294118,4,2,0,5,1,0
104753,470.588235294118,4,2,0,5,1,0
132988,463.320463320463,4,2,0,5,1,0
147784,474.308300395257,4,2,0,5,1,0
149723,472.44094488189,4,2,0,5,1,1
151848,-200,4,2,0,5,0,1
164830,467.85,4,2,0,5,1,1
182608,-100,4,2,0,5,0,0

[HitObjects]
111,190,399,5,0,0:0:0:0:
292,101,799,5,0,0:0:0:0:
170,100,879,1,0,0:0:0:0:
363,266,1359,6,0,L|445:266,1,57.5
331,232,1599,2,0,L|248:232,1,57.5
65,234,1839,2,0,L|191:234,1,115
331,234,2319,5,0,0:0:0:0:
187,102,2719,5,0,0:0:0:0:
69,103,2799,1,0,0:0:0:0:
257,191,3279,2,0,L|266:264,1,57.5
147,252,3519,2,0,L|72:252,1,57.5
346,252,3759,2,0,L|498:252,1,115
93,82,4239,6,0,L|81:188,1,57.5
330,81,4599,1,0,0:0:0:0:
211,116,4719,1,0,0:0:0:0:
336,112,4839,2,0,L|344:171,1,57.5
112,304,5119,2,0,P|55:274|159:179,1,268.333333333333
447,277,6159,6,0,L|355:278,1,57.5
195,284,6519,1,0,0:0:0:0:
318,245,6639,1,0,0:0:0:0:
184,240,6759,2,0,L|176:176,1,57.5
396,114,7039,2,0,P|435:147|313:240,1,268.333333333333
70,132,8079,6,0,L|64:54,1,57.5
288,113,8439,1,0,0:0:0:0:
175,123,8559,1,0,0:0:0:0:
288,113,8679,2,0,L|344:170,1,57.5
101,186,8919,2,0,P|73:247|205:315,1,230
338,227,9759,1,0,0:0:0:0:
36,38,9999,5,0,0:0:0:0:
477,318,10719,1,0,0:0:0:0:
80,298,11439,1,0,0:0:0:0:
356,68,11919,2,0,P|413:110|209:313,1,460
92,242,13359,5,0,0:0:0:0:
90,222,13439,1,0,0:0:0:0:
89,203,13519,1,0,0:0:0:0:
87,184,13599,1,0,0:0:0:0:
86,165,13679,1,0,0:0:0:0:
84,146,13759,1,0,0:0:0:0:
237,69,13839,5,0,0:0:0:0:
250,82,13917,1,0,0:0:0:0:
260,98,13996,1,0,0:0:0:0:
265,117,14075,1,0,0:0:0:0:
266,136,14153,1,0,0:0:0:0:
261,154,14232,1,0,0:0:0:0:
202,172,14311,5,0,0:0:0:0:
208,189,14389,1,0,0:0:0:0:
220,204,14468,1,0,0:0:0:0:
237,213,14547,1,0,0:0:0:0:
256,217,14625,1,0,0:0:0:0:
274,213,14704,1,0,0:0:0:0:
332,200,14783,5,0,0:0:0:0:
350,204,14861,1,0,0:0:0:0:
369,209,14940,1,0,0:0:0:0:
375,224,15019,1,0,0:0:0:0:
378,243,15097,1,0,0:0:0:0:
380,262,15176,1,0,0:0:0:0:
323,289,15256,5,0,0:0:0:0:
303,291,15334,1,0,0:0:0:0:
284,294,15413,1,0,0:0:0:0:
265,296,15492,1,0,0:0:0:0:
246,299,15570,1,0,0:0:0:0:
227,301,15649,1,0,0:0:0:0:
170,284,15728,5,0,0:0:0:0:
166,265,15806,1,0,0:0:0:0:
162,246,15885,1,0,0:0:0:0:
220,224,15964,5,0,0:0:0:0:
220,204,16042,1,0,0:0:0:0:
220,185,16121,1,0,0:0:0:0:
332,156,16201,1,0,0:0:0:0:
333,136,16279,1,0,0:0:0:0:
334,117,16358,1,0,0:0:0:0:
273,112,16437,5,0,0:0:0:0:
272,92,16515,1,0,0:0:0:0:
271,73,16594,1,0,0:0:0:0:
75,109,16673,5,0,0:0:0:0:
75,129,16751,1,0,0:0:0:0:
73,148,16830,1,0,0:0:0:0:
132,161,16909,1,0,0:0:0:0:
133,180,16987,1,0,0:0:0:0:
135,199,17066,1,0,0:0:0:0:
213,216,17146,5,0,0:0:0:0:
211,235,17224,1,0,0:0:0:0:
210,254,17303,1,0,0:0:0:0:
156,82,17382,1,0,0:0:0:0:
154,62,17460,1,0,0:0:0:0:
153,43,17539,1,0,0:0:0:0:
232,64,17618,5,0,0:0:0:0:
237,82,17696,1,0,0:0:0:0:
242,100,17775,1,0,0:0:0:0:
247,119,17854,1,0,0:0:0:0:
252,137,17932,1,0,0:0:0:0:
258,156,18011,1,0,0:0:0:0:
263,174,18090,1,0,0:0:0:0:
268,193,18169,1,0,0:0:0:0:
271,207,18247,1,0,0:0:0:0:
290,208,18326,5,0,0:0:0:0:
313,212,18405,1,0,0:0:0:0:
317,231,18484,1,0,0:0:0:0:
321,250,18562,1,0,0:0:0:0:
326,269,18641,1,0,0:0:0:0:
330,287,18720,1,0,0:0:0:0:
334,306,18799,1,0,0:0:0:0:
338,325,18877,1,0,0:0:0:0:
343,343,18956,1,0,0:0:0:0:
287,337,19035,5,0,0:0:0:0:
268,332,19113,1,0,0:0:0:0:
249,327,19192,1,0,0:0:0:0:
231,322,19271,1,0,0:0:0:0:
212,317,19349,1,0,0:0:0:0:
194,312,19428,1,0,0:0:0:0:
129,292,19508,5,0,0:0:0:0:
128,272,19586,1,0,0:0:0:0:
127,253,19665,1,0,0:0:0:0:
126,234,19744,1,0,0:0:0:0:
138,222,19822,1,0,0:0:0:0:
154,213,19901,1,0,0:0:0:0:
210,204,19980,5,0,0:0:0:0:
210,184,20058,1,0,0:0:0:0:
211,165,20137,1,0,0:0:0:0:
211,146,20216,1,0,0:0:0:0:
212,127,20294,1,0,0:0:0:0:
212,108,20373,1,0,0:0:0:0:
266,84,20453,5,0,0:0:0:0:
284,88,20531,1,0,0:0:0:0:
303,93,20610,1,0,0:0:0:0:
303,86,20689,1,0,0:0:0:0:
291,71,20767,1,0,0:0:0:0:
279,56,20846,1,0,0:0:0:0:
342,117,20925,5,0,0:0:0:0:
343,136,21003,1,0,0:0:0:0:
344,155,21082,1,0,0:0:0:0:
345,174,21161,1,0,0:0:0:0:
346,193,21239,1,0,0:0:0:0:
347,212,21318,1,0,0:0:0:0:
146,298,21398,5,0,0:0:0:0:
135,281,21476,1,0,0:0:0:0:
125,265,21555,1,0,0:0:0:0:
117,248,21634,1,0,0:0:0:0:
122,230,21712,1,0,0:0:0:0:
127,211,21791,1,0,0:0:0:0:
189,194,21870,5,0,0:0:0:0:
178,178,21948,1,0,0:0:0:0:
167,162,22027,1,0,0:0:0:0:
157,146,22106,1,0,0:0:0:0:
146,130,22184,1,0,0:0:0:0:
136,114,22263,1,0,0:0:0:0:
198,97,22342,5,0,0:0:0:0:
217,95,22420,1,0,0:0:0:0:
236,94,22499,1,0,0:0:0:0:
255,92,22578,1,0,0:0:0:0:
274,91,22656,1,0,0:0:0:0:
293,89,22735,1,0,0:0:0:0:
349,101,22815,5,0,0:0:0:0:
336,115,22893,1,0,0:0:0:0:
328,132,22972,1,0,0:0:0:0:
325,151,23051,1,0,0:0:0:0:
328,170,23129,1,0,0:0:0:0:
336,187,23208,1,0,0:0:0:0:
348,201,23287,1,0,0:0:0:0:
365,211,23366,1,0,0:0:0:0:
383,216,23444,1,0,0:0:0:0:
324,230,23524,5,0,0:0:0:0:
322,249,23602,1,0,0:0:0:0:
319,270,23681,1,0,0:0:0:0:
208,302,23760,1,0,0:0:0:0:
206,282,23838,1,0,0:0:0:0:
204,263,23917,1,0,0:0:0:0:
143,265,23996,1,0,0:0:0:0:
141,245,24074,1,0,0:0:0:0:
140,226,24153,1,0,0:0:0:0:
292,125,24232,5,0,0:0:0:0:
293,105,24310,1,0,0:0:0:0:
295,86,24389,1,0,0:0:0:0:
358,58,24468,1,0,0:0:0:0:
359,77,24546,1,0,0:0:0:0:
361,96,24625,1,0,0:0:0:0:
276,124,24705,5,0,0:0:0:0:
274,143,24783,1,0,0:0:0:0:
272,162,24862,1,0,0:0:0:0:
339,178,24941,1,0,0:0:0:0:
341,197,25019,1,0,0:0:0:0:
343,216,25098,1,0,0:0:0:0:
279,233,25177,5,0,0:0:0:0:
259,233,25255,1,0,0:0:0:0:
240,233,25334,1,0,0:0:0:0:
221,233,25413,1,0,0:0:0:0:
202,233,25491,1,0,0:0:0:0:
183,233,25570,1,0,0:0:0:0:
119,207,25650,6,0,L|476:181,1,345.000013160706
463,181,26122,2,0,L|134:87,1,287.500010967255
186,102,26594,5,0,0:0:0:0:
185,121,26672,1,0,0:0:0:0:
183,140,26751,1,0,0:0:0:0:
182,159,26830,1,0,0:0:0:0:
181,178,26908,1,0,0:0:0:0:
179,197,26987,1,0,0:0:0:0:
251,205,27067,5,0,0:0:0:0:
264,218,27145,1,0,0:0:0:0:
278,231,27224,1,0,0:0:0:0:
292,244,27303,1,0,0:0:0:0:
306,257,27381,1,0,0:0:0:0:
320,270,27460,1,0,0:0:0:0:
275,298,27539,6,0,P|194:232|363:129,1,345.000013160706
116,73,28090,1,0,0:0:0:0:
193,155,28484,5,0,0:0:0:0:
193,174,28562,1,0,0:0:0:0:
194,193,28641,1,0,0:0:0:0:
195,212,28720,1,0,0:0:0:0:
196,231,28798,1,0,0:0:0:0:
197,250,28877,1,0,0:0:0:0:
254,311,28957,5,0,0:0:0:0:
271,319,29035,1,0,0:0:0:0:
289,325,29114,1,0,0:0:0:0:
308,328,29193,1,0,0:0:0:0:
327,329,29271,1,0,0:0:0:0:
346,327,29350,1,0,0:0:0:0:
364,321,29429,1,0,0:0:0:0:
382,314,29508,1,0,0:0:0:0:
398,303,29586,1,0,0:0:0:0:
412,291,29665,1,0,0:0:0:0:
425,276,29744,1,0,0:0:0:0:
435,260,29823,1,0,0:0:0:0:
443,243,29901,5,0,0:0:0:0:
448,224,29980,1,0,0:0:0:0:
450,205,30059,1,0,0:0:0:0:
449,186,30138,1,0,0:0:0:0:
446,167,30216,1,0,0:0:0:0:
440,149,30295,1,0,0:0:0:0:
431,132,30374,1,0,0:0:0:0:
420,116,30453,1,0,0:0:0:0:
407,103,30531,1,0,0:0:0:0:
392,91,30610,1,0,0:0:0:0:
375,82,30689,1,0,0:0:0:0:
357,75,30768,1,0,0:0:0:0:
338,71,30846,5,0,0:0:0:0:
319,70,30925,1,0,0:0:0:0:
300,71,31004,1,0,0:0:0:0:
226,84,31083,5,0,0:0:0:0:
224,103,31161,1,0,0:0:0:0:
223,122,31240,1,0,0:0:0:0:
296,128,31319,1,0,0:0:0:0:
297,147,31397,1,0,0:0:0:0:
298,166,31476,1,0,0:0:0:0:
229,175,31555,5,0,0:0:0:0:
227,194,31633,1,0,0:0:0:0:
226,213,31712,1,0,0:0:0:0:
386,240,31791,1,0,0:0:0:0:
387,259,31869,1,0,0:0:0:0:
389,278,31948,1,0,0:0:0:0:
323,284,32027,5,0,0:0:0:0:
321,303,32105,1,0,0:0:0:0:
320,322,32184,1,0,0:0:0:0:
256,360,32264,1,0,0:0:0:0:
253,340,32342,1,0,0:0:0:0:
251,321,32421,1,0,0:0:0:0:
320,322,32500,5,0,0:0:0:0:
322,300,32578,1,0,0:0:0:0:
324,281,32657,1,0,0:0:0:0:
92,271,32736,5,0,0:0:0:0:
81,254,32814,1,0,0:0:0:0:
76,236,32893,1,0,0:0:0:0:
74,217,32972,1,0,0:0:0:0:
78,198,33050,1,0,0:0:0:0:
87,181,33129,1,0,0:0:0:0:
148,222,33209,5,0,0:0:0:0:
149,202,33287,1,0,0:0:0:0:
150,183,33366,1,0,0:0:0:0:
152,164,33445,1,0,0:0:0:0:
153,145,33523,1,0,0:0:0:0:
154,126,33602,1,0,0:0:0:0:
216,171,33681,5,0,0:0:0:0:
219,152,33759,1,0,0:0:0:0:
223,133,33838,1,0,0:0:0:0:
227,114,33917,1,0,0:0:0:0:
231,95,33995,1,0,0:0:0:0:
235,77,34074,1,0,0:0:0:0:
176,60,34153,5,0,0:0:0:0:
195,58,34231,1,0,0:0:0:0:
214,57,34310,1,0,0:0:0:0:
233,56,34389,1,0,0:0:0:0:
252,55,34467,1,0,0:0:0:0:
271,54,34546,1,0,0:0:0:0:
344,62,34626,5,0,0:0:0:0:
363,63,34704,1,0,0:0:0:0:
381,68,34783,1,0,0:0:0:0:
397,78,34862,1,0,0:0:0:0:
411,92,34940,1,0,0:0:0:0:
420,108,35019,1,0,0:0:0:0:
425,127,35098,5,0,0:0:0:0:
426,146,35177,1,0,0:0:0:0:
422,164,35255,1,0,0:0:0:0:
413,181,35334,1,0,0:0:0:0:
401,196,35413,1,0,0:0:0:0:
385,207,35492,1,0,0:0:0:0:
368,214,35570,5,0,0:0:0:0:
348,216,35649,1,0,0:0:0:0:
329,213,35728,1,0,0:0:0:0:
312,206,35807,1,0,0:0:0:0:
156,94,36043,5,0,0:0:0:0:
140,104,36121,1,0,0:0:0:0:
128,119,36200,1,0,0:0:0:0:
121,137,36279,1,0,0:0:0:0:
120,156,36357,1,0,0:0:0:0:
125,174,36436,1,0,0:0:0:0:
197,156,36516,5,0,0:0:0:0:
202,174,36594,1,0,0:0:0:0:
202,193,36673,1,0,0:0:0:0:
198,212,36752,1,0,0:0:0:0:
190,229,36830,1,0,0:0:0:0:
178,244,36909,1,0,0:0:0:0:
115,287,36988,5,0,0:0:0:0:
133,293,37066,1,0,0:0:0:0:
151,299,37145,1,0,0:0:0:0:
169,306,37224,1,0,0:0:0:0:
187,312,37302,1,0,0:0:0:0:
205,318,37381,1,0,0:0:0:0:
265,334,37461,5,0,0:0:0:0:
283,330,37539,1,0,0:0:0:0:
302,327,37618,1,0,0:0:0:0:
321,323,37697,1,0,0:0:0:0:
340,320,37775,1,0,0:0:0:0:
359,316,37854,1,0,0:0:0:0:
284,268,37933,5,0,0:0:0:0:
302,264,38011,1,0,0:0:0:0:
321,260,38090,1,0,0:0:0:0:
340,256,38169,1,0,0:0:0:0:
359,252,38247,1,0,0:0:0:0:
377,248,38326,1,0,0:0:0:0:
328,200,38405,5,0,0:0:0:0:
326,180,38483,1,0,0:0:0:0:
325,161,38562,1,0,0:0:0:0:
266,56,38642,5,0,0:0:0:0:
264,75,38720,1,0,0:0:0:0:
263,94,38799,1,0,0:0:0:0:
338,125,38878,1,0,0:0:0:0:
339,105,38956,1,0,0:0:0:0:
340,86,39035,1,0,0:0:0:0:
413,59,39114,5,0,0:0:0:0:
414,78,39192,1,0,0:0:0:0:
416,97,39271,1,0,0:0:0:0:
101,268,39350,1,0,0:0:0:0:
99,248,39428,1,0,0:0:0:0:
97,229,39507,1,0,0:0:0:0:
166,227,39587,5,0,0:0:0:0:
166,207,39665,1,0,0:0:0:0:
167,188,39744,1,0,0:0:0:0:
87,172,39823,1,0,0:0:0:0:
85,152,39901,1,0,0:0:0:0:
83,133,39980,1,0,0:0:0:0:
153,126,40059,5,0,0:0:0:0:
154,106,40137,1,0,0:0:0:0:
155,87,40216,1,0,0:0:0:0:
226,54,40295,1,0,0:0:0:0:
245,55,40373,1,0,0:0:0:0:
263,60,40452,1,0,0:0:0:0:
280,68,40531,1,0,0:0:0:0:
295,80,40609,1,0,0:0:0:0:
308,94,40688,1,0,0:0:0:0:
387,92,40768,5,0,0:0:0:0:
388,110,40846,1,0,0:0:0:0:
385,129,40925,1,0,0:0:0:0:
375,146,41004,1,0,0:0:0:0:
361,158,41082,1,0,0:0:0:0:
344,166,41161,1,0,0:0:0:0:
445,199,41240,5,0,0:0:0:0:
440,217,41318,1,0,0:0:0:0:
431,234,41397,1,0,0:0:0:0:
418,248,41476,1,0,0:0:0:0:
402,258,41554,1,0,0:0:0:0:
383,264,41633,1,0,0:0:0:0:
303,301,41713,5,0,0:0:0:0:
285,293,41791,1,0,0:0:0:0:
274,277,41870,1,0,0:0:0:0:
273,258,41949,1,0,0:0:0:0:
281,241,42027,1,0,0:0:0:0:
297,231,42106,1,0,0:0:0:0:
214,226,42185,5,0,0:0:0:0:
212,206,42263,1,0,0:0:0:0:
211,187,42342,1,0,0:0:0:0:
210,168,42421,1,0,0:0:0:0:
209,149,42499,1,0,0:0:0:0:
208,130,42578,1,0,0:0:0:0:
132,74,42657,5,0,0:0:0:0:
118,87,42735,1,0,0:0:0:0:
105,101,42814,1,0,0:0:0:0:
96,117,42893,1,0,0:0:0:0:
95,136,42971,1,0,0:0:0:0:
95,155,43050,1,0,0:0:0:0:
173,204,43130,5,0,0:0:0:0:
169,222,43208,1,0,0:0:0:0:
161,240,43287,1,0,0:0:0:0:
150,255,43366,1,0,0:0:0:0:
135,268,43444,1,0,0:0:0:0:
119,277,43523,1,0,0:0:0:0:
63,302,43602,6,0,P|131:266|252:286,1,172.5
336,304,44075,2,0,P|384:264|349:142,1,172.5
274,133,44551,2,0,L|472:158,1,172.5
338,194,45027,2,0,L|162:212,1,172.5
316,261,45503,2,0,L|507:288,1,172.5
349,340,45979,1,0,0:0:0:0:
397,63,46217,6,0,L|270:83,2,115
180,164,46932,2,0,L|312:175,1,115
143,232,47408,2,0,L|24:249,1,115
192,318,47884,6,0,B|245:283|262:233|253:168|209:110|126:117|67:158|67:158|132:88|205:55|275:52|352:76,1,632.5
403,103,49313,2,0,P|349:138|205:175,1,172.5
316,181,49789,2,0,P|354:243|107:306,1,460
423,277,51217,6,0,P|429:208|318:126,1,172.5
275,121,51694,2,0,L|59:87,1,172.5
209,169,52170,2,0,L|380:150,1,172.5
241,236,52646,2,0,L|57:208,1,172.5
202,298,53122,2,0,P|280:299|296:184,1,172.5
183,147,53598,1,0,0:0:0:0:
336,77,53836,6,0,L|215:58,2,115
139,150,54551,2,0,L|12:172,1,115
200,253,55027,2,0,L|332:277,1,115
468,90,55503,6,0,B|470:169|470:169|301:168,2,230
255,197,56932,1,0,0:0:0:0:
44,90,57408,6,0,B|42:169|42:169|211:168,2,230
339,89,58836,5,0,0:0:0:0:
341,108,58915,1,0,0:0:0:0:
343,127,58994,1,0,0:0:0:0:
345,146,59074,1,0,0:0:0:0:
347,165,59153,1,0,0:0:0:0:
349,184,59232,1,0,0:0:0:0:
117,191,59313,5,0,0:0:0:0:
106,206,59391,1,0,0:0:0:0:
99,224,59469,1,0,0:0:0:0:
98,243,59548,1,0,0:0:0:0:
102,262,59626,1,0,0:0:0:0:
112,279,59705,1,0,0:0:0:0:
174,296,59783,5,0,0:0:0:0:
192,292,59861,1,0,0:0:0:0:
211,289,59939,1,0,0:0:0:0:
230,285,60018,1,0,0:0:0:0:
249,282,60096,1,0,0:0:0:0:
268,278,60175,1,0,0:0:0:0:
342,266,60254,5,0,0:0:0:0:
331,249,60332,1,0,0:0:0:0:
321,233,60410,1,0,0:0:0:0:
310,217,60489,1,0,0:0:0:0:
300,201,60567,1,0,0:0:0:0:
290,185,60646,1,0,0:0:0:0:
214,185,60724,5,0,0:0:0:0:
210,166,60802,1,0,0:0:0:0:
213,147,60880,1,0,0:0:0:0:
222,130,60959,1,0,0:0:0:0:
236,117,61037,1,0,0:0:0:0:
253,109,61116,1,0,0:0:0:0:
329,109,61195,5,0,0:0:0:0:
331,90,61273,1,0,0:0:0:0:
334,71,61351,1,0,0:0:0:0:
253,71,61430,1,0,0:0:0:0:
251,51,61508,1,0,0:0:0:0:
250,32,61586,1,0,0:0:0:0:
176,96,61665,5,0,0:0:0:0:
173,115,61743,1,0,0:0:0:0:
171,134,61821,1,0,0:0:0:0:
248,151,61901,5,0,0:0:0:0:
249,170,61979,1,0,0:0:0:0:
251,189,62057,1,0,0:0:0:0:
461,231,62136,5,0,0:0:0:0:
461,250,62214,1,0,0:0:0:0:
462,269,62292,1,0,0:0:0:0:
383,309,62371,1,0,0:0:0:0:
382,289,62449,1,0,0:0:0:0:
381,270,62527,1,0,0:0:0:0:
302,302,62607,5,0,0:0:0:0:
300,321,62685,1,0,0:0:0:0:
299,340,62763,1,0,0:0:0:0:
383,309,62842,1,0,0:0:0:0:
382,289,62920,1,0,0:0:0:0:
381,270,62998,1,0,0:0:0:0:
303,302,63077,5,0,0:0:0:0:
286,292,63155,1,0,0:0:0:0:
271,280,63233,1,0,0:0:0:0:
259,265,63312,1,0,0:0:0:0:
249,249,63390,1,0,0:0:0:0:
242,231,63469,1,0,0:0:0:0:
238,212,63547,5,0,0:0:0:0:
237,193,63626,1,0,0:0:0:0:
240,174,63704,1,0,0:0:0:0:
245,156,63782,1,0,0:0:0:0:
254,139,63861,1,0,0:0:0:0:
265,123,63939,1,0,0:0:0:0:
279,110,64018,5,0,0:0:0:0:
295,99,64096,1,0,0:0:0:0:
312,91,64175,1,0,0:0:0:0:
331,86,64253,1,0,0:0:0:0:
350,84,64331,1,0,0:0:0:0:
369,86,64410,1,0,0:0:0:0:
310,170,64489,5,0,0:0:0:0:
295,182,64567,1,0,0:0:0:0:
278,191,64645,1,0,0:0:0:0:
260,196,64724,1,0,0:0:0:0:
241,198,64802,1,0,0:0:0:0:
222,195,64881,1,0,0:0:0:0:
154,160,64960,5,0,0:0:0:0:
152,179,65038,1,0,0:0:0:0:
150,198,65116,1,0,0:0:0:0:
149,217,65195,1,0,0:0:0:0:
147,236,65273,1,0,0:0:0:0:
146,255,65352,1,0,0:0:0:0:
223,291,65430,5,0,0:0:0:0:
222,271,65508,1,0,0:0:0:0:
222,252,65586,1,0,0:0:0:0:
222,233,65665,1,0,0:0:0:0:
222,214,65743,1,0,0:0:0:0:
222,195,65822,1,0,0:0:0:0:
294,223,65901,5,0,0:0:0:0:
295,242,65979,1,0,0:0:0:0:
296,261,66057,1,0,0:0:0:0:
298,280,66136,1,0,0:0:0:0:
299,299,66214,1,0,0:0:0:0:
300,318,66293,1,0,0:0:0:0:
224,293,66371,5,0,0:0:0:0:
204,291,66449,1,0,0:0:0:0:
185,289,66527,1,0,0:0:0:0:
166,287,66606,1,0,0:0:0:0:
147,285,66684,1,0,0:0:0:0:
128,283,66763,1,0,0:0:0:0:
190,261,66842,5,0,0:0:0:0:
208,256,66920,1,0,0:0:0:0:
225,248,66998,1,0,0:0:0:0:
240,236,67077,1,0,0:0:0:0:
253,221,67155,1,0,0:0:0:0:
261,204,67234,1,0,0:0:0:0:
266,186,67312,5,0,0:0:0:0:
267,167,67391,1,0,0:0:0:0:
264,148,67469,1,0,0:0:0:0:
257,130,67547,1,0,0:0:0:0:
247,114,67626,1,0,0:0:0:0:
233,101,67704,1,0,0:0:0:0:
217,91,67783,5,0,0:0:0:0:
199,85,67861,1,0,0:0:0:0:
180,82,67940,1,0,0:0:0:0:
160,84,68018,1,0,0:0:0:0:
142,90,68096,1,0,0:0:0:0:
126,99,68175,1,0,0:0:0:0:
111,112,68253,5,0,0:0:0:0:
100,128,68332,1,0,0:0:0:0:
93,145,68410,1,0,0:0:0:0:
89,164,68489,1,0,0:0:0:0:
89,183,68567,1,0,0:0:0:0:
94,202,68645,1,0,0:0:0:0:
102,219,68724,1,0,0:0:0:0:
114,234,68802,1,0,0:0:0:0:
128,246,68881,1,0,0:0:0:0:
191,182,68960,5,0,0:0:0:0:
192,201,69038,1,0,0:0:0:0:
193,220,69116,1,0,0:0:0:0:
267,213,69195,1,0,0:0:0:0:
268,232,69273,1,0,0:0:0:0:
269,251,69351,1,0,0:0:0:0:
201,173,69430,5,0,0:0:0:0:
202,153,69508,1,0,0:0:0:0:
204,134,69586,1,0,0:0:0:0:
410,88,69665,1,0,0:0:0:0:
412,106,69743,1,0,0:0:0:0:
415,125,69821,1,0,0:0:0:0:
340,136,69901,5,0,0:0:0:0:
338,155,69979,1,0,0:0:0:0:
336,174,70057,1,0,0:0:0:0:
417,180,70136,1,0,0:0:0:0:
415,199,70214,1,0,0:0:0:0:
414,218,70292,1,0,0:0:0:0:
343,238,70371,5,0,0:0:0:0:
345,256,70449,1,0,0:0:0:0:
348,275,70527,1,0,0:0:0:0:
269,289,70607,1,0,0:0:0:0:
251,295,70685,1,0,0:0:0:0:
232,299,70763,1,0,0:0:0:0:
213,300,70842,1,0,0:0:0:0:
194,298,70920,1,0,0:0:0:0:
175,293,70999,1,0,0:0:0:0:
103,277,71077,5,0,0:0:0:0:
106,258,71155,1,0,0:0:0:0:
109,239,71233,1,0,0:0:0:0:
112,220,71312,1,0,0:0:0:0:
116,201,71390,1,0,0:0:0:0:
119,182,71469,1,0,0:0:0:0:
193,182,71548,5,0,0:0:0:0:
195,163,71626,1,0,0:0:0:0:
198,144,71704,1,0,0:0:0:0:
200,125,71783,1,0,0:0:0:0:
203,106,71861,1,0,0:0:0:0:
206,87,71940,1,0,0:0:0:0:
281,79,72018,5,0,0:0:0:0:
299,83,72096,1,0,0:0:0:0:
310,98,72174,1,0,0:0:0:0:
309,117,72253,1,0,0:0:0:0:
297,131,72331,1,0,0:0:0:0:
279,134,72410,1,0,0:0:0:0:
203,136,72489,5,0,0:0:0:0:
207,154,72567,1,0,0:0:0:0:
211,173,72645,1,0,0:0:0:0:
216,192,72724,1,0,0:0:0:0:
220,210,72802,1,0,0:0:0:0:
224,229,72881,1,0,0:0:0:0:
297,247,72960,5,0,0:0:0:0:
301,228,73038,1,0,0:0:0:0:
306,209,73116,1,0,0:0:0:0:
311,191,73195,1,0,0:0:0:0:
316,172,73273,1,0,0:0:0:0:
321,154,73352,1,0,0:0:0:0:
396,147,73430,5,0,0:0:0:0:
401,165,73508,1,0,0:0:0:0:
406,183,73586,1,0,0:0:0:0:
411,202,73665,1,0,0:0:0:0:
417,220,73743,1,0,0:0:0:0:
422,239,73822,1,0,0:0:0:0:
354,272,73901,6,0,P|299:276|150:223,1,201.25
463,108,74425,2,0,P|382:77|268:60,1,191.666666666667
58,79,74965,1,0,0:0:0:0:
223,131,75145,1,0,0:0:0:0:
58,79,75305,2,0,P|114:128|199:134,1,153.333333333333
302,197,76105,5,0,0:0:0:0:
60,282,76345,2,0,L|191:291,1,115
291,295,76705,1,0,0:0:0:0:
174,289,76825,2,0,L|94:283,1,57.5
412,261,77065,6,0,L|421:201,1,57.5
309,171,77305,2,0,P|270:140|356:116,1,172.5
420,203,77785,1,0,0:0:0:0:
226,220,78025,6,0,L|120:228,1,86.25
420,203,78265,2,0,P|424:143|301:70,1,172.5
166,62,78745,2,0,L|311:69,1,115
90,62,79225,2,0,L|71:198,1,115
307,191,79945,5,0,0:0:0:0:
179,193,80065,1,0,0:0:0:0:
446,186,80185,2,0,L|454:313,1,115
297,298,80545,2,0,L|166:295,1,115
262,240,80905,6,0,L|327:228,1,57.5
183,190,81145,2,0,L|68:169,1,115
212,124,81505,2,0,L|346:107,1,115
89,62,81865,6,0,L|83:136,1,57.5
410,165,82105,2,0,P|452:217|359:261,1,172.5
115,250,82585,1,0,0:0:0:0:
224,197,82825,1,0,0:0:0:0:
48,64,83065,6,0,L|194:83,1,115
354,101,83785,1,0,0:0:0:0:
240,162,84025,2,0,L|361:176,1,115
292,205,84385,1,0,0:0:0:0:
81,237,84505,2,0,B|74:312|74:312|106:362,1,115
351,332,84985,2,0,L|357:191,1,115
269,206,85345,2,0,P|197:176|157:125,1,115
341,60,85705,6,0,L|353:140,1,57.5
103,82,85945,2,0,P|67:136|123:226,1,172.5
323,250,86425,2,0,L|178:263,1,115
410,298,86905,1,0,0:0:0:0:
45,277,87145,1,0,0:0:0:0:
280,100,87625,5,0,0:0:0:0:
166,111,87745,1,0,0:0:0:0:
400,80,87842,2,0,P|412:150|385:227,1,115
298,208,88194,2,0,L|130:216,1,115
281,255,88547,6,0,L|341:272,1,57.5
224,319,88783,2,0,L|81:298,1,115
211,260,89136,2,0,P|314:243|262:74,1,287.5
80,84,89959,5,0,0:0:0:0:
164,100,90077,1,0,0:0:0:0:
80,84,90194,2,0,L|231:92,1,115
298,134,90587,2,0,L|181:141,1,115
269,186,90979,2,0,L|388:193,1,115
303,276,91371,6,0,L|382:270,1,57.5
146,285,91685,2,0,P|105:250|132:183,1,115
210,138,92077,1,0,0:0:0:0:
373,77,92312,5,0,0:0:0:0:
380,94,92430,1,0,0:0:0:0:
386,109,92547,1,0,0:0:0:0:
143,69,92783,6,0,P|97:110|326:325,1,517.5
202,255,93959,6,0,L|352:243,1,115
161,178,94312,2,0,L|302:161,1,115
120,100,94665,2,0,L|310:54,1,172.5
439,95,95253,6,0,P|453:163|363:237,1,172.5
222,266,95842,2,0,L|381:288,1,115
222,266,96194,2,0,P|160:250|307:123,1,402.5
386,150,97253,1,0,0:0:0:0:
186,175,97410,6,0,B|97:175|97:175|187:174|187:174|97:174,1,268.333333333333
290,178,98194,2,0,P|326:222|219:324,1,230
98,220,98900,2,0,L|95:126,1,76.6666666666667
411,97,99136,1,0,0:0:0:0:
231,52,99371,1,0,0:0:0:0:
354,148,99528,5,0,0:0:0:0:
140,216,99763,1,0,0:0:0:0:
383,298,100077,1,0,0:0:0:0:
248,257,100312,5,0,0:0:0:0:
300,234,100429,1,0,0:0:0:0:
331,187,100547,1,0,0:0:0:0:
332,130,100664,1,0,0:0:0:0:
302,82,100782,1,0,0:0:0:0:
251,58,100900,1,0,0:0:0:0:
195,65,101017,1,0,0:0:0:0:
114,131,101175,6,0,L|111:214,1,57.5
188,177,101371,2,0,L|191:255,1,57.5
266,232,101547,2,0,L|259:302,1,57.5
188,302,101724,2,0,L|191:367,1,57.5
115,303,101900,2,0,L|110:228,1,57.5
188,302,102077,2,0,L|196:227,1,57.5
266,232,102253,6,0,L|271:185,1,28.75
144,168,102430,2,0,L|141:137,1,28.75
260,104,102606,2,0,L|265:69,1,28.75
385,135,102783,2,0,P|407:186|379:256,1,115
266,232,103136,2,0,P|247:284|380:227,1,345
256,192,104077,12,0,104547,0:0:0:0:
159,87,104753,5,0,0:0:0:0:
296,192,105105,1,0,0:0:0:0:
393,191,105223,1,0,0:0:0:0:
248,307,105458,1,0,0:0:0:0:
57,194,105694,5,0,0:0:0:0:
197,79,105929,2,0,L|126:79,1,57.5
197,79,106164,1,0,0:0:0:0:
156,117,106281,1,0,0:0:0:0:
156,173,106399,1,0,0:0:0:0:
198,211,106516,1,0,0:0:0:0:
410,100,106635,6,0,L|416:170,1,57.5
344,174,106870,2,0,L|431:172,1,57.5
310,238,107105,2,0,L|233:240,1,57.5
310,238,107341,2,0,P|318:322|238:375,1,172.5
159,312,107811,6,0,L|231:306,1,57.5
283,220,108047,2,0,B|294:163|294:163|256:114,1,115
185,87,108400,1,0,0:0:0:0:
449,198,108517,6,0,L|452:133,1,57.5
360,112,108753,2,0,L|485:94,1,115
370,170,109105,2,0,P|282:202|271:246,1,115
351,247,109458,6,0,L|222:267,1,115
133,223,109811,2,0,L|126:161,1,57.5
217,125,110047,2,0,L|338:36,1,115
56,78,110400,6,0,L|51:201,1,115
156,175,110753,2,0,L|176:322,1,115
67,292,111105,2,0,L|61:352,1,57.5
175,344,111341,2,0,L|312:311,1,115
185,265,111694,2,0,L|62:247,1,115
177,184,112047,2,0,L|235:168,1,57.5
442,76,112282,6,0,L|452:153,1,57.5
370,156,112517,2,0,P|418:200|389:250,1,115
321,255,112870,2,0,L|386:263,1,57.5
297,278,113105,6,0,L|295:344,1,57.5
66,228,113341,2,0,P|58:158|154:117,1,172.5
232,49,113811,2,0,L|166:44,2,57.5
444,219,114164,6,0,P|458:281|430:330,1,115
321,275,114517,2,0,L|426:255,1,57.5
247,165,114753,2,0,P|158:110|113:107,1,115
63,75,115105,2,0,B|50:135|50:135|107:196,1,115
166,181,115458,2,0,L|172:241,1,57.5
253,242,115694,2,0,L|404:223,1,115
76,267,116047,6,0,P|72:191|141:138,1,115
207,129,116400,1,0,0:0:0:0:
120,82,116517,2,0,P|102:146|190:230,1,172.5
254,232,116988,2,0,L|178:254,1,57.5
278,271,117223,2,0,L|340:288,1,57.5
264,291,117458,2,0,L|201:309,1,57.5
289,327,117694,2,0,L|343:344,1,57.5
11,355,117929,1,0,0:0:0:0:
134,193,118164,6,0,L|66:177,1,57.5
279,120,118400,1,0,0:0:0:0:
134,193,118556,1,0,0:0:0:0:
305,266,118792,1,0,0:0:0:0:
98,62,119027,1,0,0:0:0:0:
338,53,119262,1,0,0:0:0:0:
163,326,119498,1,0,0:0:0:0:
394,311,119733,1,0,0:0:0:0:
323,237,119811,6,0,L|445:238,1,115
323,237,120164,1,0,0:0:0:0:
222,238,120282,2,0,P|132:202|123:183,1,115
230,141,120635,1,0,0:0:0:0:
154,89,120753,2,0,L|260:76,1,57.5
458,55,120988,5,0,0:0:0:0:
342,64,121145,1,0,0:0:0:0:
458,55,121302,1,0,0:0:0:0:
342,64,121458,1,0,0:0:0:0:
467,165,121694,5,0,0:0:0:0:
391,257,121772,2,0,L|291:267,1,76.6666666666667
160,281,122086,1,0,0:0:0:0:
284,187,122243,2,0,L|181:179,1,76.6666666666667
63,170,122556,1,0,0:0:0:0:
174,94,122713,2,0,L|159:57,1,38.3333333333333
369,54,122870,5,0,0:0:0:0:
423,70,122987,1,0,0:0:0:0:
467,107,123105,1,0,0:0:0:0:
493,157,123222,1,0,0:0:0:0:
498,214,123340,1,0,0:0:0:0:
480,268,123458,1,0,0:0:0:0:
111,288,123576,6,0,L|233:274,1,115
144,214,123929,1,0,0:0:0:0:
228,153,124047,2,0,L|96:141,2,115
411,131,124753,6,0,L|478:122,1,57.5
356,213,124988,2,0,L|487:195,1,115
163,81,125458,2,0,P|66:87|105:199,1,230
318,240,126164,1,0,0:0:0:0:
249,261,126282,1,0,0:0:0:0:
318,240,126400,1,0,0:0:0:0:
98,307,126635,6,0,L|92:227,1,57.5
176,242,126870,2,0,L|182:178,1,57.5
91,165,127105,2,0,L|82:98,1,57.5
245,47,127341,2,0,L|372:32,2,115
119,87,128047,5,0,0:0:0:0:
51,97,128164,1,0,0:0:0:0:
119,87,128282,1,0,0:0:0:0:
256,192,128517,6,0,L|186:180,1,57.5
313,202,128753,2,0,L|170:176,1,115
376,297,129223,2,0,L|261:307,2,115
72,144,129929,5,0,0:0:0:0:
141,122,130047,1,0,0:0:0:0:
72,144,130164,1,0,0:0:0:0:
286,132,130400,6,0,L|357:138,1,57.5
237,190,130635,2,0,L|100:206,1,115
447,193,131105,2,0,P|485:252|341:314,1,230
181,311,131811,1,0,0:0:0:0:
330,211,132282,6,0,L|335:135,1,57.5
137,117,132517,2,0,L|280:93,1,115
438,158,132988,2,0,P|460:226|358:276,1,172.5
256,289,133451,5,0,0:0:0:0:
258,234,133566,1,0,0:0:0:0:
308,211,133682,1,0,0:0:0:0:
351,244,133798,1,0,0:0:0:0:
342,298,133914,1,0,0:0:0:0:
291,320,134030,1,0,0:0:0:0:
239,307,134146,5,0,0:0:0:0:
219,253,134261,1,0,0:0:0:0:
239,201,134377,1,0,0:0:0:0:
288,173,134493,1,0,0:0:0:0:
343,184,134609,1,0,0:0:0:0:
379,228,134725,1,0,0:0:0:0:
377,284,134840,1,0,0:0:0:0:
82,203,135188,6,0,P|105:138|462:251,1,575
93,203,135304,2,0,L|160:92,1,115
224,48,135652,2,0,L|366:62,1,115
388,84,135999,2,0,P|450:205|454:255,1,172.5
445,128,136115,2,0,L|436:249,1,115
447,238,136347,2,0,P|437:305|376:325,1,115
165,333,136694,6,0,P|84:267|258:337,1,862.5
103,299,136810,2,0,L|77:166,1,115
103,128,137157,2,0,B|103:58|103:58|122:98|122:98|141:41,1,172.5
237,34,137621,2,0,B|367:60|367:60|359:156,1,172.5
353,166,138084,2,0,B|357:280|357:280|282:287,1,172.5
96,285,138547,6,0,B|16:107|254:11|254:11|508:146|414:333|187:257,1,862.5
78,189,138779,2,0,L|139:56,1,115
238,19,139242,2,0,L|361:31,1,115
391,102,139706,2,0,L|361:262,1,115
346,234,140053,2,0,L|267:278,1,57.5
96,285,140401,6,0,B|122:202|176:143|271:129|271:129|131:144|56:109|33:49|33:49|194:32|286:37|416:87,1,862.5
153,198,140632,2,0,L|178:93,1,57.5
272,132,140864,2,0,L|136:112,1,115
45,101,141327,2,0,B|44:41|44:41|115:41,1,115
224,39,141791,2,0,L|353:33,1,115
296,131,142254,6,0,B|219:300|394:345|517:267|495:51|323:1|145:76|40:136|24:245|89:298|163:316|281:299,1,862.5
310,257,142486,2,0,L|399:143,1,115
352,124,142949,2,0,L|227:85,1,115
123,146,143412,2,0,L|113:285,1,115
157,289,143760,2,0,L|228:283,1,57.5
365,302,144107,6,0,B|383:191|375:127|265:61|168:63|85:93|32:154|32:154|70:174|148:204|302:185|338:144|338:144|378:91,1,862.5
362,253,144223,2,0,L|342:133,1,115
271,94,144571,2,0,L|203:92,1,57.5
165,92,144802,2,0,L|106:101,1,57.5
65,122,145034,2,0,L|81:185,1,57.5
89,181,145265,2,0,L|244:172,1,115
250,180,145613,2,0,L|304:138,1,57.5
261,303,145960,6,0,P|196:260|338:308,1,862.5
177,212,146192,2,0,L|175:148,1,57.5
171,106,146424,2,0,L|251:22,1,115
364,28,146887,2,0,L|453:123,1,115
444,187,147350,2,0,L|406:313,1,115
26,306,147784,1,0,0:0:0:0:
256,42,148732,6,0,P|358:56|331:328,1,402.5
119,307,149723,6,0,P|78:242|170:196,1,172.5
257,124,150195,2,0,L|130:106,1,115
286,206,150667,1,0,0:0:0:0:
160,282,150825,1,0,0:0:0:0:
353,312,151061,1,0,0:0:0:0:
492,163,151140,1,0,0:0:0:0:
288,41,151376,5,0,0:0:0:0:
50,199,151612,1,0,0:0:0:0:
221,312,151848,5,0,0:0:0:0:
224,293,151926,1,0,0:0:0:0:
227,274,152005,1,0,0:0:0:0:
294,262,152085,1,0,0:0:0:0:
296,243,152163,1,0,0:0:0:0:
299,224,152242,1,0,0:0:0:0:
368,210,152321,5,0,0:0:0:0:
363,191,152399,1,0,0:0:0:0:
358,172,152478,1,0,0:0:0:0:
160,163,152557,1,0,0:0:0:0:
155,144,152635,1,0,0:0:0:0:
151,125,152714,1,0,0:0:0:0:
221,110,152793,5,0,0:0:0:0:
223,91,152871,1,0,0:0:0:0:
226,72,152950,1,0,0:0:0:0:
159,164,153030,1,0,0:0:0:0:
155,145,153108,1,0,0:0:0:0:
152,126,153187,1,0,0:0:0:0:
221,110,153266,5,0,0:0:0:0:
223,129,153344,1,0,0:0:0:0:
225,148,153423,1,0,0:0:0:0:
299,98,153502,5,0,0:0:0:0:
305,115,153580,1,0,0:0:0:0:
312,133,153659,1,0,0:0:0:0:
319,151,153738,1,0,0:0:0:0:
326,169,153816,1,0,0:0:0:0:
333,187,153895,1,0,0:0:0:0:
263,198,153974,5,0,0:0:0:0:
261,217,154052,1,0,0:0:0:0:
260,236,154131,1,0,0:0:0:0:
258,255,154210,1,0,0:0:0:0:
257,274,154288,1,0,0:0:0:0:
255,293,154367,1,0,0:0:0:0:
176,316,154447,5,0,0:0:0:0:
174,296,154525,1,0,0:0:0:0:
172,277,154604,1,0,0:0:0:0:
170,258,154683,1,0,0:0:0:0:
169,239,154761,1,0,0:0:0:0:
167,220,154840,1,0,0:0:0:0:
248,187,154919,5,0,0:0:0:0:
248,167,154997,1,0,0:0:0:0:
249,148,155076,1,0,0:0:0:0:
250,129,155155,1,0,0:0:0:0:
251,110,155233,1,0,0:0:0:0:
252,91,155312,1,0,0:0:0:0:
336,82,155392,5,0,0:0:0:0:
354,84,155470,1,0,0:0:0:0:
373,90,155549,1,0,0:0:0:0:
390,98,155628,1,0,0:0:0:0:
405,110,155706,1,0,0:0:0:0:
418,124,155785,1,0,0:0:0:0:
429,140,155864,5,0,0:0:0:0:
436,157,155943,1,0,0:0:0:0:
441,176,156021,1,0,0:0:0:0:
442,195,156100,1,0,0:0:0:0:
439,214,156179,1,0,0:0:0:0:
434,233,156258,1,0,0:0:0:0:
426,250,156336,5,0,0:0:0:0:
414,265,156415,1,0,0:0:0:0:
400,278,156494,1,0,0:0:0:0:
385,289,156573,1,0,0:0:0:0:
367,297,156651,1,0,0:0:0:0:
348,302,156730,1,0,0:0:0:0:
260,308,156809,5,0,0:0:0:0:
258,288,156887,1,0,0:0:0:0:
256,269,156966,1,0,0:0:0:0:
254,250,157045,1,0,0:0:0:0:
253,231,157123,1,0,0:0:0:0:
251,212,157202,1,0,0:0:0:0:
61,256,157282,5,0,0:0:0:0:
50,239,157360,1,0,0:0:0:0:
42,222,157439,1,0,0:0:0:0:
36,204,157518,1,0,0:0:0:0:
34,185,157596,1,0,0:0:0:0:
33,166,157675,1,0,0:0:0:0:
36,147,157754,5,0,0:0:0:0:
42,128,157833,1,0,0:0:0:0:
50,111,157911,1,0,0:0:0:0:
60,95,157990,1,0,0:0:0:0:
73,81,158069,1,0,0:0:0:0:
87,68,158148,1,0,0:0:0:0:
103,58,158226,5,0,0:0:0:0:
121,50,158305,1,0,0:0:0:0:
139,45,158384,1,0,0:0:0:0:
158,43,158463,1,0,0:0:0:0:
177,43,158541,1,0,0:0:0:0:
196,46,158620,1,0,0:0:0:0:
215,52,158699,5,0,0:0:0:0:
232,60,158778,1,0,0:0:0:0:
248,71,158856,1,0,0:0:0:0:
262,84,158935,1,0,0:0:0:0:
274,99,159014,1,0,0:0:0:0:
284,115,159093,1,0,0:0:0:0:
291,133,159171,1,0,0:0:0:0:
143,212,159408,5,0,0:0:0:0:
141,231,159486,1,0,0:0:0:0:
140,250,159565,1,0,0:0:0:0:
212,256,159644,1,0,0:0:0:0:
212,275,159722,1,0,0:0:0:0:
213,294,159801,1,0,0:0:0:0:
144,299,159880,5,0,0:0:0:0:
140,317,159958,1,0,0:0:0:0:
137,336,160037,1,0,0:0:0:0:
385,258,160116,1,0,0:0:0:0:
386,238,160194,1,0,0:0:0:0:
388,219,160273,1,0,0:0:0:0:
316,209,160352,5,0,0:0:0:0:
313,189,160430,1,0,0:0:0:0:
311,170,160509,1,0,0:0:0:0:
385,155,160589,1,0,0:0:0:0:
385,135,160667,1,0,0:0:0:0:
385,116,160746,1,0,0:0:0:0:
457,113,160825,5,0,0:0:0:0:
459,93,160903,1,0,0:0:0:0:
461,74,160982,1,0,0:0:0:0:
166,54,161061,1,0,0:0:0:0:
146,52,161139,1,0,0:0:0:0:
128,57,161218,1,0,0:0:0:0:
112,67,161297,1,0,0:0:0:0:
99,81,161375,1,0,0:0:0:0:
92,99,161454,1,0,0:0:0:0:
168,133,161534,5,0,0:0:0:0:
169,152,161612,1,0,0:0:0:0:
170,171,161691,1,0,0:0:0:0:
171,190,161770,1,0,0:0:0:0:
172,209,161848,1,0,0:0:0:0:
173,228,161927,1,0,0:0:0:0:
97,213,162006,5,0,0:0:0:0:
95,232,162084,1,0,0:0:0:0:
93,251,162163,1,0,0:0:0:0:
91,270,162242,1,0,0:0:0:0:
89,289,162320,1,0,0:0:0:0:
87,308,162399,1,0,0:0:0:0:
311,310,162478,5,0,0:0:0:0:
328,302,162556,1,0,0:0:0:0:
346,295,162635,1,0,0:0:0:0:
364,288,162714,1,0,0:0:0:0:
382,281,162792,1,0,0:0:0:0:
400,274,162871,1,0,0:0:0:0:
311,224,162951,5,0,0:0:0:0:
308,205,163029,1,0,0:0:0:0:
305,186,163108,1,0,0:0:0:0:
303,167,163187,1,0,0:0:0:0:
300,148,163265,1,0,0:0:0:0:
297,129,163344,1,0,0:0:0:0:
377,126,163423,5,0,0:0:0:0:
378,106,163501,1,0,0:0:0:0:
379,87,163580,1,0,0:0:0:0:
380,68,163659,1,0,0:0:0:0:
382,49,163737,1,0,0:0:0:0:
383,30,163816,1,0,0:0:0:0:
300,28,163896,5,0,0:0:0:0:
280,29,163974,1,0,0:0:0:0:
261,31,164053,1,0,0:0:0:0:
242,33,164132,1,0,0:0:0:0:
223,35,164210,1,0,0:0:0:0:
204,37,164289,1,0,0:0:0:0:
126,49,164368,5,0,0:0:0:0:
123,68,164446,1,0,0:0:0:0:
121,87,164525,1,0,0:0:0:0:
119,106,164604,1,0,0:0:0:0:
117,125,164682,1,0,0:0:0:0:
115,144,164761,1,0,0:0:0:0:
373,143,164830,5,0,0:0:0:0:
405,162,164907,1,0,0:0:0:0:
427,193,164985,1,0,0:0:0:0:
433,231,165063,1,0,0:0:0:0:
423,267,165141,1,0,0:0:0:0:
398,296,165219,1,0,0:0:0:0:
310,316,165297,5,0,0:0:0:0:
308,277,165374,1,0,0:0:0:0:
314,239,165452,1,0,0:0:0:0:
327,203,165530,1,0,0:0:0:0:
346,170,165608,1,0,0:0:0:0:
372,142,165686,1,0,0:0:0:0:
299,181,165765,5,0,0:0:0:0:
261,185,165842,1,0,0:0:0:0:
232,163,165920,1,0,0:0:0:0:
226,126,165998,1,0,0:0:0:0:
248,96,166076,1,0,0:0:0:0:
285,90,166154,1,0,0:0:0:0:
372,142,166233,5,0,0:0:0:0:
384,178,166310,1,0,0:0:0:0:
390,215,166388,1,0,0:0:0:0:
387,254,166466,1,0,0:0:0:0:
377,291,166544,1,0,0:0:0:0:
360,325,166622,1,0,0:0:0:0:
73,266,166701,5,0,0:0:0:0:
56,231,166778,1,0,0:0:0:0:
69,197,166856,1,0,0:0:0:0:
148,185,166935,1,0,0:0:0:0:
149,146,167012,1,0,0:0:0:0:
151,108,167090,1,0,0:0:0:0:
230,87,167169,5,0,0:0:0:0:
234,125,167246,1,0,0:0:0:0:
238,163,167324,1,0,0:0:0:0:
164,200,167403,1,0,0:0:0:0:
160,238,167480,1,0,0:0:0:0:
157,276,167558,1,0,0:0:0:0:
395,249,167637,5,0,0:0:0:0:
432,242,167714,1,0,0:0:0:0:
470,235,167792,1,0,0:0:0:0:
398,175,167871,1,0,0:0:0:0:
380,140,167948,1,0,0:0:0:0:
363,106,168026,1,0,0:0:0:0:
278,97,168104,5,0,0:0:0:0:
275,135,168181,1,0,0:0:0:0:
272,173,168259,1,0,0:0:0:0:
348,208,168338,1,0,0:0:0:0:
351,246,168415,1,0,0:0:0:0:
354,284,168493,1,0,0:0:0:0:
206,334,168572,5,0,0:0:0:0:
167,335,168649,1,0,0:0:0:0:
130,328,168727,1,0,0:0:0:0:
95,313,168805,1,0,0:0:0:0:
64,290,168883,1,0,0:0:0:0:
39,261,168961,1,0,0:0:0:0:
21,227,169039,5,0,0:0:0:0:
12,190,169117,1,0,0:0:0:0:
11,152,169195,1,0,0:0:0:0:
18,114,169273,1,0,0:0:0:0:
34,79,169351,1,0,0:0:0:0:
58,49,169429,1,0,0:0:0:0:
87,24,169507,5,0,0:0:0:0:
121,7,169585,1,0,0:0:0:0:
158,0,169663,1,0,0:0:0:0:
197,0,169741,1,0,0:0:0:0:
234,6,169819,1,0,0:0:0:0:
269,22,169897,1,0,0:0:0:0:
353,61,169976,5,0,0:0:0:0:
318,77,170053,1,0,0:0:0:0:
283,94,170131,1,0,0:0:0:0:
249,111,170209,1,0,0:0:0:0:
214,127,170287,1,0,0:0:0:0:
180,144,170365,1,0,0:0:0:0:
418,164,170444,5,0,0:0:0:0:
437,196,170521,1,0,0:0:0:0:
440,234,170599,1,0,0:0:0:0:
426,269,170677,1,0,0:0:0:0:
397,294,170755,1,0,0:0:0:0:
360,303,170833,1,0,0:0:0:0:
269,310,170912,5,0,0:0:0:0:
263,272,170989,1,0,0:0:0:0:
270,234,171067,1,0,0:0:0:0:
288,201,171145,1,0,0:0:0:0:
316,175,171223,1,0,0:0:0:0:
351,160,171301,1,0,0:0:0:0:
261,170,171379,5,0,0:0:0:0:
234,197,171456,1,0,0:0:0:0:
200,213,171534,1,0,0:0:0:0:
162,213,171612,1,0,0:0:0:0:
126,199,171690,1,0,0:0:0:0:
99,173,171768,1,0,0:0:0:0:
180,133,171847,5,0,0:0:0:0:
193,168,171924,1,0,0:0:0:0:
200,206,172002,1,0,0:0:0:0:
200,244,172080,1,0,0:0:0:0:
193,282,172158,1,0,0:0:0:0:
180,318,172236,1,0,0:0:0:0:
411,190,172315,5,0,0:0:0:0:
445,175,172392,1,0,0:0:0:0:
465,143,172470,1,0,0:0:0:0:
464,105,172548,1,0,0:0:0:0:
441,75,172626,1,0,0:0:0:0:
405,63,172704,1,0,0:0:0:0:
316,79,172783,5,0,0:0:0:0:
309,116,172860,1,0,0:0:0:0:
305,154,172938,1,0,0:0:0:0:
304,193,173016,1,0,0:0:0:0:
306,231,173094,1,0,0:0:0:0:
312,269,173172,1,0,0:0:0:0:
397,227,173251,5,0,0:0:0:0:
358,228,173328,1,0,0:0:0:0:
321,220,173406,1,0,0:0:0:0:
286,203,173484,1,0,0:0:0:0:
257,179,173562,1,0,0:0:0:0:
234,148,173640,1,0,0:0:0:0:
331,132,173719,5,0,0:0:0:0:
327,170,173796,1,0,0:0:0:0:
313,205,173874,1,0,0:0:0:0:
289,235,173952,1,0,0:0:0:0:
258,256,174030,1,0,0:0:0:0:
221,267,174108,1,0,0:0:0:0:
183,267,174186,1,0,0:0:0:0:
95,197,174420,5,0,0:0:0:0:
94,158,174497,1,0,0:0:0:0:
93,120,174575,1,0,0:0:0:0:
178,92,174654,1,0,0:0:0:0:
216,92,174731,1,0,0:0:0:0:
254,92,174809,1,0,0:0:0:0:
186,156,174888,5,0,0:0:0:0:
149,167,174965,1,0,0:0:0:0:
112,178,175043,1,0,0:0:0:0:
317,271,175122,1,0,0:0:0:0:
320,309,175199,1,0,0:0:0:0:
324,347,175277,1,0,0:0:0:0:
403,292,175356,5,0,0:0:0:0:
403,253,175433,1,0,0:0:0:0:
403,215,175511,1,0,0:0:0:0:
328,183,175590,1,0,0:0:0:0:
293,166,175667,1,0,0:0:0:0:
259,149,175745,1,0,0:0:0:0:
346,110,175824,5,0,0:0:0:0:
370,80,175901,1,0,0:0:0:0:
394,50,175979,1,0,0:0:0:0:
153,47,176058,1,0,0:0:0:0:
120,66,176135,1,0,0:0:0:0:
92,92,176213,1,0,0:0:0:0:
70,123,176291,1,0,0:0:0:0:
55,159,176369,1,0,0:0:0:0:
48,196,176447,1,0,0:0:0:0:
49,234,176525,5,0,0:0:0:0:
58,272,176603,1,0,0:0:0:0:
75,306,176681,1,0,0:0:0:0:
98,336,176759,1,0,0:0:0:0:
128,361,176837,1,0,0:0:0:0:
162,378,176915,1,0,0:0:0:0:
198,388,176993,5,0,0:0:0:0:
237,390,177071,1,0,0:0:0:0:
274,384,177149,1,0,0:0:0:0:
310,370,177227,1,0,0:0:0:0:
342,349,177305,1,0,0:0:0:0:
369,322,177383,1,0,0:0:0:0:
288,289,177461,5,0,0:0:0:0:
260,262,177538,1,0,0:0:0:0:
242,228,177616,1,0,0:0:0:0:
236,191,177694,1,0,0:0:0:0:
242,153,177772,1,0,0:0:0:0:
260,119,177850,1,0,0:0:0:0:
336,60,177929,5,0,0:0:0:0:
368,79,178006,1,0,0:0:0:0:
396,105,178084,1,0,0:0:0:0:
417,138,178162,1,0,0:0:0:0:
430,174,178240,1,0,0:0:0:0:
434,212,178318,1,0,0:0:0:0:
429,250,178396,5,0,0:0:0:0:
416,285,178474,1,0,0:0:0:0:
395,317,178552,1,0,0:0:0:0:
368,344,178630,1,0,0:0:0:0:
335,363,178708,1,0,0:0:0:0:
298,374,178786,1,0,0:0:0:0:
260,377,178865,5,0,0:0:0:0:
222,370,178942,1,0,0:0:0:0:
187,355,179020,1,0,0:0:0:0:
156,333,179098,1,0,0:0:0:0:
131,304,179176,1,0,0:0:0:0:
113,270,179254,1,0,0:0:0:0:
201,238,179333,5,0,0:0:0:0:
239,233,179410,1,0,0:0:0:0:
277,229,179488,1,0,0:0:0:0:
315,225,179566,1,0,0:0:0:0:
353,221,179644,1,0,0:0:0:0:
391,217,179722,1,0,0:0:0:0:
159,112,179801,6,0,L|23:99,1,115
154,116,180152,1,0,0:0:0:0:
39,157,180269,2,0,L|169:153,1,115
256,217,180619,2,0,L|130:226,1,115
312,267,181087,1,0,0:0:0:0:
402,236,181204,2,0,P|417:138|403:97,1,115
102,52,181672,6,0,L|100:191,1,115
171,196,182023,1,0,0:0:0:0:
325,188,182140,2,0,L|400:174,1,57.5
178,296,182374,2,0,L|98:311,1,57.5
491,352,182608,1,0,0:0:0:0:
