osu file format v14

[General]
AudioFilename: Superquick.mp3
AudioLeadIn: 0
PreviewTime: 109
Countdown: 0
SampleSet: None
StackLeniency: 0.7
Mode: 2
LetterboxInBreaks: 0
WidescreenStoryboard: 1

[Editor]
Bookmarks: 99761,99803,99846,99888,99930,99972,100014,100057,100099,115088,115758,134872,135208,137986,145770
DistanceSpacing: 0.8
BeatDivisor: 8
GridSize: 8
TimelineZoom: 3.599998

[Metadata]
Title:Spongebob Soundtracks Part I
TitleUnicode:Spongebob Soundtracks Part I
Artist:Stephen Hillenburg
ArtistUnicode:Stephen Hillenburg
Creator:_wwwww
Version:Superquick
Source:
Tags:
BeatmapID:1830143
BeatmapSetID:875786

[Difficulty]
HPDrainRate:7
CircleSize:4
OverallDifficulty:1
ApproachRate:9.4
SliderMultiplier:1.8
SliderTickRate:1

[Events]
//Background and Video events
0,0,"images (1).jpg",0,0
//Break Periods
//Storyboard Layer 0 (Background)
//Storyboard Layer 1 (Fail)
//Storyboard Layer 2 (Pass)
//Storyboard Layer 3 (Foreground)
//Storyboard Sound Samples

[TimingPoints]
612,335.195530726257,4,2,0,75,1,0
19405,337.457817772778,4,2,0,75,1,0
41002,336.700336700337,4,2,0,75,1,0
62534,336.511497476164,4,2,0,75,1,0
82724,-66.6666666666667,4,2,0,75,0,0
83061,-100,4,2,0,75,0,0
84070,337.457817772778,4,2,0,75,1,0
111066,335.195530726257,4,2,0,75,1,0
121825,336.700336700337,4,2,0,75,1,0
139333,-55.5555555555556,4,2,0,75,0,0
141454,335.195530726257,4,2,0,75,1,0
142251,335.195530726257,4,2,0,75,1,0

[HitObjects]
144,80,109,5,0,0:0:0:0:
56,128,276,1,0,0:0:0:0:
112,216,444,1,0,0:0:0:0:
424,224,612,2,0,L|432:104,1,90
168,224,945,2,0,L|160:104,1,90
432,224,1278,2,0,L|456:128,1,90
160,224,1611,2,0,L|120:112,1,90
424,80,1945,6,0,L|304:80,1,90
216,80,2204,2,0,L|272:80,1,45
384,192,2455,2,0,B|392:256|392:256|368:304,1,90
88,192,2790,1,0,0:0:0:0:
240,192,2958,1,0,0:0:0:0:
88,192,3125,1,0,0:0:0:0:
376,80,3293,6,0,L|472:80,1,90
296,80,3628,2,0,L|368:144,1,90
200,80,3963,2,0,L|240:184,1,90
96,80,4299,2,0,L|96:176,1,90
368,80,4634,2,0,P|424:144|240:248,1,360
112,264,5472,5,0,0:0:0:0:
56,176,5639,1,0,0:0:0:0:
160,176,5807,1,0,0:0:0:0:
440,160,5975,2,0,L|424:48,1,90
120,160,6310,2,0,L|128:56,1,90
432,160,6645,2,0,L|400:56,1,90
112,160,6980,2,0,L|144:48,1,90
368,312,7315,6,0,L|472:312,1,90
368,312,7567,2,0,L|440:312,1,45
256,312,7818,2,0,L|144:312,1,90
424,192,8153,1,0,0:0:0:0:
272,192,8321,1,0,0:0:0:0:
424,192,8488,1,0,0:0:0:0:
72,192,8656,5,0,0:0:0:0:
160,104,8824,2,0,B|72:104|72:104|168:104,1,180
411,102,9327,2,0,L|427:214,1,90
192,104,9662,2,0,L|176:224,1,90
456,264,9997,2,0,B|456:336|456:336|152:336,1,360
440,120,11003,5,0,0:0:0:0:
328,120,11170,1,0,0:0:0:0:
88,120,11338,2,0,L|72:240,1,90
208,120,11589,2,0,L|163:120,1,45
80,200,11841,1,0,0:0:0:0:
408,200,12008,1,0,0:0:0:0:
280,200,12176,1,0,0:0:0:0:
416,248,12343,5,0,0:0:0:0:
288,248,12511,1,0,0:0:0:0:
48,96,12679,1,0,0:0:0:0:
192,96,12846,1,0,0:0:0:0:
176,104,13014,1,0,0:0:0:0:
40,120,13181,1,0,0:0:0:0:
352,80,13349,1,0,0:0:0:0:
366,105,13404,1,0,0:0:0:0:
366,135,13460,1,0,0:0:0:0:
351,161,13516,1,0,0:0:0:0:
200,240,13684,6,0,L|304:240,1,90
424,240,14019,2,0,L|320:240,1,90
160,240,14355,2,0,L|152:120,1,90
328,112,14690,2,0,L|224:112,1,90
400,112,15025,2,0,L|408:224,1,90
152,104,15360,5,0,0:0:0:0:
124,114,15415,1,0,0:0:0:0:
99,131,15471,1,0,0:0:0:0:
80,154,15527,1,0,0:0:0:0:
68,182,15583,1,0,0:0:0:0:
63,211,15639,1,0,0:0:0:0:
66,241,15695,1,0,0:0:0:0:
76,269,15751,1,0,0:0:0:0:
94,293,15806,1,0,0:0:0:0:
117,312,15862,1,0,0:0:0:0:
144,325,15918,1,0,0:0:0:0:
173,330,15974,1,0,0:0:0:0:
203,327,16030,1,0,0:0:0:0:
432,192,16366,6,0,L|328:192,1,90
80,192,16701,2,0,L|72:88,1,90
168,80,16952,2,0,L|112:80,1,45
272,80,17204,1,0,0:0:0:0:
160,192,17371,2,0,L|280:192,1,90
408,192,17706,6,0,L|416:312,1,90
248,296,18042,1,0,0:0:0:0:
368,256,18209,1,0,0:0:0:0:
208,192,18377,1,0,0:0:0:0:
352,144,18544,1,0,0:0:0:0:
64,56,18712,1,0,0:0:0:0:
288,56,19047,6,0,L|408:56,1,90
56,192,19405,2,0,L|40:320,1,90
456,288,19742,2,0,L|440:176,1,90
56,192,20079,2,0,L|176:192,1,90
384,192,20417,2,0,L|488:192,1,90
304,80,20754,2,0,L|360:80,1,45
104,80,20923,6,0,P|72:136|160:184,1,180
408,280,21429,1,0,0:0:0:0:
424,272,21429,1,0,0:0:0:0:
240,240,21654,5,0,0:0:0:0:
304,224,21823,1,0,0:0:0:0:
368,208,21992,1,0,0:0:0:0:
152,192,22104,2,0,L|144:80,1,90
280,72,22442,2,0,L|272:176,1,90
400,192,22779,2,0,L|408:96,1,90
256,192,23117,2,0,L|160:272,1,90
448,280,23454,6,0,L|336:280,1,90
280,280,23707,1,0,0:0:0:0:
64,280,23791,2,0,L|184:280,1,90
416,280,24129,1,0,0:0:0:0:
144,160,24298,5,0,0:0:0:0:
288,160,24466,1,0,0:0:0:0:
144,160,24635,1,0,0:0:0:0:
320,160,24804,2,0,L|328:280,1,90
144,288,25141,2,0,L|248:288,1,90
64,240,25479,2,0,L|56:136,1,90
224,64,25816,2,0,L|344:64,1,90
176,104,26154,5,0,0:0:0:0:
128,188,26322,1,0,0:0:0:0:
169,279,26491,1,0,0:0:0:0:
278,306,26660,1,0,0:0:0:0:
375,270,26829,1,0,0:0:0:0:
192,232,26997,6,0,L|72:232,2,90
448,232,27503,2,0,L|440:120,1,90
144,152,27841,2,0,L|152:48,1,90
400,112,28178,2,0,L|392:16,1,90
96,80,28516,2,0,L|104:-40,1,90
352,192,28853,2,0,L|448:192,1,90
352,240,29106,2,0,L|408:240,1,45
224,240,29360,1,0,0:0:0:0:
368,240,29528,1,0,0:0:0:0:
80,160,29697,5,0,0:0:0:0:
224,160,29866,1,0,0:0:0:0:
368,160,30034,1,0,0:0:0:0:
80,160,30203,2,0,L|296:200,2,180
432,160,31047,5,0,0:0:0:0:
288,160,31216,1,0,0:0:0:0:
144,160,31384,1,0,0:0:0:0:
432,160,31553,2,0,L|216:200,2,180
160,256,32397,5,0,0:0:0:0:
48,256,32565,1,0,0:0:0:0:
160,256,32734,1,0,0:0:0:0:
400,192,32903,2,0,L|408:80,1,90
256,128,33240,2,0,L|248:24,1,90
480,272,33578,2,0,L|384:192,1,90
241,216,33915,2,0,L|261:97,1,90
496,40,34253,2,0,B|368:208|296:-72|160:120,1,360
448,192,35096,5,0,0:0:0:0:
296,192,35265,1,0,0:0:0:0:
448,192,35434,1,0,0:0:0:0:
152,80,35602,2,0,P|88:144|232:312,1,360
408,192,36446,5,0,0:0:0:0:
256,192,36615,1,0,0:0:0:0:
112,192,36784,1,0,0:0:0:0:
360,80,36952,2,0,P|424:144|280:312,1,360
88,192,37796,5,0,0:0:0:0:
240,192,37965,1,0,0:0:0:0:
88,192,38134,1,0,0:0:0:0:
376,192,38302,2,0,B|384:88|384:88|344:56,1,135
136,192,38640,2,0,B|128:88|128:88|168:56,1,135
416,224,38977,6,0,B|424:120|424:120|384:88,1,135
96,224,39315,6,0,B|88:120|88:120|128:88,1,135
432,72,39652,2,0,P|472:112|328:296,1,360
64,192,40664,1,0,0:0:0:0:
96,192,40664,1,0,0:0:0:0:
80,216,40664,1,0,0:0:0:0:
344,64,41002,6,0,L|360:192,1,90
208,184,41338,2,0,L|216:80,1,90
368,184,41675,2,0,L|272:184,1,90
128,256,42012,2,0,L|232:256,1,90
464,256,42348,2,0,L|472:160,1,90
168,176,42685,2,0,L|160:72,1,90
416,128,43022,2,0,L|424:32,1,90
264,72,43358,5,0,0:0:0:0:
416,128,43527,1,0,0:0:0:0:
96,192,43695,2,0,L|88:312,1,90
216,296,44032,1,0,0:0:0:0:
368,272,44200,1,0,0:0:0:0:
184,224,44369,1,0,0:0:0:0:
240,152,44537,1,0,0:0:0:0:
200,80,44705,1,0,0:0:0:0:
112,80,44874,1,0,0:0:0:0:
256,80,45042,6,0,L|360:80,1,90
200,144,45379,1,0,0:0:0:0:
344,144,45547,1,0,0:0:0:0:
64,184,45715,2,0,P|40:248|144:288,1,180
392,120,46389,6,0,L|384:224,1,90
248,240,46725,2,0,L|240:128,1,90
400,288,47062,2,0,L|288:288,1,90
176,288,47399,2,0,L|80:288,1,90
448,192,47736,6,0,L|456:80,1,90
144,96,48072,2,0,L|152:224,1,90
416,144,48409,2,0,L|424:32,1,90
280,144,48746,1,0,0:0:0:0:
144,144,48914,1,0,0:0:0:0:
416,144,49082,6,0,P|416:232|304:272,1,180
192,280,49587,1,0,0:0:0:0:
344,277,49756,1,0,0:0:0:0:
176,224,49924,1,0,0:0:0:0:
360,224,50092,1,0,0:0:0:0:
160,160,50261,2,0,L|232:160,1,45
376,168,50429,6,0,P|392:104|320:56,1,135
64,64,50766,2,0,P|48:120|128:160,1,135
448,168,51103,2,0,P|424:224|336:240,1,135
48,280,51439,2,0,P|128:312|192:296,1,135
400,232,51776,6,0,L|408:120,1,90
240,64,52281,1,0,0:0:0:0:
384,96,52449,1,0,0:0:0:0:
232,144,52618,1,0,0:0:0:0:
80,192,52786,1,0,0:0:0:0:
240,224,52954,1,0,0:0:0:0:
408,256,53123,6,0,L|416:352,1,90
160,208,53459,2,0,L|152:112,1,90
424,104,53796,2,0,L|432:-16,1,90
272,88,54133,1,0,0:0:0:0:
424,104,54301,1,0,0:0:0:0:
120,232,54470,6,0,L|112:336,1,90
272,216,54806,1,0,0:0:0:0:
432,192,54975,1,0,0:0:0:0:
144,144,55143,1,0,0:0:0:0:
304,48,55311,1,0,0:0:0:0:
136,184,55480,6,0,L|128:280,1,90
296,280,55816,2,0,L|184:280,1,90
352,208,56153,2,0,L|464:208,1,90
88,208,56490,2,0,P|72:152|192:112,1,180
464,88,57163,6,0,L|360:88,1,90
248,88,57500,1,0,0:0:0:0:
384,144,57668,1,0,0:0:0:0:
224,176,57837,2,0,L|216:280,1,90
416,304,58173,2,0,L|408:208,1,90
96,192,58510,6,0,L|104:72,1,90
360,144,58847,2,0,L|368:256,1,90
80,296,59183,2,0,L|72:176,1,90
224,216,59520,1,0,0:0:0:0:
80,296,59688,1,0,0:0:0:0:
424,216,59857,2,0,P|424:152|320:104,1,180
152,112,60362,5,0,0:0:0:0:
280,136,60530,1,0,0:0:0:0:
120,200,60698,1,0,0:0:0:0:
272,224,60867,1,0,0:0:0:0:
424,248,61035,1,0,0:0:0:0:
120,200,61204,1,0,0:0:0:0:
392,128,61540,5,0,0:0:0:0:
400,112,61540,1,0,0:0:0:0:
384,112,61540,1,0,0:0:0:0:
392,80,61540,1,0,0:0:0:0:
96,128,61877,5,0,0:0:0:0:
88,112,61877,1,0,0:0:0:0:
96,80,61877,1,0,0:0:0:0:
104,112,61877,1,0,0:0:0:0:
272,192,62214,6,0,L|176:192,1,90
416,192,62534,2,0,L|424:296,1,90
272,304,62870,2,0,L|400:304,1,90
184,304,63207,2,0,L|72:304,1,90
392,192,63543,2,0,L|400:80,1,90
224,88,63880,2,0,L|120:88,1,90
328,88,64216,2,0,L|288:200,1,90
64,192,64553,2,0,P|32:256|120:304,1,180
280,216,65057,5,0,0:0:0:0:
160,128,65226,2,0,P|128:192|216:240,1,180
368,144,65730,1,0,0:0:0:0:
232,80,65899,2,0,P|208:136|312:152,1,180
432,200,66403,5,0,0:0:0:0:
288,232,66572,1,0,0:0:0:0:
136,264,66740,1,0,0:0:0:0:
296,296,66908,1,0,0:0:0:0:
128,200,67076,1,0,0:0:0:0:
456,264,67245,1,0,0:0:0:0:
288,168,67581,6,0,L|392:168,1,90
224,168,67918,2,0,L|112:168,1,90
288,64,68254,2,0,L|176:64,1,90
384,64,68591,2,0,L|392:176,1,90
120,264,68927,2,0,L|24:264,1,90
184,264,69264,2,0,L|296:264,1,90
120,264,69600,2,0,L|112:160,1,90
288,96,69937,6,0,P|352:120|312:208,1,180
168,128,70442,1,0,0:0:0:0:
328,96,70610,2,0,P|360:136|264:200,1,180
144,112,71115,1,0,0:0:0:0:
296,152,71283,6,0,L|304:272,1,90
144,256,71619,2,0,L|264:256,1,90
488,184,71956,1,0,0:0:0:0:
168,184,72124,1,0,0:0:0:0:
296,152,72292,2,0,L|304:48,1,90
32,64,72629,1,0,0:0:0:0:
160,120,72797,5,0,0:0:0:0:
112,136,72881,1,0,0:0:0:0:
64,152,72965,1,0,0:0:0:0:
328,192,73134,1,0,0:0:0:0:
96,240,73302,6,0,L|88:344,1,90
328,192,73638,2,0,L|320:96,1,90
160,192,73975,2,0,L|152:88,1,90
424,192,74311,2,0,L|488:272,1,90
296,192,74648,6,0,L|288:296,1,90
120,192,74984,2,0,L|72:288,1,90
456,72,75321,2,0,L|248:80,1,180
376,112,75826,1,0,0:0:0:0:
120,168,75994,6,0,L|312:184,1,180
200,208,76499,1,0,0:0:0:0:
336,240,76667,2,0,L|128:264,1,180
256,280,77172,1,0,0:0:0:0:
104,192,77340,5,0,0:0:0:0:
256,144,77508,1,0,0:0:0:0:
88,88,77677,1,0,0:0:0:0:
256,144,77845,1,0,0:0:0:0:
432,200,78013,1,0,0:0:0:0:
126,264,78350,6,0,L|216:264,1,90
496,80,78686,2,0,L|384:80,1,90
272,216,79023,2,0,L|384:216,1,90
112,80,79359,2,0,L|-16:80,1,90
320,80,79696,2,0,L|432:80,1,90
248,216,80032,6,0,L|240:328,1,90
416,312,80369,2,0,L|320:312,1,90
40,216,80705,2,0,P|32:160|136:128,1,180
288,176,81210,1,0,0:0:0:0:
130,124,81378,2,0,P|90:156|186:196,1,180
312,208,81883,1,0,0:0:0:0:
168,224,82051,5,0,0:0:0:0:
312,208,82219,1,0,0:0:0:0:
456,192,82388,1,0,0:0:0:0:
264,184,82556,1,0,0:0:0:0:
432,216,82724,6,0,B|600:240|440:256|280:272|488:312,1,270.000010299683
328,320,83229,1,0,0:0:0:0:
72,192,83397,2,0,B|0:192|0:192|96:192,1,135
432,112,83734,1,0,0:0:0:0:
224,112,84070,6,0,L|216:232,1,90
376,200,84407,2,0,L|368:96,1,90
168,112,84744,2,0,L|296:112,1,90
72,232,85082,2,0,L|192:232,1,90
400,232,85419,6,0,L|408:136,1,90
224,240,85757,2,0,L|216:352,1,90
464,232,86094,2,0,L|456:120,1,90
304,144,86432,1,0,0:0:0:0:
480,128,86600,1,0,0:0:0:0:
128,160,86769,2,0,P|104:200|208:248,1,180
376,192,87275,5,0,0:0:0:0:
248,176,87444,1,0,0:0:0:0:
128,160,87613,1,0,0:0:0:0:
376,192,87782,1,0,0:0:0:0:
222,235,87950,1,0,0:0:0:0:
64,280,88119,6,0,L|176:264,1,90
288,208,88456,2,0,L|184:192,1,90
440,256,88794,2,0,P|496:208|408:144,1,180
184,64,89469,6,0,L|64:64,1,90
232,120,89806,1,0,0:0:0:0:
96,152,89975,1,0,0:0:0:0:
328,192,90144,2,0,L|424:192,1,90
272,256,90481,2,0,L|160:256,1,90
480,48,90819,6,0,L|488:152,1,90
320,48,91156,2,0,L|312:152,1,90
64,48,91494,2,0,B|40:144|40:144|80:176|136:152,1,180
344,192,92000,1,0,0:0:0:0:
40,248,92168,2,0,L|248:272,1,180
104,304,92675,1,0,0:0:0:0:
400,296,92843,5,0,0:0:0:0:
440,200,93012,1,0,0:0:0:0:
400,96,93181,1,0,0:0:0:0:
296,56,93350,1,0,0:0:0:0:
152,40,93518,2,0,B|40:72|32:160|96:216|280:200,1,360
400,184,94531,5,0,0:0:0:0:
88,248,94868,5,0,0:0:0:0:
264,256,95037,1,0,0:0:0:0:
192,280,95121,1,0,0:0:0:0:
120,304,95206,1,0,0:0:0:0:
416,272,95374,1,0,0:0:0:0:
88,144,95543,1,0,0:0:0:0:
312,144,95881,5,0,0:0:0:0:
312,104,95881,1,0,0:0:0:0:
88,144,96218,1,0,0:0:0:0:
264,160,96387,1,0,0:0:0:0:
184,176,96471,1,0,0:0:0:0:
264,160,96555,1,0,0:0:0:0:
88,280,96724,1,0,0:0:0:0:
416,200,96893,1,0,0:0:0:0:
200,240,97230,5,0,0:0:0:0:
200,280,97230,1,0,0:0:0:0:
256,192,97568,12,0,98918,0:0:0:0:
440,184,99255,5,0,0:0:0:0:
88,184,99593,1,0,0:0:0:0:
96,184,99593,1,0,0:0:0:0:
336,128,99761,5,0,0:0:0:0:
232,184,99930,1,0,0:0:0:0:
336,232,100099,1,0,0:0:0:0:
88,224,100267,2,0,L|80:104,1,90
344,224,100605,2,0,L|352:104,1,90
80,224,100942,2,0,L|56:128,1,90
352,224,101280,2,0,L|392:112,1,90
88,80,101617,6,0,L|208:80,1,90
296,80,101870,2,0,L|240:80,1,45
128,192,102123,2,0,B|120:256|120:256|144:304,1,90
424,192,102461,1,0,0:0:0:0:
272,192,102630,1,0,0:0:0:0:
424,192,102798,1,0,0:0:0:0:
136,80,102967,6,0,L|40:80,1,90
216,80,103305,2,0,L|144:144,1,90
312,80,103642,2,0,L|272:184,1,90
416,80,103980,2,0,L|416:176,1,90
144,80,104317,2,0,P|88:144|272:248,1,360
440,296,105161,5,0,0:0:0:0:
408,200,105329,1,0,0:0:0:0:
304,176,105498,1,0,0:0:0:0:
72,160,105667,2,0,L|88:48,1,90
392,160,106004,2,0,L|384:56,1,90
80,160,106342,2,0,L|112:56,1,90
400,160,106679,2,0,L|368:48,1,90
144,312,107017,6,0,L|40:312,1,90
144,312,107270,2,0,L|72:312,1,45
256,312,107523,2,0,L|368:312,1,90
88,192,107860,1,0,0:0:0:0:
240,192,108029,1,0,0:0:0:0:
88,192,108198,1,0,0:0:0:0:
440,192,108366,5,0,0:0:0:0:
352,104,108535,2,0,B|440:104|440:104|344:104,1,180
101,102,109041,2,0,L|85:214,1,90
320,104,109379,2,0,L|336:224,1,90
40,272,109716,2,0,B|208:344|208:344|376:288,1,360
72,120,110729,5,0,0:0:0:0:
184,120,110896,1,0,0:0:0:0:
424,120,111066,2,0,L|440:240,1,90
304,120,111317,2,0,L|349:120,1,45
432,200,111568,1,0,0:0:0:0:
104,200,111736,1,0,0:0:0:0:
232,200,111903,1,0,0:0:0:0:
96,248,112069,5,0,0:0:0:0:
224,248,112237,1,0,0:0:0:0:
464,96,112406,1,0,0:0:0:0:
320,96,112572,1,0,0:0:0:0:
336,104,112740,1,0,0:0:0:0:
472,120,112907,1,0,0:0:0:0:
152,120,113077,2,0,P|136:168|176:232,1,90
312,240,113412,6,0,L|208:240,1,90
88,240,113747,2,0,L|192:240,1,90
352,240,114082,2,0,L|360:120,1,90
184,112,114417,2,0,L|288:112,1,90
112,112,114753,2,0,L|104:224,1,90
360,104,115086,5,0,0:0:0:0:
388,114,115141,1,0,0:0:0:0:
413,131,115197,1,0,0:0:0:0:
112,112,115255,1,0,0:0:0:0:
83,119,115310,1,0,0:0:0:0:
65,143,115366,1,0,0:0:0:0:
66,172,115422,1,0,0:0:0:0:
85,194,115478,1,0,0:0:0:0:
114,200,115534,1,0,0:0:0:0:
128,224,115591,5,0,0:0:0:0:
112,256,115647,1,0,0:0:0:0:
80,264,115702,1,0,0:0:0:0:
328,264,115758,1,0,0:0:0:0:
197,226,116093,6,0,L|80:227,1,90
432,192,116429,2,0,L|440:88,1,90
344,80,116678,2,0,L|400:80,1,45
240,80,116930,1,0,0:0:0:0:
352,192,117097,2,0,L|232:192,1,90
104,192,117432,6,0,L|96:312,1,90
264,296,117769,1,0,0:0:0:0:
144,256,117937,1,0,0:0:0:0:
304,192,118105,1,0,0:0:0:0:
128,120,118272,1,0,0:0:0:0:
448,56,118440,1,0,0:0:0:0:
224,56,118775,6,0,L|104:56,1,90
456,192,119110,2,0,L|472:320,1,90
56,288,119445,2,0,L|72:176,1,90
456,192,119781,2,0,L|336:192,1,90
128,192,120116,2,0,L|24:192,1,90
216,80,120451,2,0,L|160:80,1,45
408,80,120619,6,0,P|440:136|352:184,1,180
88,272,121121,1,0,0:0:0:0:
104,280,121121,1,0,0:0:0:0:
240,240,121373,5,0,0:0:0:0:
160,208,121498,1,0,0:0:0:0:
240,240,121624,1,0,0:0:0:0:
360,192,121825,6,0,L|368:80,1,90
232,72,122161,2,0,L|240:176,1,90
112,192,122498,2,0,L|104:96,1,90
256,192,122841,2,0,L|352:272,1,90
64,280,123171,6,0,L|176:280,1,90
232,280,123396,1,0,0:0:0:0:
448,280,123508,2,0,L|328:280,1,90
96,280,123845,1,0,0:0:0:0:
368,160,124013,5,0,0:0:0:0:
224,160,124181,1,0,0:0:0:0:
368,160,124350,1,0,0:0:0:0:
200,160,124518,2,0,L|192:280,1,90
368,288,124855,2,0,L|264:288,1,90
464,264,125192,2,0,L|472:160,1,90
288,64,125528,2,0,L|168:64,1,90
352,112,125865,5,0,0:0:0:0:
401,202,126030,1,0,0:0:0:0:
361,290,126202,1,0,0:0:0:0:
263,323,126370,1,0,0:0:0:0:
160,304,126537,1,0,0:0:0:0:
320,232,126707,6,0,L|440:232,2,90
64,232,127212,2,0,L|72:120,1,90
368,152,127548,2,0,L|360:48,1,90
112,112,127885,2,0,L|120:16,1,90
416,80,128222,2,0,L|408:-40,1,90
160,192,128559,2,0,L|64:192,1,90
160,240,128811,2,0,L|104:240,1,45
288,240,129064,1,0,0:0:0:0:
144,240,129232,1,0,0:0:0:0:
432,160,129400,5,0,0:0:0:0:
288,160,129569,1,0,0:0:0:0:
144,160,129737,1,0,0:0:0:0:
432,160,129905,2,0,L|216:200,2,180
80,160,130747,5,0,0:0:0:0:
224,160,130915,1,0,0:0:0:0:
368,160,131084,1,0,0:0:0:0:
80,160,131252,2,0,L|296:200,2,180
352,256,132094,5,0,0:0:0:0:
464,256,132262,1,0,0:0:0:0:
352,256,132431,1,0,0:0:0:0:
112,192,132599,2,0,L|104:80,1,90
256,128,132936,2,0,L|264:24,1,90
32,272,133272,2,0,L|128:192,1,90
271,216,133609,2,0,L|251:97,1,90
16,40,133946,2,0,B|144:208|216:-72|352:120,1,360
64,192,134872,5,0,0:0:0:0:
184,192,134998,1,0,0:0:0:0:
64,192,135208,1,0,0:0:0:0:
360,80,135293,2,0,P|424:144|280:312,1,360
104,192,136134,5,0,0:0:0:0:
256,192,136303,1,0,0:0:0:0:
400,192,136471,1,0,0:0:0:0:
152,80,136639,2,0,P|88:144|232:312,1,360
424,192,137481,5,0,0:0:0:0:
272,192,137649,1,0,0:0:0:0:
424,192,137818,1,0,0:0:0:0:
136,192,137986,2,0,B|128:88|128:88|168:56,1,135
376,184,138323,2,0,B|329:90|329:90|278:83,1,135
72,248,138660,6,0,B|146:175|146:175|196:185,1,135
432,280,138996,2,0,B|341:228|341:228|295:251,1,135
128,56,139333,6,0,B|-16:72|-96:128|-16:192|600:176|712:280|640:448|-120:368|-120:328|-232:200|512:224|648:72|456:56|296:56,1,1295.99996044922
0,384,141454,5,0,0:0:0:0:
0,384,141454,5,0,0:0:0:0:
0,384,141454,5,0,0:0:0:0:
0,384,141454,5,0,0:0:0:0:
0,384,141454,5,0,0:0:0:0:
256,192,142251,12,0,145770,0:0:0:0:
