osu file format v14

[General]
AudioFilename: Secret service.mp3
AudioLeadIn: 0
PreviewTime: 6123
Countdown: 0
SampleSet: None
StackLeniency: 0.7
Mode: 2
LetterboxInBreaks: 0
WidescreenStoryboard: 1

[Editor]
Bookmarks: 70704,106900,55560
DistanceSpacing: 0.8
BeatDivisor: 4
GridSize: 8
TimelineZoom: 1.6

[Metadata]
Title:Spongebob Soundtracks Part I
TitleUnicode:Spongebob Soundtracks Part I
Artist:Stephen Hillenburg
ArtistUnicode:Stephen Hillenburg
Creator:_wwwww
Version:Secret Service
Source:
Tags:
BeatmapID:1830142
BeatmapSetID:875786

[Difficulty]
HPDrainRate:6
CircleSize:4.2
OverallDifficulty:8
ApproachRate:9.4
SliderMultiplier:2
SliderTickRate:1

[Events]
//Background and Video events
0,0,"B06ZrSMCEAAbsKn.jpg",0,0
//Break Periods
//Storyboard Layer 0 (Background)
//Storyboard Layer 1 (Fail)
//Storyboard Layer 2 (Pass)
//Storyboard Layer 3 (Foreground)
//Storyboard Sound Samples

[TimingPoints]
238,389.105058365759,4,2,0,25,1,0
6123,386.847195357834,4,2,0,25,1,0
18861,384.615384615385,4,2,0,25,1,0
31121,379.746835443038,4,2,0,25,1,0
50892,380.952380952381,4,2,0,25,1,0
57053,379.746835443038,4,2,0,25,1,0
58192,-50,4,2,0,25,0,0
58571,-100,4,2,0,25,0,1
67685,-66.6666666666667,4,2,0,25,0,0
70704,372.670807453416,4,2,0,25,1,0
70704,-100,4,2,0,25,0,1
79648,-100,4,2,0,25,0,0
82684,377.358490566038,4,2,0,25,1,0
93316,377.358490566038,4,2,0,25,1,0
93316,-66.6666666666667,4,2,0,25,0,0
94825,-100,4,2,0,25,0,0
106905,378.548895899054,4,2,0,25,1,0
106905,-100,4,2,0,25,0,1
107005,-100,4,2,0,25,0,0

[HitObjects]
120,200,238,6,0,P|104:144|128:96,1,100
376,80,626,2,0,L|432:80,1,50
320,80,821,2,0,L|304:144,1,50
408,152,1016,1,0,0:0:0:0:
424,240,1210,1,0,0:0:0:0:
264,264,1405,1,0,0:0:0:0:
360,288,1599,1,0,0:0:0:0:
88,320,1794,6,0,P|56:280|72:224,1,100
392,80,2183,2,0,L|320:80,1,50
240,80,2377,2,0,L|312:80,1,50
392,136,2572,1,0,0:0:0:0:
272,176,2767,1,0,0:0:0:0:
424,216,2961,1,0,0:0:0:0:
416,296,3156,1,0,0:0:0:0:
152,272,3350,6,0,P|112:240|112:184,1,100
440,64,3739,2,0,L|448:120,1,50
352,64,3934,2,0,L|296:64,1,50
440,144,4129,1,0,0:0:0:0:
425,234,4323,1,0,0:0:0:0:
270,266,4518,1,0,0:0:0:0:
162,272,4712,1,0,0:0:0:0:
424,128,4907,6,0,P|448:176|424:224,1,100
104,248,5296,2,0,L|48:248,1,50
168,192,5490,2,0,L|224:192,1,50
80,160,5685,1,0,0:0:0:0:
144,104,5880,1,0,0:0:0:0:
464,96,6123,6,0,P|472:160|400:192,1,150
88,144,6509,2,0,P|40:184|128:240,1,200
296,192,7138,2,0,L|200:192,1,75
416,80,7476,2,0,L|304:88,2,100
96,64,8057,6,0,P|40:104|112:200,1,200
456,152,8830,2,0,P|384:200|464:224,1,200
80,256,9604,2,0,L|240:296,1,150
440,256,9991,1,0,0:0:0:0:
184,104,10378,1,0,0:0:0:0:
320,144,10569,1,0,0:0:0:0:
184,176,10763,1,0,0:0:0:0:
320,216,10958,1,0,0:0:0:0:
168,192,11152,2,0,P|128:256|176:312,1,150
408,264,11538,6,0,L|416:144,1,100
280,72,11925,1,0,0:0:0:0:
416,104,12119,1,0,0:0:0:0:
96,176,12312,6,0,B|88:232|88:232|112:272,1,100
416,104,12699,2,0,B|312:160|312:56|208:112,1,200
384,144,13328,2,0,L|288:152,1,75
128,216,13666,2,0,L|264:232,2,100
472,272,14245,6,0,P|400:240|472:216,1,200
104,80,15020,2,0,P|80:120|184:216,1,200
424,192,15794,2,0,P|464:224|408:296,1,150
144,296,16181,1,0,0:0:0:0:
416,72,16567,5,0,0:0:0:0:
256,72,16761,1,0,0:0:0:0:
432,144,16954,1,0,0:0:0:0:
272,144,17148,1,0,0:0:0:0:
448,160,17341,2,0,P|456:224|424:256,1,100
64,264,17728,2,0,L|168:280,1,100
320,240,18115,5,0,0:0:0:0:
208,200,18308,1,0,0:0:0:0:
472,168,18502,1,0,0:0:0:0:
400,264,18695,1,0,0:0:0:0:
96,64,18861,6,0,P|48:96|128:160,1,200
328,152,19534,2,0,L|344:240,1,75
160,248,19870,2,0,L|56:256,2,100
416,192,20399,2,0,P|472:152|392:88,1,200
88,136,21168,2,0,P|24:176|112:216,1,200
376,192,21937,2,0,P|440:216|448:296,1,150
112,296,22322,5,0,0:0:0:0:
360,40,22707,1,0,0:0:0:0:
264,80,22899,1,0,0:0:0:0:
240,184,23091,1,0,0:0:0:0:
296,280,23284,1,0,0:0:0:0:
408,296,23476,2,0,L|248:304,1,150
80,104,23861,6,0,L|224:120,1,125
352,64,24245,1,0,0:0:0:0:
256,128,24437,1,0,0:0:0:0:
392,160,24630,1,0,0:0:0:0:
304,224,24822,1,0,0:0:0:0:
72,240,25014,6,0,P|40:176|144:112,1,200
328,104,25687,2,0,L|416:112,1,75
144,224,26072,2,0,L|248:216,2,100
404,273,26553,2,0,P|426:179|322:107,1,200
72,56,27322,2,0,P|136:104|88:200,1,200
424,176,28091,2,0,P|432:224|368:296,1,150
144,296,28476,1,0,0:0:0:0:
368,160,28861,5,0,0:0:0:0:
216,144,29053,1,0,0:0:0:0:
392,96,29245,1,0,0:0:0:0:
240,80,29437,1,0,0:0:0:0:
424,120,29630,2,0,L|440:280,1,150
64,248,30014,6,0,L|176:248,1,100
320,192,30399,1,0,0:0:0:0:
168,144,30591,1,0,0:0:0:0:
328,56,30784,1,0,0:0:0:0:
248,56,30880,1,0,0:0:0:0:
168,56,30976,1,0,0:0:0:0:
296,144,31121,6,0,L|432:144,1,100
256,224,31500,2,0,L|256:288,1,50
152,224,31691,2,0,L|152:280,1,50
272,208,31880,2,0,L|384:208,1,100
224,128,32260,2,0,L|104:128,1,100
304,56,32639,2,0,L|320:176,1,100
56,168,33019,6,0,L|56:240,1,50
160,200,33209,2,0,L|160:272,1,50
272,232,33399,2,0,L|400:232,1,100
192,112,33779,2,0,L|320:112,1,100
136,112,34158,2,0,L|128:248,1,100
424,288,34538,6,0,L|424:224,1,50
320,240,34728,2,0,L|320:176,1,50
192,112,34918,2,0,L|304:112,1,100
448,112,35298,2,0,L|304:112,1,100
192,112,35677,2,0,L|184:256,1,100
480,256,36057,6,0,L|480:200,1,50
376,208,36247,2,0,L|376:144,1,50
256,288,36437,2,0,L|376:288,1,100
200,288,36817,2,0,L|72:288,1,100
256,288,37196,2,0,L|264:168,1,100
16,184,37576,6,0,L|16:112,1,50
128,128,37766,2,0,L|128:56,1,50
256,80,37956,2,0,L|360:80,1,100
200,160,38336,2,0,L|312:160,1,100
456,160,38715,2,0,L|472:280,1,100
184,240,39095,6,0,L|184:304,1,50
72,232,39285,2,0,L|72:176,1,50
208,120,39475,2,0,L|328:120,1,100
464,192,39855,2,0,L|344:192,1,100
96,184,40234,6,0,L|88:336,1,150
400,280,40614,2,0,P|456:208|376:144,1,200
272,104,41089,1,0,0:0:0:0:
152,112,41184,2,0,B|128:160|128:160|144:232,1,100
296,208,41469,1,0,0:0:0:0:
456,216,41564,2,0,B|472:272|472:272|456:312,1,100
168,312,42133,1,0,0:0:0:0:
384,208,42513,6,0,L|392:136,1,50
288,160,42703,2,0,L|280:96,1,50
408,48,42893,2,0,L|352:48,1,50
160,48,43083,2,0,L|240:48,1,50
432,208,43272,6,0,P|464:264|368:320,1,200
200,240,43842,1,0,0:0:0:0:
344,128,44032,2,0,L|456:128,1,100
136,88,44412,1,0,0:0:0:0:
128,96,44412,1,0,0:0:0:0:
440,96,44602,1,0,0:0:0:0:
432,88,44602,1,0,0:0:0:0:
280,96,44791,6,0,P|256:152|360:200,1,200
472,200,45361,1,0,0:0:0:0:
312,272,45551,2,0,L|176:272,1,100
424,88,45931,1,0,0:0:0:0:
432,96,45931,1,0,0:0:0:0:
136,88,46121,1,0,0:0:0:0:
128,96,46121,1,0,0:0:0:0:
392,160,46310,6,0,P|432:216|335:286,1,200
168,200,46975,2,0,L|260:202,1,75
28,96,47307,2,0,L|128:96,2,100
424,96,47829,2,0,P|448:152|328:216,1,200
80,160,48589,2,0,P|8:200|80:248,1,200
416,288,49348,2,0,B|424:160|424:160|368:104,1,200
232,96,49919,5,0,0:0:0:0:
392,112,50108,1,0,0:0:0:0:
208,96,50298,1,0,0:0:0:0:
360,144,50464,1,0,0:0:0:0:
368,144,50464,1,0,0:0:0:0:
112,208,50654,1,0,0:0:0:0:
104,208,50654,1,0,0:0:0:0:
288,192,50892,6,0,L|408:192,1,100
248,192,51272,2,0,P|192:168|184:280,1,200
344,288,51842,1,0,0:0:0:0:
80,288,52033,2,0,P|64:240|160:184,1,150
416,152,52406,2,0,P|472:128|392:56,1,200
208,104,53034,2,0,L|283:104,1,75
432,200,53368,2,0,L|332:200,2,100
88,192,53939,6,0,P|48:256|160:296,1,200
456,192,54695,2,0,P|384:152|464:128,1,200
112,112,55463,2,0,L|104:256,1,100
256,216,55844,5,0,0:0:0:0:
408,232,56034,1,0,0:0:0:0:
256,272,56225,1,0,0:0:0:0:
104,304,56415,1,0,0:0:0:0:
360,312,56601,1,0,0:0:0:0:
352,312,56601,1,0,0:0:0:0:
64,232,56796,1,0,0:0:0:0:
72,232,56796,1,0,0:0:0:0:
392,160,57053,6,0,P|416:112|296:80,1,200
144,64,57622,1,0,0:0:0:0:
312,112,57812,2,0,P|360:152|272:192,1,200
272,192,58192,2,0,B|208:192|104:216|104:216|152:240|248:248,1,300
400,256,58571,6,0,P|464:240|400:80,1,300
96,96,59236,2,0,L|88:184,1,75
256,176,59568,2,0,L|144:184,2,100
472,112,60090,6,0,P|408:160|488:240,1,200
144,192,60850,2,0,P|216:200|144:272,1,200
414,227,61609,2,0,L|136:384,1,300
448,88,62274,1,0,0:0:0:0:
256,48,62559,1,0,0:0:0:0:
368,160,62749,2,0,L|304:160,1,50
400,160,62939,2,0,L|488:160,1,50
96,224,63128,6,0,L|360:400,1,300
64,88,63793,1,0,0:0:0:0:
256,112,64078,1,0,0:0:0:0:
128,192,64268,1,0,0:0:0:0:
120,200,64268,1,0,0:0:0:0:
272,224,64458,1,0,0:0:0:0:
280,232,64458,1,0,0:0:0:0:
96,160,64647,6,0,L|360:-8,1,300
64,296,65312,1,0,0:0:0:0:
296,224,65597,2,0,L|192:224,1,100
456,224,66166,2,0,P|512:168|416:152,1,200
128,176,66926,2,0,P|64:216|160:240,1,200
400,176,67685,6,0,B|304:160|304:160|440:128|440:128|240:104|240:104|480:64|480:64|144:40|144:40|320:16,2,1125.00004291535
112,96,70704,6,0,P|16:208|136:288,1,300
424,240,71356,1,0,0:0:0:0:
256,240,71635,2,0,L|136:240,1,100
416,64,72194,2,0,P|472:96|392:184,1,200
96,128,72940,2,0,P|40:160|120:248,1,200
416,224,73685,6,0,L|136:392,1,300
448,88,74350,1,0,0:0:0:0:
248,88,74617,2,0,L|176:88,1,50
328,88,74803,1,0,0:0:0:0:
360,136,74896,1,0,0:0:0:0:
352,192,74989,1,0,0:0:0:0:
296,208,75082,1,0,0:0:0:0:
96,224,75176,6,0,L|360:344,1,250
64,88,75841,1,0,0:0:0:0:
216,88,76107,2,0,L|224:152,1,50
128,88,76294,1,0,0:0:0:0:
120,88,76294,1,0,0:0:0:0:
400,88,76480,1,0,0:0:0:0:
408,88,76480,1,0,0:0:0:0:
252,127,76666,6,0,P|212:199|260:127,1,300
48,176,77318,1,0,0:0:0:0:
256,176,77598,2,0,L|112:176,1,100
432,136,78157,2,0,B|448:240|448:240|328:240,1,200
80,192,78902,2,0,L|288:192,1,200
288,192,79275,1,0,0:0:0:0:
40,192,79461,1,0,0:0:0:0:
48,192,79461,1,0,0:0:0:0:
440,192,79648,5,0,0:0:0:0:
256,192,80020,12,0,82443,0:0:0:0:
232,192,82684,6,0,L|224:72,1,100
424,192,83061,1,0,0:0:0:0:
296,192,83250,1,0,0:0:0:0:
168,192,83438,2,0,L|160:304,1,100
296,192,83816,1,0,0:0:0:0:
424,192,84004,1,0,0:0:0:0:
296,192,84193,6,0,L|288:80,1,100
144,96,84570,2,0,L|24:96,1,100
240,96,84948,1,0,0:0:0:0:
320,144,85136,1,0,0:0:0:0:
352,232,85325,1,0,0:0:0:0:
304,320,85514,1,0,0:0:0:0:
144,320,85702,6,0,L|136:184,1,100
280,216,86080,1,0,0:0:0:0:
416,216,86268,1,0,0:0:0:0:
72,216,86457,2,0,L|64:128,1,50
280,96,86834,1,0,0:0:0:0:
128,96,87023,2,0,L|120:152,1,50
360,96,87212,2,0,P|432:144|184:240,1,600
256,192,87589,12,0,87967,0:0:0:0:
56,144,88533,5,0,0:0:0:0:
300,144,88721,6,0,L|436:144,1,100
240,144,89099,1,0,0:0:0:0:
96,144,89287,1,0,0:0:0:0:
384,144,89476,2,0,L|392:216,1,50
144,144,89853,1,0,0:0:0:0:
328,144,90042,2,0,L|336:208,1,50
152,96,90231,2,0,P|80:144|256:112,1,700
256,192,90608,12,0,90985,0:0:0:0:
96,64,91740,6,0,L|72:216,1,150
336,64,92117,2,0,P|392:96|192:264,1,500
392,40,93316,2,0,B|240:40|240:40|328:144|328:144|176:144|176:144|288:232|288:232|120:232|120:232|232:320|232:320|24:320,1,1050.00004005432
248,320,94825,6,0,L|448:321,1,150.000005722046
120,192,95202,1,0,0:0:0:0:
392,192,95580,2,0,L|400:72,1,100
104,80,95957,1,0,0:0:0:0:
112,96,95957,1,0,0:0:0:0:
96,96,95957,1,0,0:0:0:0:
378,92,96334,6,0,L|394:212,1,100
96,96,96712,1,0,0:0:0:0:
112,96,96712,1,0,0:0:0:0:
104,80,96712,1,0,0:0:0:0:
240,80,96900,5,0,0:0:0:0:
336,88,96995,1,0,0:0:0:0:
432,96,97089,2,0,B|448:152|440:168|248:160|224:176|208:248,1,300
256,248,97749,2,0,P|264:176|232:120,1,100
296,152,97844,2,0,P|320:208|272:256,1,100
40,72,98221,6,0,B|360:80|360:80|136:88,1,500
272,112,99353,2,0,P|232:168|272:232,1,150
224,112,99353,2,0,P|264:160|208:232,1,150
448,184,99731,6,0,L|464:320,1,100
288,280,100108,1,0,0:0:0:0:
288,280,100297,1,0,0:0:0:0:
96,168,100485,1,0,0:0:0:0:
104,168,100485,1,0,0:0:0:0:
344,128,100674,1,0,0:0:0:0:
352,128,100674,1,0,0:0:0:0:
160,72,100863,6,0,L|152:192,1,100
424,168,101240,1,0,0:0:0:0:
408,168,101240,1,0,0:0:0:0:
416,184,101240,1,0,0:0:0:0:
174,172,101617,6,0,L|158:52,1,100
416,184,101995,1,0,0:0:0:0:
408,168,101995,1,0,0:0:0:0:
424,168,101995,1,0,0:0:0:0:
80,256,102372,5,0,0:0:0:0:
160,256,102466,1,0,0:0:0:0:
240,256,102561,2,0,B|288:208|-24:208|16:224|272:80|512:112|496:144|352:160|312:160,1,500
328,160,103504,2,0,L|504:192,1,150
448,176,103693,2,0,L|464:48,1,100
456,64,103882,2,0,L|272:56,1,150
120,72,104259,1,0,0:0:0:0:
136,88,104259,1,0,0:0:0:0:
112,96,104259,1,0,0:0:0:0:
224,136,104448,1,0,0:0:0:0:
312,184,104636,6,0,L|320:248,1,50
216,216,104825,2,0,L|208:280,1,50
408,288,105014,2,0,L|352:288,1,50
128,328,105202,2,0,L|200:328,1,50
464,336,105391,2,0,P|488:272|400:208,1,150
112,192,105768,2,0,P|96:136|216:48,1,200
296,48,106240,1,0,0:0:0:0:
412,76,106334,1,0,0:0:0:0:
314,115,106429,1,0,0:0:0:0:
214,159,106523,5,0,0:0:0:0:
326,186,106617,1,0,0:0:0:0:
489,217,106712,1,0,0:0:0:0:
339,255,106806,1,0,0:0:0:0:
80,328,106900,1,0,0:0:0:0:
80,328,106905,1,0,0:0:0:0:
80,328,106905,1,0,0:0:0:0:
80,328,106905,1,0,0:0:0:0:
80,328,106905,1,0,0:0:0:0:
80,328,106905,1,0,0:0:0:0:
80,328,106905,1,0,0:0:0:0:
80,328,106905,1,0,0:0:0:0:
80,328,106905,1,0,0:0:0:0:
80,328,106905,1,0,0:0:0:0:
80,328,106905,1,0,0:0:0:0:
80,328,106905,1,0,0:0:0:0:
80,328,106905,1,0,0:0:0:0:
