osu file format v14

[General]
AudioFilename: Saxaboogie.mp3
AudioLeadIn: 0
PreviewTime: 25967
Countdown: 0
SampleSet: None
StackLeniency: 0.7
Mode: 2
LetterboxInBreaks: 0
WidescreenStoryboard: 1

[Editor]
Bookmarks: 86279,37152,7436,43861,73894,25523
DistanceSpacing: 0.8
BeatDivisor: 4
GridSize: 8
TimelineZoom: 1.6

[Metadata]
Title:Spongebob Soundtracks Part I
TitleUnicode:Spongebob Soundtracks Part I
Artist:Stephen Hillenburg
ArtistUnicode:Stephen Hillenburg
Creator:_wwwww
Version:Saxaboogie
Source:
Tags:
BeatmapID:1830141
BeatmapSetID:875786

[Difficulty]
HPDrainRate:8
CircleSize:3.6
OverallDifficulty:0
ApproachRate:9.5
SliderMultiplier:2.2
SliderTickRate:1

[Events]
//Background and Video events
0,0,"maxresdefault (4).jpg",0,0
//Break Periods
//Storyboard Layer 0 (Background)
//Storyboard Layer 1 (Fail)
//Storyboard Layer 2 (Pass)
//Storyboard Layer 3 (Foreground)
//Storyboard Sound Samples

[TimingPoints]
418,326.086956521739,4,2,0,50,1,0
21287,319.148936170213,4,2,0,50,1,0
21287,-125,4,2,0,50,0,0
21526,-100,4,2,0,50,0,0
36606,337.078651685393,4,2,0,50,1,0
39302,319.148936170213,4,2,0,50,1,0
41855,328.767123287671,4,2,0,50,1,0
52327,326.086956521739,4,2,0,50,1,0
57536,324.324324324324,4,2,0,50,1,0
57536,-66.6666666666667,4,2,0,50,0,0
63373,-100,4,2,0,50,0,0
63698,-66.6666666666667,4,2,0,50,0,0
65968,-105.263157894737,4,2,0,50,0,0
66292,-66.6666666666667,4,2,0,50,0,0
70752,-83.3333333333333,4,2,0,50,0,0
73103,331.491712707182,4,2,0,50,1,0
79732,-125,4,2,0,50,0,0
79981,-100,4,2,0,50,0,0
86362,326.086956521739,4,2,0,50,1,0
99731,356.083086053412,4,2,0,50,1,0
102174,326.086956521739,4,2,0,50,1,0
119130,314.13612565445,4,2,0,50,1,0
122034,326.086956521739,4,2,0,50,1,0
125665,328.767123287671,4,2,0,50,1,0

[HitObjects]
360,256,418,5,0,0:0:0:0:
144,256,744,1,0,0:0:0:0:
120,128,961,1,0,0:0:0:0:
328,128,1070,1,0,0:0:0:0:
216,128,1396,5,0,0:0:0:0:
248,128,1613,1,0,0:0:0:0:
120,56,1722,1,0,0:0:0:0:
336,56,2048,5,0,0:0:0:0:
264,56,2265,1,0,0:0:0:0:
496,192,2374,1,0,0:0:0:0:
320,192,2700,5,0,0:0:0:0:
192,192,2917,1,0,0:0:0:0:
320,304,3026,1,0,0:0:0:0:
144,296,3352,5,0,0:0:0:0:
264,296,3570,1,0,0:0:0:0:
72,296,3678,1,0,0:0:0:0:
464,112,4004,1,0,0:0:0:0:
320,112,4331,5,0,0:0:0:0:
208,112,4657,1,0,0:0:0:0:
320,112,4874,1,0,0:0:0:0:
56,192,4983,1,0,0:0:0:0:
176,192,5200,5,0,0:0:0:0:
144,192,5254,1,0,0:0:0:0:
112,192,5309,1,0,0:0:0:0:
368,192,5472,1,0,0:0:0:0:
256,288,5635,1,0,0:0:0:0:
480,288,5961,5,0,0:0:0:0:
424,288,6124,1,0,0:0:0:0:
160,80,6287,1,0,0:0:0:0:
224,80,6504,5,0,0:0:0:0:
480,80,6613,1,0,0:0:0:0:
368,80,6776,1,0,0:0:0:0:
480,200,6939,1,0,0:0:0:0:
200,192,7265,5,0,0:0:0:0:
120,192,7428,1,0,0:0:0:0:
368,288,7591,1,0,0:0:0:0:
256,288,7809,1,0,0:0:0:0:
136,288,7917,1,0,0:0:0:0:
232,288,8081,1,0,0:0:0:0:
136,192,8244,1,0,0:0:0:0:
400,192,8570,5,0,0:0:0:0:
304,192,8733,1,0,0:0:0:0:
80,192,8896,1,0,0:0:0:0:
176,192,9113,1,0,0:0:0:0:
480,192,9222,1,0,0:0:0:0:
352,240,9385,1,0,0:0:0:0:
224,288,9548,1,0,0:0:0:0:
408,288,9874,5,0,0:0:0:0:
512,288,10037,1,0,0:0:0:0:
144,280,10200,1,0,0:0:0:0:
264,280,10417,1,0,0:0:0:0:
32,280,10526,1,0,0:0:0:0:
160,208,10689,1,0,0:0:0:0:
288,144,10852,1,0,0:0:0:0:
480,144,11178,5,0,0:0:0:0:
360,144,11341,1,0,0:0:0:0:
128,136,11504,1,0,0:0:0:0:
280,192,11722,1,0,0:0:0:0:
64,192,11831,1,0,0:0:0:0:
192,192,11994,1,0,0:0:0:0:
64,192,12157,1,0,0:0:0:0:
336,232,12483,5,0,0:0:0:0:
448,232,12646,1,0,0:0:0:0:
176,232,12809,1,0,0:0:0:0:
64,232,13026,1,0,0:0:0:0:
256,48,13135,1,0,0:0:0:0:
336,160,13298,1,0,0:0:0:0:
176,160,13461,1,0,0:0:0:0:
400,160,13787,5,0,0:0:0:0:
304,160,13950,1,0,0:0:0:0:
64,160,14113,1,0,0:0:0:0:
152,160,14331,1,0,0:0:0:0:
400,160,14439,1,0,0:0:0:0:
472,256,14602,1,0,0:0:0:0:
328,256,14765,1,0,0:0:0:0:
120,256,15091,5,0,0:0:0:0:
472,256,15254,1,0,0:0:0:0:
304,192,15581,1,0,0:0:0:0:
56,192,15744,1,0,0:0:0:0:
32,128,15907,1,0,0:0:0:0:
160,128,16070,1,0,0:0:0:0:
400,296,16396,5,0,0:0:0:0:
64,296,16722,1,0,0:0:0:0:
256,192,17048,12,0,17374,0:0:0:0:
32,296,17700,5,0,0:0:0:0:
480,296,18026,1,0,0:0:0:0:
256,192,18352,12,0,18515,0:0:0:0:
480,56,18678,5,0,0:0:0:0:
256,64,19004,1,0,0:0:0:0:
232,168,19167,1,0,0:0:0:0:
480,56,19331,1,0,0:0:0:0:
200,288,19657,1,0,0:0:0:0:
384,288,19983,6,0,L|256:288,1,110
408,168,20309,1,0,0:0:0:0:
120,168,20472,1,0,0:0:0:0:
312,224,20798,5,0,0:0:0:0:
176,224,20961,1,0,0:0:0:0:
312,72,21124,1,0,0:0:0:0:
32,72,21287,6,0,L|184:72,1,117.333333333333
400,72,21606,1,0,0:0:0:0:
424,192,21818,1,0,0:0:0:0:
288,192,21925,1,0,0:0:0:0:
256,320,22138,1,0,0:0:0:0:
456,320,22244,1,0,0:0:0:0:
400,320,22457,5,0,0:0:0:0:
232,320,22563,1,0,0:0:0:0:
288,192,22776,1,0,0:0:0:0:
512,192,22882,1,0,0:0:0:0:
336,72,23095,5,0,0:0:0:0:
240,72,23201,1,0,0:0:0:0:
376,128,23414,1,0,0:0:0:0:
240,72,23521,1,0,0:0:0:0:
416,184,23733,1,0,0:0:0:0:
240,72,23840,1,0,0:0:0:0:
368,248,24159,5,0,0:0:0:0:
64,248,24478,1,0,0:0:0:0:
184,248,24691,1,0,0:0:0:0:
368,248,24797,1,0,0:0:0:0:
408,304,25010,1,0,0:0:0:0:
144,304,25116,1,0,0:0:0:0:
104,352,25329,1,0,0:0:0:0:
448,352,25435,1,0,0:0:0:0:
344,304,25648,5,0,0:0:0:0:
208,304,25755,1,0,0:0:0:0:
112,192,25967,2,0,L|232:192,1,73.3333333333333
256,96,26287,1,0,0:0:0:0:
32,96,26393,1,0,0:0:0:0:
480,96,26712,5,0,0:0:0:0:
32,96,27031,1,0,0:0:0:0:
224,192,27244,2,0,L|144:192,1,73.3333333333333
312,192,27563,1,0,0:0:0:0:
80,192,27669,1,0,0:0:0:0:
224,256,27882,1,0,0:0:0:0:
472,256,27989,1,0,0:0:0:0:
336,256,28201,1,0,0:0:0:0:
176,72,28521,5,0,0:0:0:0:
280,72,28627,1,0,0:0:0:0:
128,128,28840,1,0,0:0:0:0:
376,128,28946,1,0,0:0:0:0:
128,128,29265,1,0,0:0:0:0:
312,128,29478,1,0,0:0:0:0:
488,128,29584,1,0,0:0:0:0:
352,280,29797,5,0,0:0:0:0:
216,280,29904,1,0,0:0:0:0:
160,264,30116,1,0,0:0:0:0:
416,264,30223,1,0,0:0:0:0:
284,224,30435,1,0,0:0:0:0:
416,264,30542,1,0,0:0:0:0:
88,224,30755,1,0,0:0:0:0:
56,168,31074,5,0,0:0:0:0:
376,168,31180,1,0,0:0:0:0:
424,280,31340,1,0,0:0:0:0:
144,168,31499,1,0,0:0:0:0:
392,168,31818,5,0,0:0:0:0:
440,280,31978,1,0,0:0:0:0:
144,168,32138,1,0,0:0:0:0:
256,216,32297,1,0,0:0:0:0:
112,264,32457,1,0,0:0:0:0:
392,168,32616,1,0,0:0:0:0:
216,264,32989,5,0,0:0:0:0:
440,264,33095,1,0,0:0:0:0:
464,360,33308,1,0,0:0:0:0:
200,360,33414,1,0,0:0:0:0:
64,360,33627,1,0,0:0:0:0:
336,360,33733,1,0,0:0:0:0:
464,360,33946,1,0,0:0:0:0:
168,360,34265,1,0,0:0:0:0:
400,184,34584,5,0,0:0:0:0:
168,184,34691,1,0,0:0:0:0:
144,80,34904,1,0,0:0:0:0:
416,80,35010,1,0,0:0:0:0:
296,184,35223,1,0,0:0:0:0:
504,184,35329,1,0,0:0:0:0:
296,304,35648,5,0,0:0:0:0:
168,304,35861,1,0,0:0:0:0:
504,304,35967,1,0,0:0:0:0:
296,248,36180,5,0,0:0:0:0:
64,248,36287,1,0,0:0:0:0:
224,192,36499,1,0,0:0:0:0:
448,192,36606,1,0,0:0:0:0:
0,0,36943,5,0,0:0:0:0:
512,0,37280,1,0,0:0:0:0:
320,80,37504,5,0,0:0:0:0:
112,80,37617,1,0,0:0:0:0:
56,80,37841,1,0,0:0:0:0:
264,80,37954,1,0,0:0:0:0:
440,256,38291,5,0,0:0:0:0:
0,352,38628,1,0,0:0:0:0:
208,256,38853,2,0,L|112:256,1,73.3333333333333
303,256,39134,1,0,0:0:0:0:
242,256,39218,1,0,0:0:0:0:
160,256,39302,1,0,0:0:0:0:
280,176,39461,6,0,L|288:128,1,36.6666666666667
72,152,39621,2,0,L|56:96,1,36.6666666666667
286,139,39780,2,0,L|294:83,1,36.6666666666667
192,72,39940,2,0,L|152:72,1,36.6666666666667
288,136,40099,2,0,L|296:192,1,36.6666666666667
80,216,40259,2,0,L|16:216,1,36.6666666666667
168,216,40419,2,0,L|176:272,1,36.6666666666667
400,288,40578,2,0,L|440:288,1,36.6666666666667
328,288,40738,2,0,L|304:248,1,36.6666666666667
80,216,40897,2,0,L|144:216,1,36.6666666666667
432,136,41110,1,0,0:0:0:0:
168,136,41376,5,0,0:0:0:0:
224,136,41456,1,0,0:0:0:0:
278,136,41536,1,0,0:0:0:0:
192,192,41695,1,0,0:0:0:0:
504,192,41855,1,0,0:0:0:0:
280,288,42183,1,0,0:0:0:0:
376,288,42402,1,0,0:0:0:0:
8,288,42512,1,0,0:0:0:0:
232,192,42841,5,0,0:0:0:0:
120,192,43060,1,0,0:0:0:0:
448,192,43170,1,0,0:0:0:0:
304,104,43389,1,0,0:0:0:0:
416,104,43498,1,0,0:0:0:0:
112,192,43718,1,0,0:0:0:0:
472,192,43827,1,0,0:0:0:0:
336,320,44046,1,0,0:0:0:0:
160,320,44156,1,0,0:0:0:0:
440,192,44375,1,0,0:0:0:0:
256,192,44485,12,0,46348,0:0:0:0:
256,192,46622,5,0,0:0:0:0:
208,192,46704,1,0,0:0:0:0:
424,192,46786,2,0,L|304:192,1,110
64,192,47115,1,0,0:0:0:0:
256,264,47444,1,0,0:0:0:0:
152,264,47663,1,0,0:0:0:0:
512,264,47772,1,0,0:0:0:0:
296,80,48101,5,0,0:0:0:0:
80,80,48430,1,0,0:0:0:0:
184,80,48649,1,0,0:0:0:0:
408,80,48759,1,0,0:0:0:0:
448,192,48978,1,0,0:0:0:0:
160,192,49087,1,0,0:0:0:0:
256,312,49307,1,0,0:0:0:0:
136,312,49416,1,0,0:0:0:0:
488,312,49635,1,0,0:0:0:0:
256,192,49745,12,0,51608,0:0:0:0:
128,184,51882,5,0,0:0:0:0:
256,184,52046,1,0,0:0:0:0:
384,184,52211,1,0,0:0:0:0:
64,184,52327,1,0,0:0:0:0:
288,48,52653,1,0,0:0:0:0:
400,48,52816,1,0,0:0:0:0:
176,48,52979,1,0,0:0:0:0:
424,296,53305,5,0,0:0:0:0:
128,296,53631,1,0,0:0:0:0:
176,296,53848,1,0,0:0:0:0:
416,96,53957,1,0,0:0:0:0:
328,96,54174,1,0,0:0:0:0:
56,96,54283,1,0,0:0:0:0:
168,96,54500,1,0,0:0:0:0:
416,192,54609,1,0,0:0:0:0:
256,192,54827,1,0,0:0:0:0:
256,192,54935,12,0,56892,0:0:0:0:
256,176,57055,5,0,0:0:0:0:
256,176,57055,1,0,0:0:0:0:
256,176,57055,1,0,0:0:0:0:
256,176,57055,1,0,0:0:0:0:
112,176,57381,6,0,L|48:176,1,55
352,32,57536,2,0,B|480:96|328:176|328:176|496:248|368:320|368:320|240:400|104:296|104:296|176:288|224:192|224:192|224:72|104:24|24:128,1,1155.00004405976
408,72,58833,1,0,0:0:0:0:
304,96,59049,1,0,0:0:0:0:
408,72,59157,1,0,0:0:0:0:
256,144,59319,2,0,B|112:184|112:184|208:208|208:208|112:232|112:232|272:272,1,495.000018882752
432,280,60049,1,0,0:0:0:0:
112,192,60373,5,0,0:0:0:0:
288,96,60698,1,0,0:0:0:0:
120,96,60779,1,0,0:0:0:0:
240,192,61022,1,0,0:0:0:0:
64,192,61103,1,0,0:0:0:0:
256,288,61427,1,0,0:0:0:0:
440,288,61752,1,0,0:0:0:0:
256,288,61914,1,0,0:0:0:0:
424,192,62238,5,0,0:0:0:0:
352,192,62319,1,0,0:0:0:0:
424,192,62400,1,0,0:0:0:0:
256,192,62617,1,0,0:0:0:0:
136,80,62725,6,0,P|56:136|152:320,1,330.000012588501
424,192,63373,2,0,L|314:192,2,110
88,280,64022,2,0,B|232:296|128:232|128:232|16:184|176:112,1,330.000012588501
256,120,64508,1,0,0:0:0:0:
392,192,64671,1,0,0:0:0:0:
256,120,64887,2,0,B|56:144|56:192|400:240|400:320|192:384|96:272,1,495.000018882752
480,216,65535,1,0,0:0:0:0:
232,96,65860,5,0,0:0:0:0:
336,192,65968,2,0,L|112:192,1,208.999994419098
464,96,66617,1,0,0:0:0:0:
328,248,66860,1,0,0:0:0:0:
408,248,66941,1,0,0:0:0:0:
216,248,67157,1,0,0:0:0:0:
96,72,67427,5,0,0:0:0:0:
160,72,67508,1,0,0:0:0:0:
344,72,67590,2,0,L|512:72,1,165.000006294251
448,112,67833,1,0,0:0:0:0:
64,88,67914,6,0,B|16:80|16:176|16:320|168:408|664:192|584:-256|-128:-128|32:296|-56:256|328:336|512:256,1,1155.00004405976
424,272,69130,2,0,P|352:176|408:168,1,247.500009441376
336,112,69454,1,0,0:0:0:0:
392,112,69535,1,0,0:0:0:0:
496,112,69698,1,0,0:0:0:0:
80,160,69779,2,0,P|16:192|144:288,1,247.500009441376
368,272,70184,2,0,P|424:184|288:136,1,247.500009441376
128,112,70508,1,0,0:0:0:0:
328,192,70752,6,0,B|408:160|456:120|456:120|384:72|208:80|120:112|120:112|208:176|376:152|376:152|296:248|192:216|192:216|296:272|376:240|376:240|296:304|224:288|224:288|296:336|336:320|336:320|272:384|272:384,1,1517.99995367432
152,248,72779,1,0,0:0:0:0:
296,216,72941,1,0,0:0:0:0:
448,176,73103,1,0,0:0:0:0:
128,80,73434,5,0,0:0:0:0:
352,176,73765,1,0,0:0:0:0:
112,88,74097,1,0,0:0:0:0:
424,160,74428,1,0,0:0:0:0:
352,176,74594,1,0,0:0:0:0:
120,232,74760,1,0,0:0:0:0:
48,208,74926,1,0,0:0:0:0:
232,176,75091,1,0,0:0:0:0:
120,232,75257,1,0,0:0:0:0:
464,176,75423,6,0,B|472:296|472:296|264:320,1,330
112,240,76086,6,0,L|272:256,1,110
352,168,76417,2,0,L|200:184,1,110
128,96,76749,2,0,L|264:112,1,110
376,104,77080,1,0,0:0:0:0:
264,128,77246,1,0,0:0:0:0:
96,240,77412,1,0,0:0:0:0:
272,280,77578,1,0,0:0:0:0:
448,328,77743,1,0,0:0:0:0:
48,208,78075,6,0,B|40:88|40:88|248:64,1,330
408,176,78738,2,0,L|416:312,1,110
240,136,79069,2,0,L|232:272,1,110
64,208,79401,2,0,L|72:336,1,110
280,320,79732,2,0,L|440:312,1,132
296,240,80064,2,0,L|160:224,1,110
464,128,80395,2,0,L|328:136,1,110
80,144,80727,1,0,0:0:0:0:
256,192,80810,12,0,86362,0:0:0:0:
