osu file format v14

[General]
AudioFilename: Break- Thru.mp3
AudioLeadIn: 0
PreviewTime: 6176
Countdown: 0
SampleSet: None
StackLeniency: 0.7
Mode: 2
LetterboxInBreaks: 0
WidescreenStoryboard: 1

[Editor]
Bookmarks: 6176,9195,21270,36544,66684,81778,90725
DistanceSpacing: 0.8
BeatDivisor: 4
GridSize: 8
TimelineZoom: 1.6

[Metadata]
Title:Spongebob Soundtracks Part I
TitleUnicode:Spongebob Soundtracks Part I
Artist:Stephen Hillenburg
ArtistUnicode:Stephen Hillenburg
Creator:_wwwww
Version:Break- Thru
Source:
Tags:
BeatmapID:1830137
BeatmapSetID:875786

[Difficulty]
HPDrainRate:6
CircleSize:4
OverallDifficulty:7
ApproachRate:9
SliderMultiplier:1.9
SliderTickRate:1

[Events]
//Background and Video events
0,0,"maxresdefault (3).jpg",0,0
//Break Periods
//Storyboard Layer 0 (Background)
//Storyboard Layer 1 (Fail)
//Storyboard Layer 2 (Pass)
//Storyboard Layer 3 (Foreground)
//Storyboard Sound Samples

[TimingPoints]
258,342.857142857143,4,2,0,65,1,0
1703,389.61038961039,4,2,0,65,1,0
3207,356.083086053412,4,2,0,65,1,0
4667,377.358490566038,4,2,0,65,1,0
33298,279.06976744186,4,2,0,65,1,0
36544,377.358490566038,4,2,0,65,1,0
54609,377.358490566038,4,2,0,65,1,0
66684,377.358490566038,4,2,0,65,1,0
87816,363.636363636364,4,2,0,65,1,0

[HitObjects]
120,312,258,5,0,0:0:0:0:
128,272,343,1,0,0:0:0:0:
136,232,429,1,0,0:0:0:0:
144,192,515,1,0,0:0:0:0:
370,193,600,5,0,0:0:0:0:
405,155,686,1,0,0:0:0:0:
404,108,772,1,0,0:0:0:0:
368,72,857,1,0,0:0:0:0:
144,192,943,5,0,0:0:0:0:
240,192,1115,1,0,0:0:0:0:
192,192,1200,1,0,0:0:0:0:
370,193,1286,1,0,0:0:0:0:
120,256,1703,6,0,B|80:192|80:192|136:120,1,142.5
400,192,2092,1,0,0:0:0:0:
144,256,2482,2,0,B|128:184|128:184|216:128,1,142.5
456,192,2871,1,0,0:0:0:0:
200,80,3207,5,0,0:0:0:0:
240,80,3296,1,0,0:0:0:0:
280,80,3385,1,0,0:0:0:0:
320,80,3474,1,0,0:0:0:0:
142,191,3563,5,0,0:0:0:0:
107,229,3649,1,0,0:0:0:0:
107,279,3735,1,0,0:0:0:0:
142,319,3833,1,0,0:0:0:0:
320,256,3919,6,0,L|248:256,3,47.5
72,192,4275,1,0,0:0:0:0:
352,192,4667,6,0,B|424:192|424:192|336:192,1,142.5
72,192,5044,1,0,0:0:0:0:
352,192,5421,2,0,L|408:272,1,95
312,272,5704,1,0,0:0:0:0:
216,272,5799,1,0,0:0:0:0:
408,272,5987,1,0,0:0:0:0:
80,272,6176,6,0,L|72:168,1,95
232,144,6553,2,0,L|104:144,1,95
312,144,6931,2,0,L|432:144,1,95
136,272,7308,2,0,L|128:168,1,95
432,144,7685,2,0,P|488:192|392:256,1,190
280,256,8251,5,0,0:0:0:0:
376,216,8440,1,0,0:0:0:0:
104,224,8629,1,0,0:0:0:0:
376,216,8817,2,0,P|408:160|328:128,1,142.5
104,120,9195,6,0,L|224:120,1,95
136,168,9478,1,0,0:0:0:0:
232,208,9572,2,0,L|104:208,2,95
360,208,10138,1,0,0:0:0:0:
80,208,10327,2,0,L|184:208,1,95
392,208,10704,5,0,0:0:0:0:
392,208,10893,1,0,0:0:0:0:
240,208,11082,1,0,0:0:0:0:
272,208,11270,1,0,0:0:0:0:
96,208,11459,1,0,0:0:0:0:
240,208,11648,1,0,0:0:0:0:
24,208,11836,1,0,0:0:0:0:
304,208,12025,1,0,0:0:0:0:
192,112,12214,5,0,0:0:0:0:
368,112,12402,2,0,L|472:112,1,95
304,208,12780,1,0,0:0:0:0:
176,216,12968,2,0,L|168:312,1,95
432,304,13346,2,0,L|337:304,1,95
80,240,13723,6,0,L|72:144,1,95
248,144,14100,2,0,L|136:144,2,95
416,144,14667,1,0,0:0:0:0:
248,144,14855,2,0,L|128:144,1,95
416,144,15233,6,0,L|424:256,1,95
488,240,15516,1,0,0:0:0:0:
360,240,15610,2,0,L|240:240,1,95
400,152,15987,2,0,L|288:152,1,95
144,152,16365,2,0,L|24:152,1,95
256,152,16742,5,0,0:0:0:0:
128,240,16931,1,0,0:0:0:0:
200,240,17025,1,0,0:0:0:0:
272,240,17119,1,0,0:0:0:0:
56,240,17308,1,0,0:0:0:0:
88,224,17497,1,0,0:0:0:0:
344,240,17685,6,0,L|240:240,2,95
64,192,18251,2,0,L|56:96,1,95
256,88,18629,2,0,L|128:88,1,95
368,88,19006,2,0,L|360:224,1,95
104,240,19383,1,0,0:0:0:0:
96,224,19572,1,0,0:0:0:0:
360,232,19761,6,0,L|456:232,1,95
296,232,20138,2,0,L|200:232,1,95
360,232,20516,2,0,L|368:104,1,95
201,232,20893,2,0,L|321:232,1,95
0,232,21270,5,0,0:0:0:0:
480,136,21648,1,0,0:0:0:0:
160,96,22025,1,0,0:0:0:0:
480,136,22214,1,0,0:0:0:0:
0,232,22591,1,0,0:0:0:0:
312,232,22968,5,0,0:0:0:0:
256,232,23063,1,0,0:0:0:0:
200,232,23157,1,0,0:0:0:0:
384,152,23346,5,0,0:0:0:0:
336,152,23440,1,0,0:0:0:0:
384,152,23534,1,0,0:0:0:0:
88,152,23723,5,0,0:0:0:0:
168,152,23817,1,0,0:0:0:0:
248,152,23912,1,0,0:0:0:0:
424,152,24100,1,0,0:0:0:0:
128,224,24289,6,0,L|120:320,1,95
336,320,24667,2,0,L|328:208,1,95
152,184,25044,2,0,L|40:184,1,95
272,96,25421,2,0,L|384:96,1,95
152,184,25799,5,0,0:0:0:0:
320,240,25987,1,0,0:0:0:0:
264,240,26082,1,0,0:0:0:0:
208,240,26176,1,0,0:0:0:0:
384,288,26365,2,0,L|400:192,1,95
208,240,26742,1,0,0:0:0:0:
400,192,26931,1,0,0:0:0:0:
112,192,27308,6,0,L|104:80,1,95
312,192,27685,2,0,L|304:80,1,95
112,192,28063,2,0,L|208:192,1,95
407,192,28440,2,0,L|303:192,1,95
112,192,28817,5,0,0:0:0:0:
312,192,29100,1,0,0:0:0:0:
184,192,29195,2,0,L|176:288,1,95
280,288,29572,1,0,0:0:0:0:
112,192,29761,2,0,L|16:192,1,95
320,192,30327,6,0,L|328:72,1,95
72,192,30704,2,0,L|64:80,1,95
344,192,31082,2,0,L|440:192,1,95
96,192,31459,2,0,L|208:192,1,95
344,192,31836,5,0,0:0:0:0:
200,192,32025,1,0,0:0:0:0:
248,192,32119,1,0,0:0:0:0:
344,192,32214,2,0,L|360:72,1,95
168,96,32591,1,0,0:0:0:0:
352,96,32780,2,0,L|232:96,1,95
40,240,33298,5,0,0:0:0:0:
456,304,33577,1,0,0:0:0:0:
96,128,33856,1,0,0:0:0:0:
288,240,34135,1,0,0:0:0:0:
128,304,34414,1,0,0:0:0:0:
480,152,34693,1,0,0:0:0:0:
64,80,34972,1,0,0:0:0:0:
424,80,35670,6,0,L|344:80,1,47.5
120,80,35809,2,0,P|32:160|120:272,1,285
192,272,36297,1,0,0:0:0:0:
272,272,36367,1,0,0:0:0:0:
416,272,36544,6,0,L|424:160,1,95
256,168,36921,1,0,0:0:0:0:
424,168,37110,1,0,0:0:0:0:
224,168,37298,2,0,L|104:168,1,95
296,88,37676,2,0,L|400:88,1,95
224,88,38053,5,0,0:0:0:0:
368,240,38242,1,0,0:0:0:0:
312,240,38336,1,0,0:0:0:0:
256,240,38430,1,0,0:0:0:0:
424,240,38619,2,0,L|432:144,1,95
256,144,38996,1,0,0:0:0:0:
424,240,39185,2,0,L|432:120,1,95
128,248,39562,6,0,L|0:248,1,95
96,200,39845,1,0,0:0:0:0:
168,152,39940,2,0,L|56:152,1,95
232,152,40317,1,0,0:0:0:0:
392,152,40506,2,0,L|400:272,1,95
80,256,41072,5,0,0:0:0:0:
280,256,41260,1,0,0:0:0:0:
80,200,41449,1,0,0:0:0:0:
256,200,41638,1,0,0:0:0:0:
80,144,41827,1,0,0:0:0:0:
280,144,42015,1,0,0:0:0:0:
80,88,42204,1,0,0:0:0:0:
256,88,42393,1,0,0:0:0:0:
80,144,42581,6,0,L|192:144,1,95
80,200,42959,2,0,L|192:200,1,95
448,224,43336,2,0,L|328:224,1,95
200,224,43713,2,0,L|88:224,1,95
448,224,44091,6,0,L|456:96,1,95
288,224,44468,2,0,L|280:128,1,95
128,224,44845,2,0,L|136:112,1,95
312,128,45223,1,0,0:0:0:0:
128,224,45411,1,0,0:0:0:0:
416,232,45600,6,0,L|304:232,1,95
368,272,45883,1,0,0:0:0:0:
280,312,45977,2,0,L|376:312,1,95
480,312,46355,1,0,0:0:0:0:
224,312,46544,2,0,L|112:312,1,95
280,312,46921,1,0,0:0:0:0:
88,248,47110,5,0,0:0:0:0:
56,160,47298,1,0,0:0:0:0:
112,80,47487,1,0,0:0:0:0:
208,64,47676,1,0,0:0:0:0:
304,64,47864,1,0,0:0:0:0:
120,192,48053,6,0,L|224:192,2,95
392,192,48619,2,0,L|400:312,1,95
200,296,48996,2,0,L|320:296,1,95
105,296,49374,2,0,L|201:296,1,95
384,296,49751,1,0,0:0:0:0:
72,192,50128,6,0,L|64:80,1,95
224,192,50506,2,0,L|112:192,1,95
288,192,50883,2,0,L|400:192,1,95
208,120,51260,1,0,0:0:0:0:
184,112,51449,1,0,0:0:0:0:
512,232,51638,5,0,0:0:0:0:
32,136,52016,1,0,0:0:0:0:
352,96,52393,1,0,0:0:0:0:
32,136,52582,1,0,0:0:0:0:
512,232,52959,1,0,0:0:0:0:
160,256,53336,5,0,0:0:0:0:
88,256,53430,1,0,0:0:0:0:
16,256,53525,1,0,0:0:0:0:
224,192,53713,1,0,0:0:0:0:
280,192,53808,1,0,0:0:0:0:
224,192,53902,1,0,0:0:0:0:
376,88,54091,1,0,0:0:0:0:
144,88,54185,1,0,0:0:0:0:
408,192,54609,6,0,L|416:304,1,95
216,192,54986,2,0,L|208:304,1,95
400,192,55363,2,0,L|280:192,1,95
104,192,55741,2,0,L|224:192,1,95
416,72,56118,6,0,L|424:192,1,95
336,176,56401,1,0,0:0:0:0:
248,192,56495,2,0,L|240:296,1,95
432,320,57061,1,0,0:0:0:0:
80,320,57250,1,0,0:0:0:0:
344,200,57627,6,0,L|352:88,1,95
168,200,58005,2,0,L|160:88,1,95
368,200,58382,2,0,L|472:200,1,95
144,200,58759,2,0,L|24:200,1,95
240,264,59137,6,0,L|368:264,1,95
256,232,59420,1,0,0:0:0:0:
176,200,59514,2,0,L|296:200,1,95
32,200,60080,1,0,0:0:0:0:
480,200,60269,1,0,0:0:0:0:
160,88,60646,6,0,L|256:88,1,95
480,88,61024,2,0,L|344:88,1,95
136,144,61401,2,0,L|0:144,1,95
480,152,61778,2,0,L|352:152,1,95
64,232,62156,5,0,0:0:0:0:
224,232,62344,1,0,0:0:0:0:
280,232,62439,1,0,0:0:0:0:
336,232,62533,1,0,0:0:0:0:
128,232,62722,1,0,0:0:0:0:
472,304,63099,1,0,0:0:0:0:
104,304,63288,1,0,0:0:0:0:
432,232,63665,5,0,0:0:0:0:
64,128,63917,1,0,0:0:0:0:
448,72,64168,1,0,0:0:0:0:
256,160,64420,1,0,0:0:0:0:
472,264,64671,1,0,0:0:0:0:
48,288,64986,1,0,0:0:0:0:
472,264,65237,1,0,0:0:0:0:
224,192,65835,5,0,0:0:0:0:
56,192,65929,2,0,B|8:160|-8:112|248:104,1,237.5
264,104,66495,1,0,0:0:0:0:
328,104,66590,1,0,0:0:0:0:
456,104,66684,6,0,L|464:232,1,95
456,104,66684,1,0,0:0:0:0:
456,104,66684,1,0,0:0:0:0:
456,104,66684,1,0,0:0:0:0:
456,104,66684,1,0,0:0:0:0:
456,104,66684,1,0,0:0:0:0:
456,104,66684,1,0,0:0:0:0:
456,72,66684,1,0,0:0:0:0:
456,72,66684,1,0,0:0:0:0:
456,72,66684,1,0,0:0:0:0:
456,72,66684,1,0,0:0:0:0:
456,72,66684,1,0,0:0:0:0:
456,72,66684,1,0,0:0:0:0:
456,72,66684,1,0,0:0:0:0:
456,72,66684,1,0,0:0:0:0:
312,248,67061,2,0,L|432:248,1,95
192,248,67438,2,0,L|184:136,1,95
408,168,67816,2,0,L|416:64,1,95
128,248,68193,2,0,L|24:248,1,95
216,144,68570,2,0,L|80:144,2,95
456,144,69136,2,0,L|352:144,1,95
456,144,69514,1,0,0:0:0:0:
168,248,69702,2,0,L|40:248,1,95
152,192,69985,1,0,0:0:0:0:
344,192,70080,2,0,L|456:192,2,95
88,96,70646,2,0,L|200:96,1,95
424,96,71212,1,0,0:0:0:0:
96,176,71400,1,0,0:0:0:0:
424,136,71589,1,0,0:0:0:0:
136,224,71778,1,0,0:0:0:0:
424,176,71967,1,0,0:0:0:0:
96,264,72155,1,0,0:0:0:0:
424,216,72344,1,0,0:0:0:0:
136,296,72533,1,0,0:0:0:0:
312,296,72721,2,0,L|320:192,1,95
136,296,73099,2,0,L|248:296,1,95
456,104,73476,2,0,L|320:104,1,95
56,104,73853,2,0,L|48:208,1,95
360,296,74231,2,0,L|480:296,1,95
256,296,74608,2,0,L|248:184,1,95
360,184,74985,1,0,0:0:0:0:
64,184,75174,1,0,0:0:0:0:
360,184,75363,1,0,0:0:0:0:
376,160,75551,1,0,0:0:0:0:
64,184,75740,2,0,L|160:184,1,95
240,184,76023,1,0,0:0:0:0:
160,256,76117,2,0,L|256:256,2,95
424,248,76684,2,0,L|432:128,1,95
320,128,77061,1,0,0:0:0:0:
72,128,77250,2,0,L|64:248,1,95
264,224,77627,2,0,L|256:112,1,95
96,224,78004,2,0,L|88:112,1,95
264,224,78382,2,0,L|376:224,1,95
96,224,78759,2,0,L|208:224,1,95
384,128,79136,1,0,0:0:0:0:
224,96,79325,1,0,0:0:0:0:
400,64,79514,1,0,0:0:0:0:
240,152,79702,1,0,0:0:0:0:
408,296,79891,2,0,L|416:176,1,95
168,224,80268,2,0,L|88:288,1,95
272,152,80646,1,0,0:0:0:0:
112,64,80834,1,0,0:0:0:0:
288,96,81023,1,0,0:0:0:0:
128,128,81212,2,0,L|136:176,1,47.5
224,200,81400,2,0,L|352:200,1,95
64,288,81778,2,0,L|192:288,1,95
264,288,82061,5,0,0:0:0:0:
464,288,82155,2,0,L|344:288,1,95
64,288,82533,2,0,L|56:192,1,95
232,144,82910,2,0,L|360:144,1,95
136,144,83287,2,0,L|32:144,1,95
112,192,83570,1,0,0:0:0:0:
272,240,83665,2,0,L|152:240,1,95
328,240,84042,5,0,0:0:0:0:
177,240,84231,2,0,L|281:240,2,95
464,192,84797,2,0,L|472:88,1,95
304,192,85174,2,0,L|416:192,1,95
248,192,85551,2,0,L|152:192,1,95
416,280,85929,1,0,0:0:0:0:
400,264,86117,1,0,0:0:0:0:
88,288,86306,6,0,L|96:184,1,95
256,112,86684,2,0,L|136:112,1,95
312,112,87061,2,0,L|432:112,1,95
288,216,87438,2,0,L|408:216,1,95
128,216,87816,6,0,L|120:344,1,95
216,304,88179,1,0,0:0:0:0:
288,304,88270,1,0,0:0:0:0:
360,304,88361,1,0,0:0:0:0:
432,304,88452,1,0,0:0:0:0:
128,216,88543,6,0,L|64:296,1,95
272,240,88906,1,0,0:0:0:0:
344,240,88997,1,0,0:0:0:0:
416,240,89088,1,0,0:0:0:0:
488,240,89179,1,0,0:0:0:0:
128,216,89270,6,0,L|24:248,1,95
224,160,89634,1,0,0:0:0:0:
304,160,89725,1,0,0:0:0:0:
384,160,89816,1,0,0:0:0:0:
464,160,89906,1,0,0:0:0:0:
128,120,89997,6,0,L|16:120,1,95
200,120,90361,1,0,0:0:0:0:
296,120,90452,1,0,0:0:0:0:
392,120,90543,1,0,0:0:0:0:
488,120,90634,1,0,0:0:0:0:
0,120,90725,1,0,0:0:0:0:
