osu file format v14

[General]
AudioFilename: audio.mp3
AudioLeadIn: 0
PreviewTime: 53575
Countdown: 0
SampleSet: Drum
StackLeniency: 0.7
Mode: 0
LetterboxInBreaks: 0
WidescreenStoryboard: 0

[Editor]
Bookmarks: 12261,22032,32318,43975,54947,76890,87861,98147,109804,120775,143232,166375,178375,186604
DistanceSpacing: 1.5
BeatDivisor: 4
GridSize: 8
TimelineZoom: 3.199999

[Metadata]
Title:Crossfire (TWINSICK Remix)
TitleUnicode:Crossfire (TWINSICK Remix)
Artist:Stephen
ArtistUnicode:Stephen
Creator:GreenMelonX
Version:Insane
Source:https://www.youtube.com/watch?v=GKqEoSiAi90
Tags:NCS Stephen TWINSICK Electronic English
BeatmapID:3009227
BeatmapSetID:1465170

[Difficulty]
HPDrainRate:6
CircleSize:4
OverallDifficulty:7
ApproachRate:9
SliderMultiplier:2
SliderTickRate:1

[Events]
//Background and Video events
0,0,"waw.jpg",0,0
//Break Periods
2,142774,165797
//Storyboard Layer 0 (Background)
//Storyboard Layer 1 (Fail)
//Storyboard Layer 2 (Pass)
//Storyboard Layer 3 (Foreground)
//Storyboard Layer 4 (Overlay)
//Storyboard Sound Samples

[TimingPoints]
118,342.857142857143,4,3,0,80,1,0
12117,-133.333333333333,4,3,0,60,0,0
22060,-100,4,3,0,65,0,0
24460,-100,4,3,0,40,0,0
24803,-100,4,3,0,65,0,0
29946,-100,4,3,0,40,0,0
30289,-100,4,3,0,65,0,0
30632,-100,4,3,0,45,0,0
30975,-100,4,3,0,65,0,0
31660,-100,4,3,0,45,0,0
32003,-100,4,3,0,65,0,0
32346,-100,4,3,0,60,0,0
44003,-100,4,3,0,70,0,0
49489,-100,4,3,0,80,0,0
52146,-66.6666666666667,4,3,0,70,0,0
54803,-80,4,3,0,80,0,1
60631,-100,4,3,0,80,0,1
60974,-80,4,3,0,80,0,1
65260,-80,4,3,0,80,0,0
68003,-80,4,3,0,80,0,1
75374,-133.333333333333,4,3,0,80,0,0
75717,-200,4,3,0,75,0,0
76060,-400,4,3,0,70,0,0
76403,-1000,4,3,0,65,0,0
76746,-1000,4,3,0,55,0,0
77003,-1000,4,3,0,5,0,0
78975,-1000,4,3,0,55,0,0
79746,-1000,4,3,0,5,0,0
81032,-1000,4,3,0,55,0,0
82489,-1000,4,3,0,5,0,0
83432,-1000,4,3,0,15,0,0
84460,-1000,4,3,0,55,0,0
85232,-1000,4,3,0,25,0,0
85832,-1000,4,3,0,35,0,0
86518,-1000,4,3,0,55,0,0
87717,-100,4,3,0,65,0,0
90289,-100,4,3,0,40,0,0
90632,-100,4,3,0,65,0,0
95775,-100,4,3,0,40,0,0
96118,-100,4,3,0,65,0,0
96460,-100,4,3,0,45,0,0
96803,-100,4,3,0,65,0,0
97489,-100,4,3,0,45,0,0
97832,-100,4,3,0,65,0,0
98175,-100,4,3,0,60,0,0
109832,-100,4,3,0,70,0,0
115318,-100,4,3,0,80,0,0
117975,-133.333333333333,4,3,0,70,0,0
120803,-80,4,3,0,80,0,1
126374,-100,4,3,0,80,0,1
126803,-80,4,3,0,80,0,1
131089,-80,4,3,0,80,0,0
133832,-80,4,3,0,80,0,1
140689,-80,4,3,0,80,0,0
141117,-133.333333333333,4,3,0,75,0,0
141460,-200,4,3,0,70,0,0
141803,-400,4,3,0,65,0,0
142146,-1000,4,3,0,60,0,0
142746,-1000,4,3,0,50,0,0
166231,-100,4,3,0,70,0,0
178403,-100,4,3,0,75,0,0
183889,-100,4,3,0,80,0,0
189375,-100,4,3,0,80,0,0
191946,-66.6666666666667,4,3,0,80,0,1
197774,-100,4,3,0,80,0,1
198117,-80,4,3,0,80,0,1
199660,-80,4,3,0,80,0,0
203089,-80,4,3,0,80,0,1
209946,-80,4,3,0,70,0,0

[Colours]
Combo1 : 0,255,0
Combo2 : 200,255,200

[HitObjects]
47,126,12289,5,0,0:0:0:0:
47,126,12460,2,0,P|86:86|124:69,1,75.0000028610231,0|0,0:0|0:0,0:0:0:0:
293,200,12803,2,0,P|254:240|216:257,1,75.0000028610231,0|0,0:0|0:0,0:0:0:0:
120,148,13146,2,0,B|177:101|206:154|278:101,1,150.000005722046
353,62,13660,1,0,0:0:0:0:
353,62,13832,2,0,B|386:34|427:54|427:54|424:99|463:125|463:125|471:175|424:195|424:195|405:168|358:147,1,300.000011444092
242,66,14689,5,0,0:0:0:0:
242,66,14860,2,0,L|286:151,1,75.0000028610231
332,180,15203,2,0,P|293:258|234:280,1,150.000005722046,0|0,0:0|0:0,0:0:0:0:
227,190,15718,1,0,0:0:0:0:
227,190,15889,2,0,P|160:221|133:290,1,150.000005722046,0|0,0:0|0:0,0:0:0:0:
133,290,16575,1,0,0:0:0:0:
72,349,17775,5,0,0:0:0:0:
72,349,17946,2,0,P|40:297|34:252,1,75.0000028610231,0|0,0:0|0:0,0:0:0:0:
90,173,18289,2,0,P|122:225|128:270,1,75.0000028610231,0|0,0:0|0:0,0:0:0:0:
151,346,18632,2,0,P|151:273|218:216,1,150.000005722046,0|0,0:0|0:0,0:0:0:0:
325,169,19146,1,0,0:0:0:0:
437,204,19318,2,0,B|421:234|429:265|429:265|383:261|373:287|373:287|377:336|335:364|335:364|286:347|305:285,1,300.000011444092
344,186,20175,5,0,0:0:0:0:
239,207,20346,2,0,L|272:114,1,75.0000028610231
319,92,20689,2,0,P|242:49|163:79,1,150.000005722046
105,141,21203,1,0,0:0:0:0:
69,247,21375,2,0,P|108:272|130:326,1,75.0000028610231
128,366,21718,2,0,L|214:329,1,75.0000028610231
348,300,22060,5,4,0:0:0:0:
294,120,22403,2,0,L|207:176,1,100,0|0,0:0|0:0,0:0:0:0:
223,300,22746,1,8,1:0:0:0:
357,87,23260,5,0,0:0:0:0:
357,87,23432,2,0,B|405:98|451:81|451:81|492:119|490:174,1,200,0|4,0:0|0:0,0:0:0:0:
370,181,23946,1,0,0:0:0:0:
370,181,24118,2,0,L|257:150,1,100,2|8,0:0|1:0,0:0:0:0:
151,215,24460,6,0,P|128:203|94:194,3,50,2|2|0|2,0:0|0:0|0:0|0:0,0:0:0:0:
187,243,24803,2,0,B|251:333|251:333|365:333,2,200,4|0|8,0:0|0:0|1:0,0:0:0:0:
38,90,25832,6,0,P|60:39|116:39,1,100,0|0,0:0|0:0,0:0:0:0:
203,47,26175,1,4,0:0:0:0:
355,168,26518,1,4,0:0:0:0:
355,168,26689,2,0,P|410:148|434:98,2,100,0|8|0,0:0|1:0|0:0,0:0:0:0:
176,234,27203,1,0,0:0:0:0:
203,47,27375,1,4,0:0:0:0:
355,168,27546,2,0,B|314:168|283:191|283:191|255:142|179:127|179:127|158:182|97:164|97:164|72:107|22:121,1,400
132,353,28746,5,0,0:0:0:0:
132,353,28918,2,0,B|143:295|93:256,1,100,0|0,0:0|0:0,0:0:0:0:
36,205,29260,1,4,0:0:0:0:
72,79,29603,6,0,P|104:48|231:87,1,150,8|0,1:0|0:0,0:0:0:0:
234,88,29946,2,0,L|254:144,3,50
263,182,30289,2,0,B|257:222|270:253|270:253|317:246|340:282|340:282|375:295|412:252,1,200
489,172,30975,5,8,1:0:0:0:
126,162,31318,2,0,B|145:149|198:142|198:142|241:176|315:134,1,200
473,30,32003,5,0,0:0:0:0:
83,65,32346,6,0,P|130:65|165:100,1,100,8|0,1:0|0:0,0:0:0:0:
131,175,32689,2,0,P|194:220|238:203,1,100,0|0,0:0|0:0,0:0:0:0:
360,184,33032,1,0,0:0:0:0:
420,332,33203,1,0,0:0:0:0:
461,174,33375,2,0,P|393:100|296:110,1,200,2|2,0:0|0:0,0:0:0:0:
137,162,34060,2,0,P|170:200|212:228,1,100,2|0,0:0|0:0,0:0:0:0:
284,248,34403,2,0,B|284:205|265:182|265:182|305:156|287:112|287:112|244:106|207:68,1,200,2|2,0:0|0:0,0:0:0:0:
199,153,34918,1,0,0:0:0:0:
199,153,35089,2,0,P|133:154|71:203,2,100,2|0|2,0:0|0:0|0:0,0:0:0:0:
297,142,35603,1,0,0:0:0:0:
340,234,35775,6,0,P|418:290|512:265,2,200,2|2|2,0:0|0:0|0:0,0:0:0:0:
235,116,36803,6,0,P|209:59|167:21,2,100,2|0|2,0:0|0:0|0:0,0:0:0:0:
205,336,37489,1,2,0:0:0:0:
421,81,37832,1,2,0:0:0:0:
345,160,38003,1,0,0:0:0:0:
195,47,38175,1,2,0:0:0:0:
297,86,38346,1,0,0:0:0:0:
91,303,38518,6,0,L|123:197,1,100,2|0,0:0|0:0,0:0:0:0:
49,124,38860,1,2,0:0:0:0:
254,283,39203,1,2,0:0:0:0:
320,96,39546,1,2,0:0:0:0:
383,206,39717,1,2,0:0:0:0:
448,96,39889,1,0,0:0:0:0:
339,275,40232,2,0,B|385:285|385:322|385:322|425:338|456:308|456:308|482:337|523:339,2,200,2|2|2,0:0|0:0|0:0,0:0:0:0:
113,90,41260,6,0,P|68:67|31:33,2,100,2|0|2,0:0|0:0|0:0,0:0:0:0:
361,139,41946,1,2,0:0:0:0:
33,132,42289,2,0,P|84:141|152:176,1,100,2|0,0:0|0:0,3:0:0:0:
228,237,42632,1,2,0:0:0:0:
426,58,42975,5,2,0:0:0:0:
325,100,43146,1,0,0:0:0:0:
426,58,43318,1,2,0:0:0:0:
369,153,43489,1,0,0:0:0:0:
426,58,43660,1,2,0:0:0:0:
436,168,43832,1,0,0:0:0:0:
297,178,44003,6,0,B|318:230|377:229|377:229|404:290|376:346,2,200,8|8|8,1:0|1:0|1:0,1:0:0:0:
342,119,45032,1,8,1:0:0:0:
152,308,45375,1,8,1:0:0:0:
248,44,45718,1,8,1:0:0:0:
305,308,46060,1,8,1:0:0:0:
479,116,46403,1,8,1:0:0:0:
233,163,46575,5,8,1:0:0:0:
233,163,46660,1,8,1:0:0:0:
233,163,46746,1,8,1:0:0:0:
460,284,47089,1,8,1:0:0:0:
97,350,47432,1,8,1:0:0:0:
169,77,47775,6,0,P|171:133|211:188,1,100,8|0,1:0|0:0,1:0:0:0:
262,242,48118,2,0,B|281:218|317:229|317:229|376:228|382:182|382:182|349:163|314:117,1,200,8|8,1:0|1:0,1:0:0:0:
274,67,48632,5,0,0:0:0:0:
200,297,48803,1,8,1:0:0:0:
356,145,48975,1,0,0:0:0:0:
254,188,49146,1,8,1:0:0:0:
310,288,49318,1,0,0:0:0:0:
156,192,49489,6,0,P|207:182|263:192,1,100,8|0,1:0|3:0,1:0:0:0:
185,121,49832,2,0,P|228:150|260:196,1,100,8|0,1:0|3:0,1:0:0:0:
367,314,50175,6,0,P|373:264|364:215,1,100,8|0,1:0|3:0,1:0:0:0:
369,316,50518,2,0,P|408:285|435:244,1,100,8|0,1:0|3:0,1:0:0:0:
428,111,50860,6,0,P|377:101|322:110,1,100,8|0,1:0|3:0,1:0:0:0:
399,39,51203,2,0,P|356:68|324:114,1,100,8|0,1:0|3:0,1:0:0:0:
58,164,51546,6,0,P|91:200|136:222,1,100,8|0,1:0|3:0,1:0:0:0:
54,163,51889,2,0,P|53:212|68:259,1,100,8|0,1:0|3:0,1:0:0:0:
234,305,52232,6,0,P|278:283|294:253,16,75.0000028610231,0|0|0|0|0|0|0|0|0|0|0|0|0|0|0|0|0,0:0|0:0|0:0|0:0|0:0|0:0|0:0|0:0|0:0|0:0|0:0|0:0|0:0|0:0|0:0|0:0|0:0,0:0:0:0:
256,192,53775,12,0,54632,0:0:0:0:
41,67,54975,6,0,P|111:45|206:34,1,125
182,118,55232,1,0,0:0:0:0:
182,118,55318,2,0,B|252:145|309:68|384:103,1,187.5
414,112,55660,1,8,1:0:0:0:
201,352,56003,6,0,L|152:290,1,62.5,0|0,0:0|0:0,0:0:0:0:
223,268,56175,2,0,L|241:203,1,62.5,0|0,0:0|0:0,0:0:0:0:
245,126,56346,2,0,P|301:163|370:181,1,125
429,184,56603,1,0,0:0:0:0:
429,184,56689,2,0,P|412:123|295:52,1,187.5,0|0,0:0|0:0,0:0:0:0:
257,49,57032,5,8,1:0:0:0:
268,236,57203,1,0,0:0:0:0:
91,37,57375,5,0,0:0:0:0:
252,145,57546,1,0,0:0:0:0:
136,326,57718,6,0,P|128:258|166:159,1,125
207,236,57975,1,0,0:0:0:0:
207,236,58061,2,0,P|272:168|294:62,1,187.5,0|0,0:0|0:0,0:0:0:0:
294,34,58403,1,8,1:0:0:0:
115,175,58746,2,0,L|201:162,1,62.5,0|0,0:0|0:0,0:0:0:0:
159,238,58918,2,0,L|227:266,1,62.5,0|0,0:0|0:0,0:0:0:0:
215,331,59089,2,0,B|264:345|268:287|333:305,1,125
404,320,59346,1,0,0:0:0:0:
404,320,59432,2,0,B|470:256|372:206|445:135,1,187.5,4|0,0:0|0:0,0:0:0:0:
470,110,59775,5,0,0:0:0:0:
316,215,59946,1,0,0:0:0:0:
408,77,60118,5,8,1:0:0:0:
492,226,60289,1,0,0:0:0:0:
160,169,60460,6,0,B|206:127|206:127|287:134,1,125,4|0,0:0|0:0,0:0:0:0:
307,196,60718,1,0,0:0:0:0:
307,196,60803,2,0,B|379:171|379:171|405:78,1,150
408,77,61146,1,0,0:0:0:0:
263,31,61489,6,0,L|200:98,1,62.5,0|0,0:0|0:0,0:0:0:0:
156,43,61660,2,0,L|148:104,1,62.5,0|0,0:0|0:0,0:0:0:0:
116,168,61832,2,0,B|64:233|64:233|29:137,1,125,0|0,0:0|0:0,0:0:0:0:
14,135,62089,1,0,0:0:0:0:
14,135,62175,2,0,B|112:92|112:92|190:116,1,187.5,4|0,0:0|0:0,0:0:0:0:
233,129,62518,5,8,1:0:0:0:
296,314,62689,1,2,1:0:0:0:
298,93,62860,5,2,1:0:0:0:
235,278,63032,1,2,1:0:0:0:
444,271,63203,6,0,P|444:201|382:159,1,125
355,210,63460,1,0,0:0:0:0:
355,210,63546,2,0,P|358:122|414:24,1,187.5
443,28,63889,1,8,1:0:0:0:
49,193,64232,6,0,L|75:128,1,62.5,0|0,0:0|0:0,0:0:0:0:
130,177,64403,2,0,L|170:130,1,62.5,0|0,0:0|0:0,0:0:0:0:
171,60,64575,2,0,B|205:63|205:63|246:69|263:129,1,125,0|0,0:0|0:0,0:0:0:0:
283,192,64832,1,0,0:0:0:0:
283,192,64918,2,0,B|247:274|178:201|115:270,1,187.5,0|0,0:0|0:0,0:0:0:0:
90,293,65260,5,8,1:0:0:0:
243,137,65432,1,0,0:0:0:0:
366,213,65603,5,0,0:0:0:0:
176,164,65775,1,0,0:0:0:0:
362,89,65946,5,0,0:0:0:0:
277,265,66118,1,0,0:0:0:0:
165,211,66289,6,0,P|165:145|246:111,1,125
276,79,66632,2,0,P|278:139|232:178,1,125
29,249,66975,6,0,L|102:321,1,62.5
105,227,67146,2,0,L|184:207,1,62.5,0|0,0:0|0:0,0:0:0:0:
226,247,67318,2,0,P|274:286|332:279,1,125,0|0,0:0|0:0,0:0:0:0:
364,253,67575,1,0,0:0:0:0:
363,214,67660,2,0,P|303:156|195:157,1,187.5,0|0,0:0|0:0,0:0:0:0:
156,165,68003,5,8,1:0:0:0:
314,295,68175,1,2,1:0:0:0:
288,92,68346,5,2,1:0:0:0:
234,284,68518,1,2,1:0:0:0:
156,165,68689,6,0,P|219:144|309:153,1,125,0|0,0:0|0:0,0:0:0:0:
320,211,68946,1,0,0:0:0:0:
289,243,69032,2,0,B|199:283|199:283|109:242,1,187.5,0|0,0:0|0:0,0:0:0:0:
82,214,69375,1,8,1:0:0:0:
309,71,69718,6,0,L|334:127,1,62.5,0|0,0:0|0:0,0:0:0:0:
400,147,69889,2,0,L|374:203,1,62.5,0|0,0:0|0:0,0:0:0:0:
410,262,70060,2,0,P|394:322|326:325,1,125,0|0,0:0|0:0,0:0:0:0:
278,299,70318,1,0,0:0:0:0:
278,299,70403,2,0,P|273:230|189:161,1,125,4|0,0:0|0:0,0:0:0:0:
145,66,70746,6,0,P|60:90|-14:149,1,125,8|0,1:0|0:0,0:0:0:0:
39,190,71089,2,0,P|103:150|176:133,1,125,0|0,0:0|0:0,0:0:0:0:
351,186,71432,6,0,P|308:248|290:356,1,125,0|0,0:0|0:0,0:0:0:0:
223,296,71689,1,0,0:0:0:0:
223,296,71775,2,0,P|241:222|281:159,1,125,0|0,0:0|0:0,0:0:0:0:
341,35,72118,1,8,1:0:0:0:
298,100,72460,2,0,L|339:178,1,62.5,0|0,0:0|0:0,0:0:0:0:
397,142,72632,2,0,L|380:202,1,62.5,0|0,0:0|0:0,0:0:0:0:
344,260,72803,6,0,P|269:256|205:278,1,125,0|0,0:0|0:0,0:0:0:0:
156,293,73060,1,0,0:0:0:0:
156,293,73146,2,0,P|177:207|286:166,1,187.5,0|0,0:0|0:0,0:0:0:0:
305,163,73489,5,2,1:0:0:0:
257,305,73660,1,2,1:0:0:0:
132,183,73832,5,2,1:0:0:0:
257,305,74003,1,8,1:0:0:0:
448,283,74175,2,0,P|344:256|313:220,1,125,0|0,0:0|0:0,0:0:0:0:
384,196,74432,1,0,0:0:0:0:
384,196,74518,2,0,P|360:126|448:48,1,187.5,0|0,0:0|0:0,0:0:0:0:
473,36,74860,1,8,1:0:0:0:
333,246,75203,6,0,L|175:180,1,125,4|0,0:0|0:0,0:0:0:0:
260,70,75546,2,0,L|164:95,1,75.0000028610231,0|0,0:0|0:0,0:0:0:0:
35,104,75889,2,0,L|65:148,1,50,0|0,0:0|0:0,0:0:0:0:
186,301,76232,2,0,L|151:303,1,25,8|0,1:0|0:0,0:0:0:0:
32,236,76575,2,0,L|39:246,1,10,0|0,0:0|0:0,0:0:0:0:
256,192,76918,6,0,P|314:187|374:161,1,125
429,122,79660,2,0,P|462:154|474:185,1,80
460,251,82403,6,0,P|403:237|350:206,1,120
323,142,85146,2,0,L|260:190,1,80
193,209,87203,1,0,0:0:0:0:
450,301,87889,5,4,0:0:0:0:
361,79,88575,1,8,1:0:0:0:
226,310,89089,5,0,0:0:0:0:
226,310,89261,2,0,B|182:288|145:314|145:314|131:276|96:262|96:262|84:236|94:216,1,200,0|4,0:0|0:0,0:0:0:0:
58,86,89775,1,0,0:0:0:0:
58,86,89947,2,0,P|113:110|156:148,1,100,2|8,0:0|1:0,0:0:0:0:
221,235,90289,6,0,L|259:192,3,50,2|2|0|0,0:0|0:0|0:0|0:0,0:0:0:0:
216,279,90632,2,0,B|251:276|278:312|278:312|309:289|335:301|335:301|366:335|422:329,1,200,4|0,0:0|0:0,0:0:0:0:
464,303,91146,1,0,0:0:0:0:
471,231,91318,2,0,P|452:164|430:137,1,100,2|8,0:0|1:0,0:0:0:0:
149,97,91660,6,0,P|103:116|69:153,1,100,4|0,0:0|0:0,0:0:0:0:
44,227,92003,1,0,0:0:0:0:
337,189,92346,5,4,0:0:0:0:
378,122,92518,2,0,P|403:72|416:23,2,100,0|8|0,0:0|1:0|0:0,0:0:0:0:
225,210,93032,1,0,0:0:0:0:
60,222,93204,1,4,0:0:0:0:
130,79,93375,2,0,B|170:87|205:72|205:72|266:90|293:158|293:158|326:109|381:141|381:141|393:202|452:199,1,400
469,96,94575,5,0,0:0:0:0:
469,96,94747,2,0,B|441:57|441:57|381:41,1,100,0|0,0:0|0:0,0:0:0:0:
284,42,95089,1,4,0:0:0:0:
478,244,95432,6,0,B|450:247|437:277|437:277|404:283|376:270|376:270|357:295|323:293,1,150,8|0,1:0|0:0,0:0:0:0:
309,293,95775,2,0,L|272:326,3,50
299,246,96118,2,0,B|319:208|362:203|362:203|396:180|387:127|387:127|373:106|318:88,1,200
209,35,96804,5,8,1:0:0:0:
65,94,97147,6,0,B|63:114|80:148|80:148|116:158|141:188|141:188|135:224|159:252,1,200,4|0,0:0|0:0,0:0:0:0:
286,340,97832,5,0,0:0:0:0:
220,193,98175,6,0,P|183:240|189:294,1,100,0|0,0:0|0:0,0:0:0:0:
253,275,98518,2,0,P|323:249|345:213,1,100,0|0,0:0|0:0,0:0:0:0:
405,97,98860,5,0,0:0:0:0:
405,97,99032,1,0,0:0:0:0:
405,97,99203,2,0,B|346:150|287:85|220:160,1,200,2|2,0:0|0:0,0:0:0:0:
97,318,99889,5,8,0:0:0:0:
97,318,100060,2,0,P|152:305|204:275,1,100,2|0,0:0|0:0,0:0:0:0:
376,144,100575,6,0,L|416:52,2,100
458,282,101089,1,0,0:0:0:0:
300,282,101260,2,0,L|173:256,1,100
136,166,101603,2,0,B|106:150|109:120|109:120|126:86|115:46|115:46|78:48|49:28,2,200
220,308,102632,6,0,P|253:270|294:242,1,100,2|0,0:0|0:0,0:0:0:0:
458,148,102975,2,0,B|429:168|392:168|392:168|383:208|401:242|401:242|405:271|338:319,1,200,0|0,0:0|0:0,0:0:0:0:
280,63,103660,1,2,0:0:0:0:
232,259,103832,1,0,0:0:0:0:
87,140,104003,2,0,L|210:129,1,100,0|0,0:0|0:0,0:0:0:0:
380,210,104346,6,0,L|348:104,1,100,2|0,0:0|0:0,0:0:0:0:
233,46,104689,2,0,B|242:137|302:151|313:239,1,200,2|2,0:0|0:0,0:0:0:0:
384,320,105375,5,8,0:0:0:0:
383,90,105546,1,2,0:0:0:0:
196,221,105718,1,0,0:0:0:0:
360,186,106060,6,0,B|340:284|249:221|222:325,2,200,2|2|2,0:0|0:0|0:0,0:0:0:0:
351,38,106918,5,0,0:0:0:0:
351,38,107089,2,0,P|322:80|264:115,1,100,2|0,0:0|0:0,0:0:0:0:
171,136,107432,2,0,L|380:222,1,200,0|0,0:0|0:0,0:0:0:0:
479,324,107946,1,0,0:0:0:0:
265,318,108118,2,0,P|245:262|183:202,1,100,2|0,0:0|0:0,3:0:0:0:
151,225,108460,2,0,P|97:131|128:38,1,200,0|0,0:0|0:0,0:0:0:0:
197,124,108975,2,0,B|241:160|241:160|326:144,1,100,0|0,0:0|0:0,0:0:0:0:
405,146,109318,1,0,0:0:0:0:
419,35,109489,1,0,0:0:0:0:
316,79,109660,1,2,0:0:0:0:
390,222,109832,6,0,P|457:259|514:258,2,100,8|0|8,1:0|0:0|1:0,1:0:0:0:
256,144,110518,1,8,1:0:0:0:
256,144,110860,5,8,1:0:0:0:
256,288,111032,1,0,0:0:0:0:
176,144,111203,1,8,1:0:0:0:
364,204,111546,2,0,P|280:255|176:272,2,200,8|8|8,1:0|1:0|1:0,0:0:0:0:
419,112,112403,5,8,1:0:0:0:
419,112,112489,1,8,1:0:0:0:
419,112,112575,1,8,1:0:0:0:
176,144,112918,1,8,1:0:0:0:
121,193,113260,1,8,1:0:0:0:
228,193,113603,6,0,P|285:184|355:193,1,100,8|0,1:0|0:0,1:0:0:0:
346,114,113946,2,0,P|400:194|309:280,1,200,8|8,1:0|1:0,1:0:0:0:
208,128,114632,1,8,1:0:0:0:
384,192,114803,1,0,0:0:0:0:
336,128,114975,1,8,1:0:0:0:
156,192,115146,1,8,1:0:0:0:
156,192,115232,1,8,1:0:0:0:
156,192,115318,6,0,B|207:202|207:202|263:192,1,100,8|0,1:0|3:0,1:0:0:0:
255,194,115660,2,0,B|228:234|228:234|185:263,1,100,8|0,1:0|3:0,1:0:0:0:
114,149,116003,6,0,B|79:110|79:110|30:83,1,100,8|0,1:0|3:0,1:0:0:0:
36,87,116346,2,0,B|34:134|34:134|50:184,1,100,8|0,1:0|3:0,1:0:0:0:
154,228,116689,6,0,B|205:218|205:218|260:227,1,100,8|0,1:0|3:0,1:0:0:0:
252,225,117032,2,0,B|280:186|280:186|323:157,1,100,8|0,1:0|3:0,1:0:0:0:
447,145,117375,6,0,B|437:196|437:196|447:251,1,100,8|0,1:0|3:0,1:0:0:0:
445,243,117718,2,0,B|406:215|406:215|377:172,1,100,8|0,1:0|3:0,1:0:0:0:
283,115,118060,6,0,L|250:134,14,37.5000014305115,0|0|0|0|0|0|0|0|0|0|0|0|0|0|0,1:0|1:0|1:0|1:0|1:0|1:0|1:0|1:0|1:0|1:0|1:0|1:0|1:0|1:0|1:0,1:0:0:0:
256,192,119603,12,0,120460,0:0:0:0:
167,304,120803,6,0,B|237:266|178:222|276:171,1,125,4|0,0:0|0:0,0:0:0:0:
287,253,121060,1,0,0:0:0:0:
287,253,121146,2,0,B|370:202|306:139|399:88,1,187.5,0|0,0:0|0:0,0:0:0:0:
421,67,121489,1,8,1:0:0:0:
487,342,121832,6,0,L|413:325,1,62.5,0|0,0:0|0:0,0:0:0:0:
462,266,122003,2,0,L|416:223,1,62.5,0|0,0:0|0:0,0:0:0:0:
487,195,122175,2,0,B|447:177|453:71|370:97,1,125,0|0,0:0|0:0,0:0:0:0:
383,81,122432,1,0,0:0:0:0:
383,81,122518,2,0,P|300:42|298:105,1,187.5,4|0,0:0|0:0,0:0:0:0:
325,147,122860,5,8,1:0:0:0:
171,247,123032,1,2,1:0:0:0:
358,265,123203,5,2,1:0:0:0:
159,173,123375,1,2,1:0:0:0:
258,85,123546,6,0,P|231:156|243:243,1,125,0|0,0:0|0:0,0:0:0:0:
282,256,123803,1,0,0:0:0:0:
282,256,123889,2,0,P|241:303|121:347,1,187.5
81,347,124232,1,8,1:0:0:0:
173,112,124575,6,0,B|108:155|112:79|23:147,1,125,4|0,0:0|0:0,0:0:0:0:
56,200,124832,1,0,0:0:0:0:
56,200,124918,2,0,B|122:166|159:237|239:187,1,187.5,0|0,0:0|0:0,0:0:0:0:
344,141,125260,5,4,0:0:0:0:
281,326,125432,1,0,0:0:0:0:
282,95,125603,5,8,1:0:0:0:
345,280,125775,1,0,0:0:0:0:
344,141,125946,5,0,0:0:0:0:
219,292,126118,1,0,0:0:0:0:
123,326,126289,6,0,B|40:326|40:326|93:241,1,125,4|0,0:0|0:0,0:0:0:0:
252,226,126546,1,0,0:0:0:0:
252,226,126632,2,0,B|169:226|169:226|226:132,1,150
218,141,126975,1,8,1:0:0:0:
154,353,127318,6,0,L|221:282,1,62.5,0|0,0:0|0:0,0:0:0:0:
241,360,127489,2,0,L|325:331,1,62.5,0|0,0:0|0:0,0:0:0:0:
263,281,127660,2,0,B|310:219|265:167,1,125
342,163,127918,1,0,0:0:0:0:
342,163,128003,2,0,B|382:252|299:349,1,187.5
240,347,128346,5,2,1:0:0:0:
177,162,128518,1,8,1:0:0:0:
427,213,128689,5,2,1:0:0:0:
277,86,128860,1,2,1:0:0:0:
367,244,129032,6,0,B|293:269|354:330|240:354,1,125
247,277,129289,1,0,0:0:0:0:
247,277,129375,2,0,B|170:282|158:361|79:346,1,187.5,0|0,0:0|0:0,0:0:0:0:
34,340,129718,1,8,1:0:0:0:
230,33,130060,6,0,L|276:94,1,62.5,0|0,0:0|0:0,0:0:0:0:
335,67,130232,2,0,L|330:145,1,62.5
266,151,130403,2,0,B|207:164|207:210|207:210|207:243,1,125
198,316,130660,1,0,0:0:0:0:
198,316,130746,2,0,P|131:258|174:129,1,187.5,0|0,0:0|0:0,0:0:0:0:
152,136,131089,5,0,0:0:0:0:
287,283,131260,1,0,0:0:0:0:
227,30,131432,5,0,0:0:0:0:
319,208,131603,1,0,0:0:0:0:
356,59,131775,5,0,0:0:0:0:
239,244,131946,1,8,1:0:0:0:
489,258,132118,6,0,P|432:281|372:271,1,125
400,204,132460,2,0,P|353:165|292:157,1,125
165,155,132803,6,0,L|98:209,1,62.5,0|0,0:0|0:0,0:0:0:0:
58,154,132975,2,0,L|36:219,1,62.5,0|0,0:0|0:0,0:0:0:0:
45,287,133146,2,0,P|106:296|160:267,1,125,0|0,0:0|0:0,0:0:0:0:
218,315,133403,1,0,0:0:0:0:
218,315,133489,2,0,P|223:223|176:144,1,187.5,0|4,0:0|0:0,0:0:0:0:
159,127,133832,5,8,1:0:0:0:
347,66,134003,1,2,1:0:0:0:
149,241,134175,5,2,1:0:0:0:
149,43,134346,1,2,1:0:0:0:
159,127,134518,6,0,B|78:104|24:173|24:173,1,125,4|0,0:0|0:0,0:0:0:0:
70,224,134775,1,0,0:0:0:0:
70,224,134860,2,0,B|135:170|177:259|252:205,1,187.5,0|0,0:0|0:0,0:0:0:0:
285,177,135203,1,8,1:0:0:0:
421,351,135546,6,0,L|385:299,1,62.5,4|0,0:0|0:0,0:0:0:0:
454,279,135718,2,0,L|478:221,1,62.5,0|0,0:0|0:0,0:0:0:0:
441,165,135889,2,0,P|449:103|405:52,1,125,0|0,0:0|0:0,0:0:0:0:
350,93,136146,1,0,0:0:0:0:
350,93,136232,2,0,B|373:152|373:152|347:233,1,125,4|0,0:0|0:0,0:0:0:0:
200,244,136575,6,0,B|113:218|113:218|41:161,1,125,8|0,1:0|0:0,0:0:0:0:
93,122,136918,2,0,B|180:148|180:148|254:203,1,125,0|0,0:0|0:0,0:0:0:0:
444,209,137260,6,0,B|365:253|365:253|307:325,1,125,4|0,1:0|0:0,0:0:0:0:
367,351,137518,1,0,0:0:0:0:
367,351,137603,2,0,B|445:306|445:306|505:235,1,125,0|0,0:0|0:0,0:0:0:0:
478,102,137946,1,8,1:0:0:0:
75,135,138289,6,0,L|120:196,1,62.5,0|0,0:0|0:0,0:0:0:0:
56,226,138460,2,0,L|28:298,1,62.5,0|0,0:0|0:0,0:0:0:0:
37,353,138632,2,0,B|108:333|108:333|170:292,1,125,0|0,0:0|0:0,0:0:0:0:
157,237,138889,1,0,0:0:0:0:
157,237,138975,2,0,B|190:237|207:226|207:226|253:233|277:260|277:260|310:266|350:242,1,187.5,0|0,0:0|0:0,0:0:0:0:
369,229,139318,5,8,1:0:0:0:
212,151,139489,1,2,1:0:0:0:
369,229,139660,5,2,1:0:0:0:
488,126,139832,1,2,1:0:0:0:
179,35,140003,6,0,P|243:64|298:59,1,125,0|8,0:0|1:0,0:0:0:0:
366,49,140260,1,0,0:0:0:0:
366,49,140346,2,0,B|367:77|347:116|347:116|283:128|242:174,1,187.5,0|8,0:0|1:0,0:0:0:0:
224,202,140689,1,0,0:0:0:0:
360,255,141032,6,0,B|427:228|427:228|460:152,1,125,4|0,0:0|0:0,0:0:0:0:
407,75,141375,2,0,B|398:37|398:37|331:13,1,75.0000028610231
226,97,141718,2,0,B|225:117|225:117|252:132,1,50
318,222,142060,2,0,L|292:239,1,25,8|0,1:0|0:0,0:0:0:0:
177,214,142403,2,0,L|183:204,1,10
207,161,166575,5,0,0:0:0:0:
269,194,166746,2,0,P|320:201|389:139,2,100,0|0|0,0:0|0:0|0:0,0:0:0:0:
156,114,167260,1,0,0:0:0:0:
120,172,167432,2,0,P|101:238|212:332,2,200,8|8|8,0:0|0:0|0:0,0:0:0:0:
481,43,168460,5,8,0:0:0:0:
481,43,168803,1,8,0:0:0:0:
481,43,169146,1,8,0:0:0:0:
358,201,169318,5,0,0:0:0:0:
284,190,169489,2,0,P|238:182|183:138,2,100,8|0|8,0:0|0:0|0:0,0:0:0:0:
335,131,170003,1,0,0:0:0:0:
264,112,170175,2,0,P|311:62|408:141,2,200,8|8|8,0:0|0:0|0:0,0:0:0:0:
36,39,171203,5,8,0:0:0:0:
45,75,171546,1,8,0:0:0:0:
54,111,171889,1,8,0:0:0:0:
63,147,172232,1,8,0:0:0:0:
73,184,172575,2,0,L|186:264,1,100
305,350,172918,5,8,0:0:0:0:
305,350,173089,2,0,P|248:355|204:310,1,100,0|8,0:0|0:0,0:0:0:0:
107,198,173432,1,0,0:0:0:0:
77,64,173603,1,8,0:0:0:0:
194,172,173946,5,8,0:0:0:0:
233,168,174118,1,0,0:0:0:0:
270,155,174289,1,8,0:0:0:0:
357,34,174632,5,8,0:0:0:0:
435,49,174975,1,8,0:0:0:0:
475,117,175318,2,0,L|407:204,1,100
443,287,175660,5,8,0:0:0:0:
443,287,175832,2,0,P|412:328|351:336,1,100,0|8,0:0|0:0,0:0:0:0:
272,351,176175,1,0,0:0:0:0:
201,294,176346,2,0,P|179:200|147:168,1,100
119,41,176689,5,8,0:0:0:0:
158,45,176861,1,0,0:0:0:0:
191,69,177032,1,8,0:0:0:0:
189,192,177375,6,0,L|91:208,2,100
271,202,177889,1,0,0:0:0:0:
175,291,178060,1,8,0:0:0:0:
318,303,178232,1,0,0:0:0:0:
318,303,178318,1,0,0:0:0:0:
318,303,178403,6,0,P|370:322|470:295,2,150,4|0|0,0:0|0:0|0:0,0:0:0:0:
90,208,179089,1,4,0:0:0:0:
290,205,179432,2,0,P|349:226|428:213,2,100,8|0|4,0:0|0:0|0:0,0:0:0:0:
125,89,180118,2,0,L|105:226,1,100
100,283,180460,2,0,L|216:245,1,100
290,205,180803,1,8,0:0:0:0:
393,254,180975,5,8,0:0:0:0:
393,254,181060,1,8,0:0:0:0:
393,254,181146,1,12,0:0:0:0:
478,33,181489,1,8,0:0:0:0:
274,36,181832,2,0,P|160:66|81:136,1,200,4|8,0:0|0:0,0:0:0:0:
36,257,182346,5,0,0:0:0:0:
36,257,182518,1,4,0:0:0:0:
212,312,182860,1,8,0:0:0:0:
279,182,183203,2,0,B|318:208|318:208|369:191,2,100,4|0|8,0:0|0:0|0:0,0:0:0:0:
161,64,183718,5,0,0:0:0:0:
157,191,183889,5,4,0:0:0:0:
161,64,184060,1,8,0:0:0:0:
283,289,184232,1,4,0:0:0:0:
334,172,184403,1,8,0:0:0:0:
77,176,184575,5,4,0:0:0:0:
191,119,184746,1,8,0:0:0:0:
33,320,184918,1,4,0:0:0:0:
158,341,185089,1,8,0:0:0:0:
78,98,185260,5,4,0:0:0:0:
187,165,185432,1,8,0:0:0:0:
406,35,185603,1,4,0:0:0:0:
289,88,185775,1,8,0:0:0:0:
466,271,185946,5,4,0:0:0:0:
391,167,186118,1,8,0:0:0:0:
176,305,186289,1,4,0:0:0:0:
242,196,186460,1,8,0:0:0:0:
256,192,186632,12,0,188003,0:0:0:0:
84,67,189375,5,4,0:0:0:0:
195,133,189546,1,0,0:0:0:0:
112,233,189718,2,0,B|157:272|171:318|171:318|224:283|221:217,1,200
240,41,190403,1,0,0:0:0:0:
121,94,190575,1,0,0:0:0:0:
233,157,190746,6,0,L|172:104,1,50
149,175,190918,2,0,L|86:156,1,50
34,187,191089,2,0,B|34:247|34:247|34:321|128:328,2,200,4|8|0,0:0|0:0|0:0,0:0:0:0:
78,122,192118,6,0,B|151:88|152:168|278:111,1,150.000005722046,4|0,0:0|0:0,0:0:0:0:
251,201,192375,1,0,0:0:0:0:
251,201,192460,2,0,B|359:161|349:298|448:269,1,225.000008583069,4|0,0:0|0:0,0:0:0:0:
482,251,192803,1,8,1:0:0:0:
487,37,193146,6,0,L|391:24,1,75.0000028610231
405,97,193318,2,0,L|302:55,1,75.0000028610231
275,35,193489,2,0,B|221:34|191:22|140:93,1,150.000005722046
159,159,193746,1,0,0:0:0:0:
159,159,193832,2,0,B|188:136|235:136|235:136|268:176|320:172|320:172|348:146|389:159,1,225.000008583069
411,157,194175,5,8,1:0:0:0:
254,54,194346,1,0,0:0:0:0:
269,254,194518,5,0,0:0:0:0:
337,80,194689,1,0,0:0:0:0:
146,146,194860,6,0,P|231:155|307:200,1,150.000005722046
319,253,195118,1,0,0:0:0:0:
319,253,195203,2,0,B|284:259|270:287|270:287|233:285|209:266|209:266|180:275|170:301|170:301|138:305|91:283,1,225.000008583069
88,285,195546,1,8,1:0:0:0:
99,41,195889,6,0,P|145:51|184:90,1,75.0000028610231
135,131,196060,2,0,P|171:136|207:127,1,75.0000028610231
254,74,196232,2,0,P|315:124|272:141,1,150.000005722046
238,190,196489,1,0,0:0:0:0:
238,190,196575,2,0,B|254:254|193:282|193:282|201:359|319:348,1,225.000008583069
315,355,196918,5,8,1:0:0:0:
378,170,197089,1,2,1:0:0:0:
377,309,197260,5,2,1:0:0:0:
252,158,197432,1,2,1:0:0:0:
123,326,197603,6,0,B|40:326|40:326|100:224,1,150.000005722046,4|0,0:0|0:0,0:0:0:0:
104,201,197860,1,0,0:0:0:0:
104,201,197946,2,0,B|21:201|21:201|76:109,1,150,0|8,0:0|1:0,0:0:0:0:
72,112,198289,1,0,0:0:0:0:
297,99,198632,6,0,B|327:160|327:160,1,62.5,4|0,0:0|0:0,0:0:0:0:
310,227,198803,2,0,B|253:189|253:189,1,62.5,4|0,0:0|0:0,0:0:0:0:
209,138,198975,2,0,B|179:199|179:199|204:265,1,125
274,259,199232,1,0,0:0:0:0:
274,259,199318,2,0,B|276:306|251:335|251:335|214:325|192:333|192:333|163:323|143:295,1,187.5
131,278,199660,5,8,1:0:0:0:
194,93,199832,1,0,0:0:0:0:
201,258,200003,5,0,0:0:0:0:
138,73,200175,1,0,0:0:0:0:
212,328,200346,5,0,0:0:0:0:
269,141,200518,1,0,0:0:0:0:
140,208,200689,6,0,B|53:202|28:303,1,125
37,351,201032,2,0,B|103:319|141:271,1,125
429,39,201375,6,0,L|342:73,1,62.5
394,127,201546,2,0,L|375:192,1,62.5
306,178,201718,2,0,P|289:95|238:79,1,125
239,149,201975,1,0,0:0:0:0:
239,149,202060,2,0,B|204:164|190:204|190:204|158:208|126:176|126:176|102:184|81:213,1,187.5
68,231,202403,5,8,1:0:0:0:
132,44,202575,1,2,1:0:0:0:
251,236,202746,5,2,1:0:0:0:
94,116,202918,1,2,1:0:0:0:
306,102,203089,6,0,B|329:3|420:54|420:54,1,125
463,62,203346,1,0,0:0:0:0:
463,62,203432,2,0,B|468:118|444:141|444:141|412:127|389:139|389:139|375:185|324:217,1,187.5
346,216,203775,1,8,1:0:0:0:
26,349,204118,6,0,L|52:285,1,62.5
118,292,204289,2,0,L|103:217,1,62.5
41,206,204460,2,0,P|67:137|99:83,1,125
154,126,204718,1,0,0:0:0:0:
154,126,204803,2,0,P|225:142|283:166,1,125
422,228,205146,6,0,B|444:253|444:253|478:337,1,125,8|0,0:0|0:0,0:0:0:0:
404,351,205489,2,0,B|380:326|380:326|347:241,1,125,0|0,1:0|0:0,0:0:0:0:
209,34,205832,6,0,B|243:36|243:36|325:74,1,125,8|0,0:0|0:0,0:0:0:0:
364,136,206089,1,0,0:0:0:0:
364,136,206175,2,0,B|331:150|331:150|296:145|263:128|263:128|217:122|177:153,1,187.5,0|0,1:0|0:0,0:0:0:0:
157,165,206518,1,8,1:0:0:0:
477,238,206861,6,0,L|422:269,1,62.5
422,338,207032,2,0,L|358:323,1,62.5
291,327,207203,2,0,B|304:255|304:255|340:189,1,125
399,204,207460,1,0,0:0:0:0:
399,204,207546,2,0,B|423:158|423:158|437:86,1,125
446,45,207889,5,8,1:0:0:0:
271,27,208060,1,2,1:0:0:0:
446,45,208232,5,2,1:0:0:0:
485,227,208403,1,2,1:0:0:0:
342,42,208575,6,0,P|288:115|223:148,1,125
225,195,208832,1,0,0:0:0:0:
225,195,208918,2,0,B|194:172|191:140|191:140|155:148|128:131|128:131|108:95|64:68,1,187.5
72,72,209260,1,0,0:0:0:0:
446,64,209603,6,0,B|393:101|393:101|364:176,1,125,0|4,0:0|0:0,0:0:0:0:
330,340,209946,5,0,0:0:0:0:
42,77,210289,1,4,0:0:0:0:
418,183,210632,1,8,1:0:0:0:
56,327,210975,1,0,0:0:0:0:
