osu file format v14

[General]
AudioFilename: audio.mp3
AudioLeadIn: 0
PreviewTime: 40712
Countdown: 1
SampleSet: Soft
StackLeniency: 0.7
Mode: 0
LetterboxInBreaks: 0
WidescreenStoryboard: 1

[Editor]
DistanceSpacing: 1.8
BeatDivisor: 8
GridSize: 4
TimelineZoom: 2.1

[Metadata]
Title:The Zombie Song
TitleUnicode:The Zombie Song
Artist:Stephanie Mabey
ArtistUnicode:Stephanie Mabey
Creator:DooM_Archi
Version:Hard
Source:
Tags:
BeatmapID:1564975
BeatmapSetID:734245

[Difficulty]
HPDrainRate:5
CircleSize:4
OverallDifficulty:6
ApproachRate:7
SliderMultiplier:1.6
SliderTickRate:2

[Events]
//Background and Video events
Video,-222,"videoplayback (1).mp4"
0,0,"maxresdefault (2).jpg",0,0
//Break Periods
2,115097,118738
//Storyboard Layer 0 (Background)
//Storyboard Layer 1 (Fail)
//Storyboard Layer 2 (Pass)
//Storyboard Layer 3 (Foreground)
//Storyboard Sound Samples

[TimingPoints]
114.646623496762,652.173913043478,4,2,0,100,1,0
5332,-153.846153846153,4,2,0,100,0,0
7940,-100,4,2,0,100,0,0
16418,-153.846153846153,4,2,0,100,0,0
17723,-66.6666666666667,4,2,0,100,0,0
18375,-153.846153846153,4,2,0,100,0,0
19679,-66.6666666666667,4,2,0,100,0,0
20984,-153.846153846153,4,2,0,100,0,0
25223,-66.6666666666667,4,2,0,100,0,0
26201,-133.333333333333,4,2,0,100,0,0
27832,-66.6666666666667,4,2,0,100,0,0
28484,-50,4,2,0,100,0,0
29136,-153.846153846154,4,2,0,100,0,0
31418,-50,4,2,0,100,0,0
32071,-200,4,2,0,100,0,0
34027,-50,4,2,0,100,0,0
34679,-133.333333333333,4,2,0,100,0,0
36636,-50,4,2,0,100,0,0
37288,-200,4,2,0,100,0,0
38592,-100,4,2,0,100,0,0
41853,-133.333333333333,4,2,0,100,0,0
47071,-66.6666666666667,4,2,0,100,0,0
52758,-133.333333333333,4,2,0,100,0,0
57505,-66.6666666666667,4,2,0,100,0,0
67940,-153.846153846153,4,2,0,100,0,0
70060,-76.9230769230769,4,2,0,100,0,0
70548,-153.846153846153,4,2,0,100,0,0
71853,-200,4,2,0,100,0,0
73158,-100,4,2,0,100,0,0
78375,-153.846153846153,4,2,0,100,0,0
79679,-66.6666666666667,4,2,0,100,0,0
83592,-50,4,2,0,100,0,0
84245,-200,4,2,0,100,0,0
86201,-50,4,2,0,100,0,0
86301,-133.333333333333,4,2,0,100,0,0
88810,-50,4,2,0,100,0,0
89462,-200,4,2,0,100,0,0
91092,-100,4,2,0,100,0,0
94027,-125,4,2,0,100,0,0
99256,-66.6666666666667,4,2,0,100,0,0
104870,-133.333333333333,4,2,0,100,0,0
109679,-66.6666666666667,4,2,0,100,0,0
120114,-153.846153846153,4,2,0,100,0,0
122723,-133.333333333333,4,2,0,100,0,0
129092,-66.6666666666667,4,2,0,100,0,0
130549,-133.333333333333,4,2,0,100,0,0
140005,-175.438596491228,4,2,0,100,0,0
144082,-125,4,2,0,100,0,0
149070,-66.6666666666667,4,2,0,100,0,0
154476,-133.333333333333,4,2,0,100,0,0
159539,-66.6666666666667,4,2,0,100,0,0

[HitObjects]
356,124,5332,5,0,0:0:0:0:
356,124,5658,1,0,0:0:0:0:
260,84,5984,5,0,0:0:0:0:
260,84,6310,1,0,0:0:0:0:
212,176,6636,5,0,0:0:0:0:
212,176,6962,1,0,0:0:0:0:
316,156,7288,5,0,0:0:0:0:
316,156,7614,1,0,0:0:0:0:
160,192,7940,6,0,P|140:200|136:224,1,40
132,296,8266,2,0,L|196:236,1,80
132,92,8918,1,0,0:0:0:0:
292,72,9245,1,0,0:0:0:0:
32,256,9897,1,0,0:0:0:0:
316,108,10549,5,0,0:0:0:0:
156,124,10875,1,0,0:0:0:0:
136,284,11201,2,0,P|188:296|204:280,1,80
232,140,11853,5,0,0:0:0:0:
296,136,12016,1,0,0:0:0:0:
344,172,12179,1,0,0:0:0:0:
364,228,12342,1,0,0:0:0:0:
360,284,12505,1,0,0:0:0:0:
216,256,12832,1,0,0:0:0:0:
96,336,13158,6,0,P|60:284|68:276,1,80
104,248,13647,2,0,L|116:196,1,40
112,64,14136,1,0,0:0:0:0:
112,64,14299,1,0,0:0:0:0:
112,64,14462,2,0,L|36:96,1,80
272,208,15114,5,0,0:0:0:0:
356,264,15440,2,0,P|312:236|312:236,1,40
252,72,15766,5,0,0:0:0:0:
252,72,16092,1,0,0:0:0:0:
336,112,16418,5,0,0:0:0:0:
336,112,16745,1,0,0:0:0:0:
272,180,17071,5,0,0:0:0:0:
272,180,17397,5,0,0:0:0:0:
296,196,17560,1,0,0:0:0:0:
324,216,17723,2,0,P|284:224|236:292,1,120.000004577637
236,296,18212,1,0,0:0:0:0:
108,296,18375,5,0,0:0:0:0:
108,296,18701,1,0,0:0:0:0:
48,224,19027,5,0,0:0:0:0:
48,224,19353,1,0,0:0:0:0:
184,312,19679,6,0,P|216:248|188:196,1,120.000004577637
168,88,20332,1,0,0:0:0:0:
292,64,20658,2,0,P|236:68|212:52,1,60.0000022888184
168,88,20984,5,0,0:0:0:0:
76,200,21310,2,0,L|108:216,1,25.9999988098145
152,232,21636,2,0,B|152:256|152:256|172:272|168:280,1,51.999997619629
260,300,22288,5,0,0:0:0:0:
304,288,22451,1,0,0:0:0:0:
348,308,22614,1,0,0:0:0:0:
428,256,22940,6,0,B|412:232|404:220|404:220|388:228|392:216,1,51.999997619629
352,236,23429,1,0,0:0:0:0:
316,268,23592,2,0,B|320:304|320:304|336:312,1,51.999997619629
376,332,24082,1,0,0:0:0:0:
424,332,24245,2,0,B|456:312|456:312|448:288,1,51.999997619629
448,204,24897,5,0,0:0:0:0:
436,160,25060,1,0,0:0:0:0:
424,104,25223,2,0,B|360:100|360:100|324:156,1,120.000004577637
168,112,25875,2,0,L|232:124,1,60.0000022888184
199,163,26201,6,0,L|167:111,1,60.0000022888184
72,108,26853,5,0,0:0:0:0:
224,44,27179,1,0,0:0:0:0:
384,100,27505,1,0,0:0:0:0:
272,232,27832,2,0,B|264:208|264:208|244:188|244:188|224:188|208:184|208:184|224:164|212:136,1,120.000004577637
208,108,28321,1,0,0:0:0:0:
208,108,28484,2,0,B|240:96|240:96|260:116|312:88,2,80
144,208,29136,5,0,0:0:0:0:
144,208,29462,1,0,0:0:0:0:
256,264,29788,1,0,0:0:0:0:
256,264,30114,1,0,0:0:0:0:
252,116,30440,2,0,L|272:168,1,51.999997619629
92,180,31092,5,0,0:0:0:0:
92,232,31255,1,0,0:0:0:0:
128,252,31418,2,0,B|160:280|208:252|244:228|236:176,1,160
232,136,31908,1,0,0:0:0:0:
148,120,32071,2,0,L|148:180,1,60
160,188,32723,1,0,0:0:0:0:
240,184,33049,5,0,0:0:0:0:
272,216,33212,1,0,0:0:0:0:
304,192,33375,2,0,L|300:216,1,20
412,220,33864,5,0,0:0:0:0:
416,188,34027,2,0,P|464:148|424:56,1,160
408,64,34516,1,0,0:0:0:0:
392,120,34679,2,0,B|356:124|316:124|275:103,1,120.000004577637
232,80,35495,1,0,0:0:0:0:
100,80,35821,5,0,0:0:0:0:
84,132,35984,1,0,0:0:0:0:
92,172,36147,1,0,0:0:0:0:
104,280,36473,5,0,0:0:0:0:
140,312,36636,2,0,P|216:336|280:288,1,160
300,248,37125,1,0,0:0:0:0:
336,200,37288,2,0,B|348:204|356:212|356:224|364:232,1,40
384,276,37777,1,0,0:0:0:0:
376,328,37940,1,0,0:0:0:0:
464,192,38266,5,0,0:0:0:0:
352,128,38592,2,0,L|308:96,1,40
336,72,38918,2,0,L|300:56,1,40
280,28,39245,2,0,B|232:48|272:76|284:112|252:160|204:128,1,160
256,192,40141,12,0,41201,0:0:0:0:
80,75,41853,5,0,0:0:0:0:
220,68,42179,1,0,0:0:0:0:
260,48,42342,1,0,0:0:0:0:
300,60,42505,2,0,B|312:72|312:72|360:72,1,60.0000022888184
400,92,42995,1,0,0:0:0:0:
448,124,43158,2,0,P|456:136|448:184,1,60.0000022888184
176,136,43810,5,0,0:0:0:0:
248,284,44136,5,0,0:0:0:0:
296,272,44299,1,0,0:0:0:0:
332,240,44462,2,0,B|360:224|360:224|368:256,1,60.0000022888184
408,276,44951,1,0,0:0:0:0:
456,260,45114,2,0,B|484:264|484:264|492:224,1,60.0000022888184
372,84,45766,5,0,0:0:0:0:
176,64,46092,2,0,L|164:80,2,15.0000005722046
60,56,46418,2,0,L|84:64,2,15.0000005722046
108,136,46745,2,0,L|96:152,2,15.0000005722046
256,164,47071,5,0,0:0:0:0:
188,280,47397,2,0,P|280:300|312:272,1,120.000004577637
256,164,48049,5,0,0:0:0:0:
340,236,48212,2,0,P|376:180|368:128,1,120.000004577637
256,164,48701,1,0,0:0:0:0:
320,72,49027,2,0,P|260:48|200:72,1,120.000004577637
256,164,49516,1,0,0:0:0:0:
156,184,49842,2,0,P|152:144|168:124,1,60.0000022888184
196,248,50332,2,0,P|252:272|312:248,1,120.000004577637
352,212,50821,5,0,0:0:0:0:
376,164,50984,1,0,0:0:0:0:
380,112,51147,1,0,0:0:0:0:
348,68,51310,1,0,0:0:0:0:
296,48,51473,1,0,0:0:0:0:
240,60,51636,2,0,P|272:48|364:96,1,120.000004577637
80,309,52288,5,0,0:0:0:0:
220,316,52614,1,0,0:0:0:0:
260,336,52777,1,0,0:0:0:0:
300,324,52940,2,0,B|312:312|312:312|360:312,1,60.0000022888184
400,292,53430,1,0,0:0:0:0:
448,260,53593,2,0,P|456:248|448:200,1,60.0000022888184
176,248,54245,5,0,0:0:0:0:
248,100,54571,5,0,0:0:0:0:
296,112,54734,1,0,0:0:0:0:
332,144,54897,2,0,B|360:160|360:160|368:128,1,60.0000022888184
408,108,55386,1,0,0:0:0:0:
456,124,55549,2,0,B|484:120|484:120|492:160,1,60.0000022888184
372,300,56201,5,0,0:0:0:0:
176,320,56527,2,0,L|164:304,2,15.0000005722046
60,328,56853,2,0,L|84:320,2,15.0000005722046
108,248,57180,2,0,L|96:232,2,15.0000005722046
256,220,57506,5,0,0:0:0:0:
188,104,57832,2,0,P|280:84|312:112,1,120.000004577637
256,220,58484,5,0,0:0:0:0:
340,148,58647,2,0,P|376:204|368:256,1,120.000004577637
256,220,59136,1,0,0:0:0:0:
320,312,59462,2,0,P|260:336|200:312,1,120.000004577637
256,220,59951,1,0,0:0:0:0:
156,200,60277,2,0,P|152:240|168:260,1,60.0000022888184
196,136,60767,6,0,P|252:112|312:136,1,120.000004577637
352,172,61256,5,0,0:0:0:0:
376,220,61419,1,0,0:0:0:0:
380,272,61582,1,0,0:0:0:0:
348,316,61745,1,0,0:0:0:0:
296,296,61908,1,0,0:0:0:0:
252,324,62071,1,0,0:0:0:0:
220,160,62397,1,0,0:0:0:0:
424,64,62723,5,0,0:0:0:0:
228,228,67125,5,0,0:0:0:0:
228,228,67288,2,0,B|172:228|172:228|136:112|72:184,1,180.000006866455
64,240,67940,5,0,0:0:0:0:
64,240,68266,1,0,0:0:0:0:
184,316,68592,5,0,0:0:0:0:
184,316,68918,1,0,0:0:0:0:
312,236,69245,5,0,0:0:0:0:
312,236,69571,5,0,0:0:0:0:
292,172,69734,2,0,L|268:156,1,25.9999988098145
260,100,70060,2,0,P|292:100|340:152,1,103.999995239258
372,128,70549,6,0,L|380:180,1,51.999997619629
264,264,71201,2,0,P|244:332|292:272,1,207.999990478516
296,48,73158,6,0,B|328:44|328:44|336:56,1,40
380,68,73484,1,0,0:0:0:0:
360,128,73647,2,0,L|320:104,1,40
172,104,74136,1,0,0:0:0:0:
192,224,74462,5,0,0:0:0:0:
212,272,74625,1,0,0:0:0:0:
240,232,74788,2,0,L|292:248,1,40
300,280,75114,2,0,P|308:256|360:224,1,80
288,120,75766,5,0,0:0:0:0:
232,44,75929,1,0,0:0:0:0:
192,128,76092,1,0,0:0:0:0:
100,128,76255,2,0,P|116:100|124:76,1,40
40,264,76745,1,0,0:0:0:0:
264,312,77071,6,0,L|272:268,1,40
252,184,77397,2,0,L|240:232,1,40
352,252,77723,2,0,P|304:264|256:264,1,80
124,136,78375,6,0,P|92:176|132:196,1,103.999995239258
364,168,79353,1,0,0:0:0:0:
320,24,79679,2,0,P|252:44|220:88,1,120.000004577637
460,208,80332,1,0,0:0:0:0:
284,320,80658,1,0,0:0:0:0:
180,152,80984,6,0,P|100:112|184:140,1,240.000009155274
300,128,81962,2,0,B|312:136|312:136|300:144|300:144|312:152|312:152|300:160|300:160|312:168|312:168|300:176|300:176|312:184|312:184|300:192|300:192|312:200|312:200|300:208|300:208|312:216|312:216|300:220|300:220|312:228|312:228|300:232|300:232|300:260|304:284|332:360|424:328|424:328,1,360.000013732911
420,180,83266,5,0,0:0:0:0:
420,232,83429,1,0,0:0:0:0:
384,252,83592,2,0,B|352:280|304:252|268:228|276:176,1,160
280,136,84082,1,0,0:0:0:0:
364,120,84245,2,0,L|364:180,1,60
352,188,84897,1,0,0:0:0:0:
272,184,85223,5,0,0:0:0:0:
240,216,85386,1,0,0:0:0:0:
208,192,85549,2,0,L|212:216,1,20
100,220,86038,5,0,0:0:0:0:
96,188,86201,2,0,P|48:148|88:56,1,160
108,48,86690,1,0,0:0:0:0:
120,120,86853,2,0,B|156:124|196:124|237:103,1,120.000004577637
280,80,87669,1,0,0:0:0:0:
320,204,87995,5,0,0:0:0:0:
300,260,88158,1,0,0:0:0:0:
344,256,88321,1,0,0:0:0:0:
104,280,88647,5,0,0:0:0:0:
140,312,88810,2,0,P|216:336|280:288,1,160
300,248,89299,1,0,0:0:0:0:
336,200,89462,2,0,B|348:204|356:212|356:224|364:232,1,40
384,276,89951,1,0,0:0:0:0:
376,328,90114,1,0,0:0:0:0:
464,192,90440,5,0,0:0:0:0:
272,68,90766,1,0,0:0:0:0:
80,260,91092,2,0,L|116:232,1,40
152,216,91418,2,0,P|120:168|196:136,1,160
280,240,92397,5,0,0:0:0:0:
320,100,92560,1,0,0:0:0:0:
408,220,92723,1,0,0:0:0:0:
236,148,92886,1,0,0:0:0:0:
408,124,93049,1,0,0:0:0:0:
120,116,93375,2,0,B|124:152|80:120|80:120|52:128,1,80
80,309,94027,5,0,0:0:0:0:
220,316,94353,1,0,0:0:0:0:
260,336,94516,1,0,0:0:0:0:
300,324,94679,2,0,B|312:312|312:312|364:312,1,64
400,292,95169,1,0,0:0:0:0:
448,260,95332,2,0,P|456:248|448:196,1,64
176,248,95984,5,0,0:0:0:0:
248,100,96310,5,0,0:0:0:0:
296,112,96473,1,0,0:0:0:0:
332,144,96636,2,0,B|360:160|360:160|372:124,1,64
408,108,97125,1,0,0:0:0:0:
456,124,97288,2,0,B|484:120|484:120|496:160,1,64
372,300,97940,5,0,0:0:0:0:
176,320,98266,2,0,L|164:304,2,16
60,328,98592,2,0,L|88:320,2,16
112,252,98919,2,0,L|96:232,2,16
256,220,99245,5,0,0:0:0:0:
188,104,99571,2,0,P|280:84|312:112,1,120.000004577637
256,220,100223,5,0,0:0:0:0:
340,148,100386,2,0,P|376:204|368:256,1,120.000004577637
256,220,100875,1,0,0:0:0:0:
320,312,101201,2,0,P|260:336|200:312,1,120.000004577637
256,220,101690,1,0,0:0:0:0:
156,200,102016,2,0,P|152:240|168:260,1,60.0000022888184
196,136,102506,2,0,P|252:112|312:136,1,120.000004577637
352,172,102995,5,0,0:0:0:0:
376,220,103158,1,0,0:0:0:0:
380,272,103321,1,0,0:0:0:0:
348,316,103484,1,0,0:0:0:0:
296,336,103647,1,0,0:0:0:0:
240,324,103810,2,0,P|272:336|364:288,1,120.000004577637
80,75,104462,5,0,0:0:0:0:
220,68,104788,1,0,0:0:0:0:
260,48,104951,1,0,0:0:0:0:
300,60,105114,2,0,B|312:72|312:72|360:72,1,60.0000022888184
400,92,105604,1,0,0:0:0:0:
448,124,105767,2,0,P|456:136|448:184,1,60.0000022888184
176,136,106419,5,0,0:0:0:0:
248,284,106745,5,0,0:0:0:0:
296,272,106908,1,0,0:0:0:0:
332,240,107071,2,0,B|360:224|360:224|368:256,1,60.0000022888184
408,276,107560,1,0,0:0:0:0:
456,260,107723,2,0,B|484:264|484:264|492:224,1,60.0000022888184
372,84,108375,5,0,0:0:0:0:
176,64,108701,2,0,L|164:80,2,15.0000005722046
60,56,109027,2,0,L|84:64,2,15.0000005722046
108,136,109354,2,0,L|96:152,2,15.0000005722046
256,164,109680,5,0,0:0:0:0:
188,280,110006,2,0,P|280:300|312:272,1,120.000004577637
256,164,110658,5,0,0:0:0:0:
340,236,110821,2,0,P|376:180|368:128,1,120.000004577637
256,164,111310,1,0,0:0:0:0:
320,72,111636,2,0,P|260:48|200:72,1,120.000004577637
256,164,112125,1,0,0:0:0:0:
156,184,112451,2,0,P|152:144|168:124,1,60.0000022888184
196,248,112941,6,0,P|252:272|312:248,1,120.000004577637
352,212,113430,5,0,0:0:0:0:
140,32,113755,1,0,0:0:0:0:
140,32,113919,1,0,0:0:0:0:
48,180,114245,1,0,0:0:0:0:
208,180,114571,1,0,0:0:0:0:
428,156,114897,5,0,0:0:0:0:
312,224,119788,5,0,0:0:0:0:
320,227,120114,6,0,B|301:192|333:175|345:148|279:112|279:112|280:84,1,155.999992858887
192,48,121255,1,0,0:0:0:0:
88,64,121418,1,0,0:0:0:0:
128,268,121745,5,0,0:0:0:0:
248,264,121908,1,0,0:0:0:0:
180,176,122071,1,0,0:0:0:0:
368,124,122397,5,0,0:0:0:0:
300,44,122560,1,0,0:0:0:0:
416,56,122723,2,0,B|504:40|484:152|472:184|468:224|384:192,1,255.000009727478
232,80,124516,5,0,0:0:0:0:
320,36,124679,1,0,0:0:0:0:
328,200,125005,5,0,0:0:0:0:
416,156,125168,1,0,0:0:0:0:
224,260,125495,2,0,B|151:255|149:328|149:328|88:289,1,180.000006866455
80,160,126636,2,0,P|80:144|100:128,3,30.0000011444092
100,184,127288,1,0,0:0:0:0:
136,200,127451,2,0,L|192:156,1,60.0000022888184
236,124,127940,6,0,P|275:141|293:214,1,120.000004577637
142,260,129245,2,0,P|91:238|143:263,1,240.000009155274
318,222,130549,6,0,B|295:159|295:117|295:117|286:146|255:185,1,180.000006866455
196,100,131690,1,0,0:0:0:0:
248,32,131853,1,0,0:0:0:0:
88,256,132179,5,0,0:0:0:0:
184,244,132342,1,0,0:0:0:0:
152,324,132505,1,0,0:0:0:0:
432,284,132832,5,0,0:0:0:0:
456,192,132995,1,0,0:0:0:0:
352,212,133158,2,0,B|380:158|292:163|312:131|306:93|306:93|356:92|356:92|397:39|370:9,1,270.000010299683
320,36,134788,2,0,P|292:23|257:31,1,60.0000022888184
268,112,135440,2,0,P|239:102|206:111,1,60.0000022888184
368,132,136092,2,0,B|378:67|412:92|460:100|460:100|486:87,1,150.000005722046
480,144,137071,6,0,L|436:222,1,90.0000034332277
238,253,138375,6,0,P|243:228|228:193,1,60.0000022888184
104,195,139027,2,0,P|111:171|145:150,1,60.0000022888184
131,64,139679,1,0,0:0:0:0:
252,168,140005,6,0,B|187:130|166:142|168:220|210:251|249:278|249:278|288:251|324:231|333:199|336:150|308:156|300:156|300:156|300:160|296:128,1,410.399994990234
292,128,143103,1,0,0:0:0:0:
80,75,143592,5,0,0:0:0:0:
220,68,143918,1,0,0:0:0:0:
260,48,144081,1,0,0:0:0:0:
300,60,144244,2,0,B|312:72|312:72|364:72,1,64
400,92,144734,1,0,0:0:0:0:
448,124,144897,2,0,P|456:136|448:188,1,64
176,136,145549,5,0,0:0:0:0:
248,284,145875,5,0,0:0:0:0:
296,272,146038,1,0,0:0:0:0:
332,240,146201,2,0,B|360:224|360:224|372:260,1,64
408,276,146690,1,0,0:0:0:0:
456,260,146853,2,0,B|484:264|484:264|496:220,1,64
372,84,147505,5,0,0:0:0:0:
176,60,147831,2,0,L|164:80,2,16
56,56,148157,2,0,L|84:64,2,16
112,136,148484,2,0,L|96:152,2,16
256,164,148810,5,0,0:0:0:0:
188,280,149136,2,0,P|280:300|312:272,1,120.000004577637
256,164,149788,5,0,0:0:0:0:
340,236,149951,2,0,P|376:180|368:128,1,120.000004577637
256,164,150440,1,0,0:0:0:0:
320,72,150766,2,0,P|260:48|200:72,1,120.000004577637
256,164,151255,1,0,0:0:0:0:
156,184,151581,2,0,P|152:144|168:124,1,60.0000022888184
196,248,152071,2,0,P|252:272|312:248,1,120.000004577637
352,212,152560,5,0,0:0:0:0:
376,164,152723,1,0,0:0:0:0:
380,112,152886,1,0,0:0:0:0:
348,68,153049,1,0,0:0:0:0:
296,48,153212,1,0,0:0:0:0:
240,60,153375,2,0,P|272:48|364:96,1,120.000004577637
432,309,154027,5,0,0:0:0:0:
292,316,154353,1,0,0:0:0:0:
252,336,154516,1,0,0:0:0:0:
212,324,154679,2,0,B|200:312|200:312|152:312,1,60.0000022888184
112,292,155169,1,0,0:0:0:0:
64,260,155332,2,0,P|56:248|64:200,1,60.0000022888184
336,248,155984,5,0,0:0:0:0:
264,100,156310,5,0,0:0:0:0:
216,112,156473,1,0,0:0:0:0:
180,144,156636,2,0,B|152:160|152:160|144:128,1,60.0000022888184
104,108,157125,1,0,0:0:0:0:
56,124,157288,2,0,B|28:120|28:120|20:160,1,60.0000022888184
140,300,157940,5,0,0:0:0:0:
336,320,158266,2,0,L|348:304,2,15.0000005722046
452,328,158592,2,0,L|428:320,2,15.0000005722046
404,248,158919,2,0,L|416:232,2,15.0000005722046
256,220,159245,5,0,0:0:0:0:
324,104,159571,2,0,P|232:84|200:112,1,120.000004577637
256,220,160223,5,0,0:0:0:0:
172,148,160386,2,0,P|136:204|144:256,1,120.000004577637
256,220,160875,1,0,0:0:0:0:
192,312,161201,2,0,P|252:336|312:312,1,120.000004577637
256,220,161690,5,0,0:0:0:0:
356,200,162016,2,0,P|360:240|344:260,1,60.0000022888184
436,140,162505,5,0,0:0:0:0:
432,44,162668,1,0,0:0:0:0:
352,88,162832,1,0,0:0:0:0:
356,200,162995,2,0,P|348:256|292:288,1,120.000004577637
204,296,163484,5,0,0:0:0:0:
120,268,163647,1,0,0:0:0:0:
192,192,163810,1,0,0:0:0:0:
44,76,164136,1,0,0:0:0:0:
256,192,164462,12,0,167071,0:0:0:0:
