osu file format v14

[General]
AudioFilename: PolargeistCut.mp3
AudioLeadIn: 0
PreviewTime: 19110
Countdown: 0
SampleSet: Normal
StackLeniency: 0.7
Mode: 1
LetterboxInBreaks: 0
WidescreenStoryboard: 1

[Editor]
DistanceSpacing: 0.8
BeatDivisor: 4
GridSize: 32
TimelineZoom: 1.2

[Metadata]
Title:Polargeist
TitleUnicode:Polargeist
Artist:Step
ArtistUnicode:Step
Creator:meiqth
Version:Normal
Source:Geometry Dash
Tags:robtop games electronic instrumental cut sped up game ver. version
BeatmapID:4373139
BeatmapSetID:2087044

[Difficulty]
HPDrainRate:8
CircleSize:4
OverallDifficulty:4
ApproachRate:5
SliderMultiplier:1.4
SliderTickRate:1

[Events]
//Background and Video events
0,0,"ghost.png",0,-70
//Break Periods
//Storyboard Layer 0 (Background)
//Storyboard Layer 1 (Fail)
//Storyboard Layer 2 (Pass)
//Storyboard Layer 3 (Foreground)
//Storyboard Layer 4 (Overlay)
//Storyboard Sound Samples

[TimingPoints]
16,368.098159509202,4,1,0,50,1,8
1488,368.098159509202,4,1,0,50,1,0
19155,-100,4,1,0,65,0,0
31303,-100,4,1,0,50,0,0
37376,-100,4,1,0,52,0,0
37744,-100,4,1,0,53,0,0
38296,-100,4,1,0,54,0,0
38664,-100,4,1,0,55,0,0
38848,-100,4,1,0,56,0,0
39401,-100,4,1,0,57,0,0
39769,-100,4,1,0,59,0,0
40137,-100,4,1,0,60,0,0
40689,-100,4,1,0,61,0,0
41057,-100,4,1,0,62,0,0
41609,-100,4,1,0,64,0,0
41977,-100,4,1,0,65,0,0
42714,-100,4,1,0,75,0,1
54494,-100,4,1,0,65,0,0
60383,-100,4,1,0,75,0,1
66273,-100,4,1,0,75,0,0
67008,-100,4,1,0,50,0,0
67744,-100,4,1,0,51,0,0
68848,-100,4,1,0,52,0,0
69953,-100,4,1,0,53,0,0
71057,-100,4,1,0,54,0,0
72161,-100,4,1,0,55,0,0
72898,-100,4,1,0,56,0,0
74370,-100,4,1,0,57,0,0
75106,-100,4,1,0,58,0,0
76210,-100,4,1,0,59,0,0
77315,-100,4,1,0,60,0,0
78052,-100,4,1,0,80,0,1
89831,-100,4,1,0,80,0,0

[HitObjects]
256,192,200,8,0,1304,0:0:0:0:
256,192,1488,5,12,0:0:0:0:
256,192,2224,1,0,0:0:0:0:
256,192,2592,1,8,0:0:0:0:
256,192,2960,1,0,0:0:0:0:
256,192,3696,1,8,0:0:0:0:
256,192,4064,1,8,0:0:0:0:
256,192,4432,1,0,0:0:0:0:
256,192,5168,1,8,0:0:0:0:
256,192,5537,1,8,0:0:0:0:
256,192,5905,1,0,0:0:0:0:
256,192,6273,1,8,0:0:0:0:
256,192,6641,1,8,0:0:0:0:
256,192,7009,1,8,0:0:0:0:
256,192,7377,1,4,0:0:0:0:
256,192,7929,1,0,0:0:0:0:
256,192,8113,1,0,0:0:0:0:
256,192,8481,1,8,0:0:0:0:
256,192,8849,1,0,0:0:0:0:
256,192,9402,1,8,0:0:0:0:
256,192,9586,1,8,0:0:0:0:
256,192,9954,1,8,0:0:0:0:
256,192,10322,1,0,0:0:0:0:
256,192,11058,1,0,0:0:0:0:
256,192,11426,1,0,0:0:0:0:
256,192,11794,1,8,0:0:0:0:
256,192,12162,1,0,0:0:0:0:
256,192,12346,1,0,0:0:0:0:
256,192,12530,1,0,0:0:0:0:
256,192,12899,1,8,0:0:0:0:
256,192,13267,1,0,0:0:0:0:
256,192,13819,1,8,0:0:0:0:
256,192,14003,1,8,0:0:0:0:
256,192,14371,1,8,0:0:0:0:
256,192,14739,1,0,0:0:0:0:
256,192,15107,1,8,0:0:0:0:
256,192,15291,1,8,0:0:0:0:
256,192,15475,1,8,0:0:0:0:
256,192,15843,1,0,0:0:0:0:
256,192,16211,1,8,0:0:0:0:
256,192,16580,1,8,0:0:0:0:
256,192,16948,1,8,0:0:0:0:
256,192,17316,1,0,0:0:0:0:
256,192,17500,1,0,0:0:0:0:
256,192,17868,1,8,0:0:0:0:
256,192,18420,1,0,0:0:0:0:
256,192,18788,1,8,0:0:0:0:
256,192,19156,1,4,0:0:0:0:
256,192,19892,1,0,0:0:0:0:
256,192,20261,1,8,0:0:0:0:
256,192,20445,1,8,0:0:0:0:
256,192,20813,1,0,0:0:0:0:
256,192,21181,1,0,0:0:0:0:
256,192,21365,1,8,0:0:0:0:
256,192,21733,1,8,0:0:0:0:
256,192,22101,1,0,0:0:0:0:
256,192,22469,1,8,0:0:0:0:
256,192,22653,1,0,0:0:0:0:
256,192,22837,1,8,0:0:0:0:
256,192,23205,1,0,0:0:0:0:
256,192,23389,1,0,0:0:0:0:
256,192,23757,1,0,0:0:0:0:
256,192,24126,1,8,0:0:0:0:
256,192,24310,1,0,0:0:0:0:
256,192,24678,1,8,0:0:0:0:
256,192,25046,1,0,0:0:0:0:
256,192,25782,1,8,0:0:0:0:
256,192,26150,1,0,0:0:0:0:
256,192,26334,1,0,0:0:0:0:
256,192,26702,1,0,0:0:0:0:
256,192,27070,1,8,0:0:0:0:
256,192,27254,1,8,0:0:0:0:
256,192,27622,1,0,0:0:0:0:
256,192,27807,1,0,0:0:0:0:
256,192,27991,1,8,0:0:0:0:
256,192,28175,1,8,0:0:0:0:
256,192,28543,1,0,0:0:0:0:
256,192,28727,1,0,0:0:0:0:
256,192,29095,1,8,0:0:0:0:
256,192,29279,1,8,0:0:0:0:
256,192,29647,1,0,0:0:0:0:
256,192,29831,1,0,0:0:0:0:
256,192,30199,1,8,0:0:0:0:
256,192,30567,1,8,0:0:0:0:
256,192,30935,1,4,0:0:0:0:
256,192,32408,1,8,0:0:0:0:
256,192,32776,1,8,0:0:0:0:
256,192,33144,1,0,0:0:0:0:
256,192,33512,1,8,0:0:0:0:
256,192,33880,1,0,0:0:0:0:
256,192,34432,1,8,0:0:0:0:
256,192,34800,1,8,0:0:0:0:
256,192,35353,1,0,0:0:0:0:
256,192,35537,1,0,0:0:0:0:
256,192,35905,1,8,0:0:0:0:
256,192,36089,1,8,0:0:0:0:
256,192,36457,1,8,0:0:0:0:
256,192,36825,1,0,0:0:0:0:
256,192,37377,1,8,0:0:0:0:
256,192,37745,1,0,0:0:0:0:
256,192,37929,1,0,0:0:0:0:
256,192,38297,1,8,0:0:0:0:
256,192,38665,1,0,0:0:0:0:
256,192,38849,1,0,0:0:0:0:
256,192,39034,1,0,0:0:0:0:
256,192,39402,1,8,0:0:0:0:
256,192,39770,1,0,0:0:0:0:
256,192,40322,1,0,0:0:0:0:
256,192,40690,1,8,0:0:0:0:
256,192,41058,1,8,0:0:0:0:
256,192,41242,1,8,0:0:0:0:
256,192,41610,1,0,0:0:0:0:
256,192,41978,1,8,0:0:0:0:
256,192,42714,1,4,0:0:0:0:
256,192,43083,1,8,0:0:0:0:
256,192,43451,1,0,0:0:0:0:
256,192,43635,1,0,0:0:0:0:
256,192,44003,1,8,0:0:0:0:
256,192,44371,1,8,0:0:0:0:
256,192,44739,1,0,0:0:0:0:
256,192,45107,1,0,0:0:0:0:
256,192,45475,1,0,0:0:0:0:
256,192,45843,1,8,0:0:0:0:
256,192,46027,1,8,0:0:0:0:
256,192,46395,1,8,0:0:0:0:
256,192,46764,1,0,0:0:0:0:
256,192,46948,1,8,0:0:0:0:
256,192,47132,1,0,0:0:0:0:
256,192,47500,1,8,0:0:0:0:
256,192,48236,1,8,0:0:0:0:
256,192,48604,1,0,0:0:0:0:
256,192,48972,1,8,0:0:0:0:
256,192,49340,1,8,0:0:0:0:
256,192,49524,1,8,0:0:0:0:
256,192,49892,1,0,0:0:0:0:
256,192,50261,1,0,0:0:0:0:
256,192,50629,1,8,0:0:0:0:
256,192,50997,1,8,0:0:0:0:
256,192,51365,1,0,0:0:0:0:
256,192,51733,1,0,0:0:0:0:
256,192,51917,1,0,0:0:0:0:
256,192,52285,1,8,0:0:0:0:
256,192,52653,1,0,0:0:0:0:
256,192,52837,1,8,0:0:0:0:
256,192,53021,1,0,0:0:0:0:
256,192,53389,1,8,0:0:0:0:
256,192,53757,1,0,0:0:0:0:
256,192,54494,1,4,0:0:0:0:
256,192,54862,1,8,0:0:0:0:
256,192,55230,1,8,0:0:0:0:
256,192,55598,1,0,0:0:0:0:
256,192,55966,1,8,0:0:0:0:
256,192,56334,1,0,0:0:0:0:
256,192,56702,1,8,0:0:0:0:
256,192,57070,1,0,0:0:0:0:
256,192,57438,1,8,0:0:0:0:
256,192,57807,1,0,0:0:0:0:
256,192,58175,1,0,0:0:0:0:
256,192,58543,1,8,0:0:0:0:
256,192,58727,1,8,0:0:0:0:
256,192,58911,1,8,0:0:0:0:
256,192,59279,1,0,0:0:0:0:
256,192,59647,1,8,0:0:0:0:
256,192,60383,1,12,0:0:0:0:
256,192,60751,1,0,0:0:0:0:
256,192,61119,1,8,0:0:0:0:
256,192,61303,1,8,0:0:0:0:
256,192,61672,1,0,0:0:0:0:
256,192,62040,1,0,0:0:0:0:
256,192,62408,1,8,0:0:0:0:
256,192,62776,1,8,0:0:0:0:
256,192,63144,1,8,0:0:0:0:
256,192,63512,1,0,0:0:0:0:
256,192,63696,1,0,0:0:0:0:
256,192,64064,1,8,0:0:0:0:
256,192,64432,1,0,0:0:0:0:
256,192,64616,1,0,0:0:0:0:
256,192,64800,1,8,0:0:0:0:
256,192,65168,1,0,0:0:0:0:
256,192,65537,1,8,0:0:0:0:
256,192,65905,1,8,0:0:0:0:
256,192,66273,1,4,0:0:0:0:
256,192,67009,1,0,0:0:0:0:
256,192,67377,1,8,0:0:0:0:
256,192,67745,1,0,0:0:0:0:
256,192,68481,1,8,0:0:0:0:
256,192,68849,1,8,0:0:0:0:
256,192,69218,1,0,0:0:0:0:
256,192,69954,1,0,0:0:0:0:
256,192,70322,1,8,0:0:0:0:
256,192,70690,1,0,0:0:0:0:
256,192,71058,1,0,0:0:0:0:
256,192,71426,1,8,0:0:0:0:
256,192,71794,1,0,0:0:0:0:
256,192,72162,1,8,0:0:0:0:
256,192,72899,1,0,0:0:0:0:
256,192,73267,1,8,0:0:0:0:
256,192,73635,1,0,0:0:0:0:
256,192,74371,1,8,0:0:0:0:
256,192,74739,1,8,0:0:0:0:
256,192,75107,1,0,0:0:0:0:
256,192,75475,1,8,0:0:0:0:
256,192,75843,1,8,0:0:0:0:
256,192,76211,1,0,0:0:0:0:
256,192,76395,1,0,0:0:0:0:
256,192,76764,1,8,0:0:0:0:
256,192,77316,1,8,0:0:0:0:
256,192,77684,1,8,0:0:0:0:
256,192,78052,1,4,0:0:0:0:
256,192,78788,1,8,0:0:0:0:
256,192,79156,1,8,0:0:0:0:
256,192,79340,1,0,0:0:0:0:
256,192,79708,1,0,0:0:0:0:
256,192,80076,1,8,0:0:0:0:
256,192,80261,1,8,0:0:0:0:
256,192,80629,1,8,0:0:0:0:
256,192,80997,1,0,0:0:0:0:
256,192,81365,1,0,0:0:0:0:
256,192,81549,1,0,0:0:0:0:
256,192,81733,1,8,0:0:0:0:
256,192,82101,1,8,0:0:0:0:
256,192,82285,1,0,0:0:0:0:
256,192,82653,1,0,0:0:0:0:
256,192,83021,1,8,0:0:0:0:
256,192,83205,1,8,0:0:0:0:
256,192,83573,1,8,0:0:0:0:
256,192,83941,1,0,0:0:0:0:
256,192,84678,1,8,0:0:0:0:
256,192,85046,1,0,0:0:0:0:
256,192,85230,1,8,0:0:0:0:
256,192,85598,1,8,0:0:0:0:
256,192,85966,1,8,0:0:0:0:
256,192,86150,1,0,0:0:0:0:
256,192,86518,1,0,0:0:0:0:
256,192,86702,1,8,0:0:0:0:
256,192,86886,1,0,0:0:0:0:
256,192,87070,1,0,0:0:0:0:
256,192,87438,1,8,0:0:0:0:
256,192,87622,1,8,0:0:0:0:
256,192,87991,1,0,0:0:0:0:
256,192,88175,1,8,0:0:0:0:
256,192,88543,1,8,0:0:0:0:
256,192,88727,1,0,0:0:0:0:
256,192,89095,1,8,0:0:0:0:
256,192,89463,1,8,0:0:0:0:
256,192,89831,1,4,0:0:0:0:
