osu file format v14

[General]
AudioFilename: PolargeistCut.mp3
AudioLeadIn: 0
PreviewTime: 19110
Countdown: 0
SampleSet: Normal
StackLeniency: 0.7
Mode: 1
LetterboxInBreaks: 0
WidescreenStoryboard: 1

[Editor]
DistanceSpacing: 0.8
BeatDivisor: 4
GridSize: 32
TimelineZoom: 2

[Metadata]
Title:Polargeist
TitleUnicode:Polargeist
Artist:Step
ArtistUnicode:Step
Creator:meiqth
Version:Insane
Source:Geometry Dash
Tags:robtop games electronic instrumental cut sped up game ver. version
BeatmapID:4373138
BeatmapSetID:2087044

[Difficulty]
HPDrainRate:6
CircleSize:5
OverallDifficulty:6
ApproachRate:5
SliderMultiplier:1.4
SliderTickRate:1

[Events]
//Background and Video events
0,0,"ghost.png",0,-70
//Break Periods
//Storyboard Layer 0 (Background)
//Storyboard Layer 1 (Fail)
//Storyboard Layer 2 (Pass)
//Storyboard Layer 3 (Foreground)
//Storyboard Layer 4 (Overlay)
//Storyboard Sound Samples

[TimingPoints]
16,368.098159509202,4,1,0,50,1,8
1488,368.098159509202,4,1,0,50,1,0
1488,-111.111111111111,4,1,0,50,0,0
7744,-110.74597,4,1,0,50,0,0
7928,-110.56386,4,1,0,51,0,0
8112,-110.382034,4,1,0,51,0,0
8296,-110.200516,4,1,0,51,0,0
8480,-110.019295,4,1,0,51,0,0
8664,-109.838356,4,1,0,52,0,0
8756,-109.74802,4,1,0,52,0,0
8848,-109.65773,4,1,0,52,0,0
9217,-109.296394,4,1,0,52,0,0
9401,-109.11665,4,1,0,53,0,0
9585,-108.93722,4,1,0,53,0,0
9769,-108.75807,4,1,0,53,0,0
9953,-108.57922,4,1,0,53,0,0
10137,-108.400665,4,1,0,54,0,0
10321,-108.222404,4,1,0,54,0,0
10689,-107.86675,4,1,0,54,0,0
10873,-107.68937,4,1,0,54,0,0
11057,-107.512276,4,1,0,55,0,0
11241,-107.335464,4,1,0,55,0,0
11425,-107.15896,4,1,0,55,0,0
11609,-106.982735,4,1,0,55,0,0
11701,-106.89473,4,1,0,56,0,0
11793,-106.80679,4,1,0,56,0,0
11977,-106.63116,4,1,0,56,0,0
12345,-106.28075,4,1,0,56,0,0
12529,-106.10597,4,1,0,57,0,0
12713,-105.93148,4,1,0,57,0,0
12898,-105.75634,4,1,0,57,0,0
13082,-105.58241,4,1,0,57,0,0
13266,-105.40879,4,1,0,58,0,0
13634,-105.06238,4,1,0,58,0,0
13818,-104.889595,4,1,0,58,0,0
13910,-104.80333,4,1,0,58,0,0
14002,-104.71712,4,1,0,58,0,0
14186,-104.544914,4,1,0,59,0,0
14370,-104.37299,4,1,0,59,0,0
14554,-104.20136,4,1,0,59,0,0
14646,-104.11564,4,1,0,59,0,0
14738,-104.03,4,1,0,59,0,0
14922,-103.858925,4,1,0,60,0,0
15290,-103.51761,4,1,0,60,0,0
15474,-103.347374,4,1,0,60,0,0
15566,-103.26237,4,1,0,60,0,0
15659,-103.17649,4,1,0,61,0,0
15843,-103.00683,4,1,0,61,0,0
16211,-102.66833,4,1,0,61,0,0
16394,-102.5004,4,1,0,61,0,0
16579,-102.330925,4,1,0,62,0,0
16763,-102.16264,4,1,0,62,0,0
16855,-102.078606,4,1,0,62,0,0
16947,-101.99463,4,1,0,62,0,0
17131,-101.826904,4,1,0,62,0,0
17315,-101.65946,4,1,0,63,0,0
17499,-101.49228,4,1,0,63,0,0
17591,-101.4088,4,1,0,63,0,0
17683,-101.32537,4,1,0,63,0,0
17867,-101.15875,4,1,0,63,0,0
18235,-100.82631,4,1,0,64,0,0
18419,-100.66051,4,1,0,64,0,0
18787,-100.329704,4,1,0,65,0,0
18879,-100.24718,4,1,0,65,0,0
18971,-100.16472,4,1,0,65,0,0
19155,-100,4,1,0,65,0,0
27990,-100,4,1,0,65,0,0
28174,-99.130005,4,1,0,65,0,0
28542,-97.41264,4,1,0,65,0,0
28726,-96.565155,4,1,0,65,0,0
29094,-94.89222,4,1,0,65,0,0
29278,-94.06666,4,1,0,65,0,0
29417,-93.1098696461825,4,1,0,65,0,0
29646,-92.43701,4,1,0,65,0,0
29830,-91.63281,4,1,0,65,0,0
30014,-90.8356,4,1,0,65,0,0
30198,-90.045334,4,1,0,65,0,0
30566,-88.48537,4,1,0,65,0,0
30658,-88.09961,4,1,0,65,0,0
30750,-87.71554,4,1,0,65,0,0
30934,-86.952415,4,1,0,65,0,0
31303,-117.647058823529,4,1,0,50,0,0
31486,-117.16678,4,1,0,50,0,0
31855,-116.20949,4,1,0,51,0,0
32039,-115.735085,4,1,0,52,0,0
32223,-115.262596,4,1,0,52,0,0
32407,-114.792046,4,1,0,52,0,0
32775,-113.85671,4,1,0,53,0,0
33143,-112.92898,4,1,0,54,0,0
33511,-112.00882,4,1,0,55,0,0
33879,-111.096146,4,1,0,56,0,0
34431,-109.74108,4,1,0,57,0,0
34799,-108.84689,4,1,0,57,0,0
35167,-107.95998,4,1,0,58,0,0
35352,-107.51685,4,1,0,59,0,0
35536,-107.07793,4,1,0,59,0,0
35904,-106.20544,4,1,0,60,0,0
36088,-105.771866,4,1,0,60,0,0
36456,-104.91002,4,1,0,61,0,0
36824,-104.055176,4,1,0,62,0,0
37192,-103.20734,4,1,0,63,0,0
37376,-102.786,4,1,0,63,0,0
37744,-101.94847,4,1,0,64,0,0
37928,-101.53227,4,1,0,64,0,0
38112,-101.11778,4,1,0,65,0,0
38296,-100.70497,4,1,0,65,0,0
38664,-99.88441,4,1,0,66,0,0
38848,-99.47665,4,1,0,66,0,0
39033,-99.068344,4,1,0,67,0,0
39217,-98.6639,4,1,0,67,0,0
39401,-98.26112,4,1,0,67,0,0
39585,-97.85996,4,1,0,68,0,0
39769,-97.460464,4,1,0,68,0,0
40137,-96.666336,4,1,0,69,0,0
40321,-96.271706,4,1,0,69,0,0
40413,-96.07499,4,1,0,69,0,0
40505,-95.87869,4,1,0,70,0,0
40689,-95.48727,4,1,0,70,0,0
41057,-94.70922,4,1,0,71,0,0
41241,-94.32257,4,1,0,71,0,0
41425,-93.93751,4,1,0,72,0,0
41609,-93.55403,4,1,0,72,0,0
41793,-93.1721,4,1,0,72,0,0
41977,-92.79173,4,1,0,73,0,0
42161,-92.41291,4,1,0,73,0,0
42253,-92.22409,4,1,0,73,0,0
42345,-92.03565,4,1,0,74,0,0
42529,-91.65992,4,1,0,74,0,0
42714,-90.90909,4,1,0,75,0,1
54494,-90.9090909090909,4,1,0,65,0,0
60383,-90.9090909090909,4,1,0,75,0,1
63511,-90.18199,4,1,0,75,0,1
63603,-89.82269,4,1,0,75,0,1
63695,-89.464836,4,1,0,75,0,1
63787,-89.10842,4,1,0,75,0,1
63879,-88.7534,4,1,0,75,0,1
64063,-88.04762,4,1,0,75,0,1
64248,-87.34366,4,1,0,75,0,1
64339,-86.99945,4,1,0,75,0,1
64432,-86.649086,4,1,0,75,0,1
64616,-85.96004,4,1,0,75,0,1
64799,-85.28017,4,1,0,75,0,1
64891,-84.9404,4,1,0,75,0,1
64984,-84.59832,4,1,0,75,0,1
65075,-84.264946,4,1,0,75,0,1
65168,-83.92559,4,1,0,75,0,1
65351,-83.2618,4,1,0,75,0,1
65536,-82.5961,4,1,0,75,0,1
65720,-81.939285,4,1,0,75,0,1
65904,-81.28769,4,1,0,75,0,1
66088,-80.641266,4,1,0,75,0,1
66273,-79.99999,4,1,0,75,0,0
66733,-105.09205,4,1,0,50,0,0
66824,-104.89407,4,1,0,50,0,0
67008,-104.49924,4,1,0,51,0,0
67192,-104.1059,4,1,0,51,0,0
67376,-103.71404,4,1,0,52,0,0
67744,-102.934746,4,1,0,53,0,0
68297,-101.774666,4,1,0,54,0,0
68481,-101.39159,4,1,0,55,0,0
68665,-101.00994,4,1,0,55,0,0
68849,-100.62973,4,1,0,56,0,0
69033,-100.250946,4,1,0,56,0,0
69217,-99.8736,4,1,0,57,0,0
69769,-98.75005,4,1,0,58,0,0
69953,-98.37835,4,1,0,59,0,0
70137,-98.00805,4,1,0,59,0,0
70321,-97.63914,4,1,0,60,0,0
70505,-97.271614,4,1,0,60,0,0
70689,-96.90549,4,1,0,60,0,0
70873,-96.54073,4,1,0,61,0,0
71241,-95.81533,4,1,0,62,0,0
71425,-95.45467,4,1,0,62,0,0
71609,-95.09538,4,1,0,63,0,0
71701,-94.91623,4,1,0,63,0,0
71794,-94.73549,4,1,0,63,0,0
71978,-94.3789,4,1,0,64,0,0
72162,-94.02364,4,1,0,64,0,0
72530,-93.31716,4,1,0,65,0,0
72714,-92.965904,4,1,0,66,0,0
72898,-92.61598,4,1,0,66,0,0
73082,-92.26737,4,1,0,67,0,0
73266,-91.92007,4,1,0,67,0,0
73450,-91.57408,4,1,0,68,0,0
73542,-91.401566,4,1,0,68,0,0
73634,-91.229385,4,1,0,68,0,0
73818,-90.885994,4,1,0,69,0,0
74186,-90.20307,4,1,0,70,0,0
74370,-89.86355,4,1,0,70,0,0
74555,-89.52347,4,1,0,71,0,0
74739,-89.186485,4,1,0,71,0,0
74830,-89.02031,4,1,0,71,0,0
74923,-88.850784,4,1,0,72,0,0
75107,-88.51635,4,1,0,72,0,0
75475,-87.85125,4,1,0,73,0,0
75659,-87.52056,4,1,0,74,0,0
75751,-87.35569,4,1,0,74,0,0
75843,-87.19114,4,1,0,74,0,0
76027,-86.862946,4,1,0,75,0,0
76211,-86.53599,4,1,0,75,0,0
76395,-86.21026,4,1,0,76,0,0
76487,-86.04785,4,1,0,76,0,0
76579,-85.88576,4,1,0,76,0,0
76763,-85.56248,4,1,0,77,0,0
77131,-84.91956,4,1,0,78,0,0
77315,-84.59992,4,1,0,78,0,0
77683,-83.96424,4,1,0,79,0,0
77775,-83.80607,4,1,0,79,0,0
77867,-83.6482,4,1,0,80,0,0
78052,-83.333336,4,1,0,80,0,1
86885,-83.33108,4,1,0,80,0,1
87069,-82.91552,4,1,0,80,0,1
87437,-82.09062,4,1,0,80,0,1
87621,-81.681244,4,1,0,80,0,1
87990,-80.866425,4,1,0,80,0,1
88174,-80.46315,4,1,0,80,0,1
88313,-79.7448165869218,4,1,0,80,0,1
88542,-79.66265,4,1,0,80,0,1
88726,-79.26539,4,1,0,80,0,1
88910,-78.87011,4,1,0,80,0,1
89094,-78.4768,4,1,0,80,0,1
89278,-78.08545,4,1,0,80,0,1
89462,-77.69606,4,1,0,80,0,1
89554,-77.50209,4,1,0,80,0,1
89646,-77.30859,4,1,0,80,0,1
89831,-76.92308,4,1,0,80,0,0

[HitObjects]
256,192,200,8,0,1304,0:0:0:0:
256,192,1488,5,12,0:0:0:0:
256,192,2040,1,8,0:0:0:0:
256,192,2224,1,0,0:0:0:0:
256,192,2408,1,0,0:0:0:0:
256,192,2592,1,8,0:0:0:0:
256,192,2960,1,0,0:0:0:0:
256,192,3328,1,0,0:0:0:0:
256,192,3512,1,8,0:0:0:0:
256,192,3696,1,0,0:0:0:0:
256,192,4064,1,8,0:0:0:0:
256,192,4432,1,0,0:0:0:0:
256,192,4984,1,0,0:0:0:0:
256,192,5168,1,8,0:0:0:0:
256,192,5353,1,8,0:0:0:0:
256,192,5537,1,0,0:0:0:0:
256,192,5721,1,8,0:0:0:0:
256,192,5905,1,0,0:0:0:0:
256,192,6273,1,8,0:0:0:0:
256,192,6457,1,0,0:0:0:0:
256,192,6641,1,8,0:0:0:0:
256,192,6825,1,0,0:0:0:0:
256,192,7009,1,8,0:0:0:0:
256,192,7377,1,12,0:0:0:0:
256,192,7745,1,0,0:0:0:0:
256,192,7929,1,8,0:0:0:0:
256,192,8113,1,0,0:0:0:0:
256,192,8297,1,0,0:0:0:0:
256,192,8481,1,8,0:0:0:0:
256,192,8665,1,0,0:0:0:0:
256,192,8757,1,0,0:0:0:0:
256,192,8849,1,0,0:0:0:0:
256,192,9218,1,8,0:0:0:0:
256,192,9402,1,0,0:0:0:0:
256,192,9586,1,8,0:0:0:0:
256,192,9770,1,0,0:0:0:0:
256,192,9954,1,8,0:0:0:0:
256,192,10138,1,8,0:0:0:0:
256,192,10322,1,0,0:0:0:0:
256,192,10690,1,8,0:0:0:0:
256,192,10874,1,0,0:0:0:0:
256,192,11058,1,0,0:0:0:0:
256,192,11242,1,8,0:0:0:0:
256,192,11426,1,0,0:0:0:0:
256,192,11610,1,8,0:0:0:0:
256,192,11702,1,8,0:0:0:0:
256,192,11794,1,8,0:0:0:0:
256,192,11978,1,0,0:0:0:0:
256,192,12346,1,0,0:0:0:0:
256,192,12530,1,8,0:0:0:0:
256,192,12714,1,0,0:0:0:0:
256,192,12899,1,8,0:0:0:0:
256,192,13083,1,8,0:0:0:0:
256,192,13267,1,0,0:0:0:0:
256,192,13635,1,0,0:0:0:0:
256,192,13819,1,8,0:0:0:0:
256,192,13911,1,8,0:0:0:0:
256,192,14003,1,8,0:0:0:0:
256,192,14187,1,0,0:0:0:0:
256,192,14371,1,8,0:0:0:0:
256,192,14555,1,0,0:0:0:0:
256,192,14647,1,0,0:0:0:0:
256,192,14739,1,0,0:0:0:0:
256,192,14923,1,8,0:0:0:0:
256,192,15291,1,8,0:0:0:0:
256,192,15475,1,0,0:0:0:0:
256,192,15567,1,0,0:0:0:0:
256,192,15659,1,0,0:0:0:0:
256,192,15843,1,8,0:0:0:0:
256,192,16211,1,0,0:0:0:0:
256,192,16395,1,0,0:0:0:0:
256,192,16580,1,8,0:0:0:0:
256,192,16764,1,0,0:0:0:0:
256,192,16856,1,0,0:0:0:0:
256,192,16948,1,0,0:0:0:0:
256,192,17132,1,8,0:0:0:0:
256,192,17316,1,0,0:0:0:0:
256,192,17500,1,8,0:0:0:0:
256,192,17592,1,0,0:0:0:0:
256,192,17684,1,8,0:0:0:0:
256,192,17868,1,0,0:0:0:0:
256,192,18236,1,0,0:0:0:0:
256,192,18420,1,8,0:0:0:0:
256,192,18788,1,8,0:0:0:0:
256,192,18880,1,8,0:0:0:0:
256,192,18972,1,8,0:0:0:0:
256,192,19156,1,4,0:0:0:0:
256,192,19524,1,0,0:0:0:0:
256,192,19708,1,8,0:0:0:0:
256,192,19800,1,0,0:0:0:0:
256,192,19892,1,8,0:0:0:0:
256,192,20076,1,0,0:0:0:0:
256,192,20261,1,8,0:0:0:0:
256,192,20445,1,0,0:0:0:0:
256,192,20537,1,0,0:0:0:0:
256,192,20629,1,0,0:0:0:0:
256,192,20813,1,0,0:0:0:0:
256,192,21181,1,8,0:0:0:0:
256,192,21273,1,8,0:0:0:0:
256,192,21365,1,0,0:0:0:0:
256,192,21457,1,0,0:0:0:0:
256,192,21549,1,8,0:0:0:0:
256,192,21733,1,0,0:0:0:0:
256,192,21917,1,8,0:0:0:0:
256,192,22009,1,8,0:0:0:0:
256,192,22101,1,0,0:0:0:0:
256,192,22469,1,0,0:0:0:0:
256,192,22653,1,8,0:0:0:0:
256,192,22745,1,8,0:0:0:0:
256,192,22837,1,0,0:0:0:0:
256,192,23205,1,8,0:0:0:0:
256,192,23389,1,0,0:0:0:0:
256,192,23481,1,0,0:0:0:0:
256,192,23573,1,0,0:0:0:0:
256,192,23665,1,0,0:0:0:0:
256,192,23757,1,8,0:0:0:0:
256,192,23941,1,0,0:0:0:0:
256,192,24126,1,8,0:0:0:0:
256,192,24310,1,0,0:0:0:0:
256,192,24402,1,0,0:0:0:0:
256,192,24494,1,8,0:0:0:0:
256,192,24678,1,0,0:0:0:0:
256,192,25046,1,0,0:0:0:0:
256,192,25414,1,8,0:0:0:0:
256,192,25598,1,0,0:0:0:0:
256,192,25690,1,8,0:0:0:0:
256,192,25782,1,0,0:0:0:0:
256,192,25966,1,0,0:0:0:0:
256,192,26150,1,8,0:0:0:0:
256,192,26334,1,0,0:0:0:0:
256,192,26426,1,0,0:0:0:0:
256,192,26518,1,0,0:0:0:0:
256,192,26702,1,8,0:0:0:0:
256,192,27070,1,8,0:0:0:0:
256,192,27254,1,0,0:0:0:0:
256,192,27346,1,0,0:0:0:0:
256,192,27438,1,8,0:0:0:0:
256,192,27530,1,8,0:0:0:0:
256,192,27622,1,0,0:0:0:0:
256,192,27807,1,0,0:0:0:0:
256,192,27991,1,8,0:0:0:0:
256,192,28175,1,0,0:0:0:0:
256,192,28543,1,8,0:0:0:0:
256,192,28727,1,0,0:0:0:0:
256,192,29095,1,8,0:0:0:0:
256,192,29279,1,0,0:0:0:0:
256,192,29647,1,8,0:0:0:0:
256,192,29831,1,0,0:0:0:0:
256,192,30015,1,0,0:0:0:0:
256,192,30199,1,8,0:0:0:0:
256,192,30567,1,0,0:0:0:0:
256,192,30659,1,0,0:0:0:0:
256,192,30751,1,0,0:0:0:0:
256,192,30935,1,12,0:0:0:0:
256,192,31487,1,0,0:0:0:0:
256,192,31856,1,8,0:0:0:0:
256,192,32040,1,0,0:0:0:0:
256,192,32224,1,0,0:0:0:0:
256,192,32408,1,8,0:0:0:0:
256,192,32776,1,8,0:0:0:0:
256,192,33144,1,0,0:0:0:0:
256,192,33512,1,8,0:0:0:0:
256,192,33880,1,0,0:0:0:0:
256,192,34432,1,0,0:0:0:0:
256,192,34800,1,8,0:0:0:0:
256,192,35168,1,8,0:0:0:0:
256,192,35353,1,0,0:0:0:0:
256,192,35537,1,8,0:0:0:0:
256,192,35905,1,0,0:0:0:0:
256,192,36089,1,8,0:0:0:0:
256,192,36457,1,8,0:0:0:0:
256,192,36825,1,0,0:0:0:0:
256,192,37193,1,8,0:0:0:0:
256,192,37377,1,0,0:0:0:0:
256,192,37745,1,0,0:0:0:0:
256,192,37929,1,8,0:0:0:0:
256,192,38113,1,8,0:0:0:0:
256,192,38297,1,0,0:0:0:0:
256,192,38665,1,8,0:0:0:0:
256,192,38849,1,8,0:0:0:0:
256,192,39034,1,0,0:0:0:0:
256,192,39218,1,0,0:0:0:0:
256,192,39402,1,8,0:0:0:0:
256,192,39586,1,0,0:0:0:0:
256,192,39770,1,8,0:0:0:0:
256,192,40138,1,8,0:0:0:0:
256,192,40322,1,0,0:0:0:0:
256,192,40414,1,0,0:0:0:0:
256,192,40506,1,0,0:0:0:0:
256,192,40690,1,8,0:0:0:0:
256,192,41058,1,8,0:0:0:0:
256,192,41242,1,0,0:0:0:0:
256,192,41426,1,8,0:0:0:0:
256,192,41610,1,8,0:0:0:0:
256,192,41794,1,0,0:0:0:0:
256,192,41978,1,8,0:0:0:0:
256,192,42162,1,0,0:0:0:0:
256,192,42254,1,0,0:0:0:0:
256,192,42346,1,0,0:0:0:0:
256,192,42530,1,8,0:0:0:0:
256,192,42714,1,4,0:0:0:0:
256,192,43083,1,8,0:0:0:0:
256,192,43451,1,8,0:0:0:0:
256,192,43543,1,0,0:0:0:0:
256,192,43635,1,8,0:0:0:0:
256,192,43819,1,0,0:0:0:0:
256,192,44003,1,8,0:0:0:0:
256,192,44095,1,8,0:0:0:0:
256,192,44187,1,0,0:0:0:0:
256,192,44371,1,8,0:0:0:0:
256,192,44739,1,0,0:0:0:0:
256,192,44831,1,0,0:0:0:0:
256,192,44923,1,8,0:0:0:0:
256,192,45107,1,0,0:0:0:0:
256,192,45475,1,0,0:0:0:0:
256,192,45659,1,8,0:0:0:0:
256,192,45843,1,0,0:0:0:0:
256,192,45935,1,0,0:0:0:0:
256,192,46027,1,8,0:0:0:0:
256,192,46119,1,8,0:0:0:0:
256,192,46211,1,0,0:0:0:0:
256,192,46395,1,8,0:0:0:0:
256,192,46580,1,0,0:0:0:0:
256,192,46764,1,0,0:0:0:0:
256,192,46948,1,8,0:0:0:0:
256,192,47040,1,8,0:0:0:0:
256,192,47132,1,8,0:0:0:0:
256,192,47224,1,8,0:0:0:0:
256,192,47316,1,0,0:0:0:0:
256,192,47500,1,8,0:0:0:0:
256,192,47868,1,0,0:0:0:0:
256,192,48052,1,0,0:0:0:0:
256,192,48236,1,8,0:0:0:0:
256,192,48604,1,0,0:0:0:0:
256,192,48972,1,8,0:0:0:0:
256,192,49156,1,8,0:0:0:0:
256,192,49340,1,0,0:0:0:0:
256,192,49432,1,0,0:0:0:0:
256,192,49524,1,8,0:0:0:0:
256,192,49708,1,0,0:0:0:0:
256,192,49892,1,8,0:0:0:0:
256,192,49984,1,0,0:0:0:0:
256,192,50076,1,8,0:0:0:0:
256,192,50261,1,0,0:0:0:0:
256,192,50629,1,0,0:0:0:0:
256,192,50721,1,8,0:0:0:0:
256,192,50813,1,0,0:0:0:0:
256,192,50997,1,8,0:0:0:0:
256,192,51365,1,0,0:0:0:0:
256,192,51549,1,8,0:0:0:0:
256,192,51733,1,0,0:0:0:0:
256,192,51825,1,0,0:0:0:0:
256,192,51917,1,8,0:0:0:0:
256,192,52009,1,8,0:0:0:0:
256,192,52101,1,0,0:0:0:0:
256,192,52285,1,8,0:0:0:0:
256,192,52469,1,0,0:0:0:0:
256,192,52561,1,0,0:0:0:0:
256,192,52653,1,0,0:0:0:0:
256,192,52837,1,8,0:0:0:0:
256,192,53021,1,0,0:0:0:0:
256,192,53113,1,0,0:0:0:0:
256,192,53205,1,0,0:0:0:0:
256,192,53297,1,0,0:0:0:0:
256,192,53389,1,8,0:0:0:0:
256,192,53573,1,8,0:0:0:0:
256,192,53757,1,0,0:0:0:0:
256,192,53941,1,0,0:0:0:0:
256,192,54126,1,8,0:0:0:0:
256,192,54494,1,12,0:0:0:0:
256,192,54862,1,0,0:0:0:0:
256,192,54954,1,0,0:0:0:0:
256,192,55046,1,0,0:0:0:0:
256,192,55230,1,8,0:0:0:0:
256,192,55598,1,0,0:0:0:0:
256,192,55782,1,8,0:0:0:0:
256,192,55966,1,0,0:0:0:0:
256,192,56150,1,0,0:0:0:0:
256,192,56334,1,8,0:0:0:0:
256,192,56518,1,8,0:0:0:0:
256,192,56702,1,0,0:0:0:0:
256,192,56886,1,8,0:0:0:0:
256,192,57070,1,0,0:0:0:0:
256,192,57254,1,8,0:0:0:0:
256,192,57438,1,0,0:0:0:0:
256,192,57807,1,8,0:0:0:0:
256,192,57899,1,8,0:0:0:0:
256,192,57991,1,8,0:0:0:0:
256,192,58175,1,0,0:0:0:0:
256,192,58359,1,8,0:0:0:0:
256,192,58543,1,0,0:0:0:0:
256,192,58635,1,0,0:0:0:0:
256,192,58727,1,8,0:0:0:0:
256,192,58911,1,0,0:0:0:0:
256,192,59095,1,0,0:0:0:0:
256,192,59279,1,8,0:0:0:0:
256,192,59647,1,0,0:0:0:0:
256,192,59831,1,8,0:0:0:0:
256,192,60015,1,0,0:0:0:0:
256,192,60383,1,12,0:0:0:0:
256,192,60751,1,0,0:0:0:0:
256,192,60935,1,8,0:0:0:0:
256,192,61119,1,0,0:0:0:0:
256,192,61211,1,0,0:0:0:0:
256,192,61303,1,0,0:0:0:0:
256,192,61487,1,8,0:0:0:0:
256,192,61672,1,8,0:0:0:0:
256,192,61764,1,8,0:0:0:0:
256,192,61856,1,0,0:0:0:0:
256,192,62040,1,8,0:0:0:0:
256,192,62408,1,0,0:0:0:0:
256,192,62500,1,0,0:0:0:0:
256,192,62592,1,8,0:0:0:0:
256,192,62776,1,8,0:0:0:0:
256,192,63144,1,8,0:0:0:0:
256,192,63328,1,0,0:0:0:0:
256,192,63512,1,8,0:0:0:0:
256,192,63604,1,8,0:0:0:0:
256,192,63696,1,0,0:0:0:0:
256,192,63788,1,0,0:0:0:0:
256,192,63880,1,8,0:0:0:0:
256,192,64064,1,0,0:0:0:0:
256,192,64248,1,8,0:0:0:0:
256,192,64340,1,8,0:0:0:0:
256,192,64432,1,8,0:0:0:0:
256,192,64616,1,8,0:0:0:0:
256,192,64800,1,0,0:0:0:0:
256,192,64892,1,0,0:0:0:0:
256,192,64984,1,8,0:0:0:0:
256,192,65076,1,8,0:0:0:0:
256,192,65168,1,0,0:0:0:0:
256,192,65353,1,8,0:0:0:0:
256,192,65537,1,0,0:0:0:0:
256,192,65721,1,0,0:0:0:0:
256,192,65905,1,8,0:0:0:0:
256,192,66089,1,0,0:0:0:0:
256,192,66273,1,12,0:0:0:0:
256,192,66825,1,8,0:0:0:0:
256,192,67009,1,0,0:0:0:0:
256,192,67193,1,0,0:0:0:0:
256,192,67377,1,8,0:0:0:0:
256,192,67745,1,0,0:0:0:0:
256,192,68297,1,0,0:0:0:0:
256,192,68481,1,8,0:0:0:0:
256,192,68665,1,0,0:0:0:0:
256,192,68849,1,8,0:0:0:0:
256,192,69034,1,8,0:0:0:0:
256,192,69218,1,0,0:0:0:0:
256,192,69770,1,8,0:0:0:0:
256,192,69954,1,0,0:0:0:0:
256,192,70138,1,0,0:0:0:0:
256,192,70322,1,8,0:0:0:0:
256,192,70506,1,0,0:0:0:0:
256,192,70690,1,0,0:0:0:0:
256,192,70874,1,8,0:0:0:0:
256,192,71242,1,8,0:0:0:0:
256,192,71426,1,0,0:0:0:0:
256,192,71610,1,8,0:0:0:0:
256,192,71702,1,8,0:0:0:0:
256,192,71794,1,8,0:0:0:0:
256,192,71978,1,8,0:0:0:0:
256,192,72162,1,0,0:0:0:0:
256,192,72530,1,0,0:0:0:0:
256,192,72714,1,8,0:0:0:0:
256,192,72899,1,8,0:0:0:0:
256,192,73083,1,0,0:0:0:0:
256,192,73267,1,8,0:0:0:0:
256,192,73451,1,0,0:0:0:0:
256,192,73543,1,0,0:0:0:0:
256,192,73635,1,0,0:0:0:0:
256,192,73819,1,8,0:0:0:0:
256,192,74187,1,8,0:0:0:0:
256,192,74371,1,0,0:0:0:0:
256,192,74555,1,0,0:0:0:0:
256,192,74739,1,8,0:0:0:0:
256,192,74831,1,8,0:0:0:0:
256,192,74923,1,8,0:0:0:0:
256,192,75107,1,0,0:0:0:0:
256,192,75475,1,8,0:0:0:0:
256,192,75659,1,0,0:0:0:0:
256,192,75751,1,0,0:0:0:0:
256,192,75843,1,0,0:0:0:0:
256,192,76027,1,8,0:0:0:0:
256,192,76211,1,0,0:0:0:0:
256,192,76395,1,8,0:0:0:0:
256,192,76487,1,8,0:0:0:0:
256,192,76580,1,8,0:0:0:0:
256,192,76764,1,0,0:0:0:0:
256,192,77132,1,0,0:0:0:0:
256,192,77316,1,8,0:0:0:0:
256,192,77684,1,8,0:0:0:0:
256,192,77776,1,8,0:0:0:0:
256,192,77868,1,8,0:0:0:0:
256,192,78052,1,4,0:0:0:0:
256,192,78420,1,8,0:0:0:0:
256,192,78604,1,0,0:0:0:0:
256,192,78696,1,0,0:0:0:0:
256,192,78788,1,8,0:0:0:0:
256,192,78880,1,8,0:0:0:0:
256,192,78972,1,0,0:0:0:0:
256,192,79156,1,8,0:0:0:0:
256,192,79340,1,0,0:0:0:0:
256,192,79432,1,0,0:0:0:0:
256,192,79524,1,0,0:0:0:0:
256,192,79708,1,8,0:0:0:0:
256,192,80076,1,8,0:0:0:0:
256,192,80261,1,0,0:0:0:0:
256,192,80353,1,0,0:0:0:0:
256,192,80445,1,0,0:0:0:0:
256,192,80537,1,0,0:0:0:0:
256,192,80629,1,8,0:0:0:0:
256,192,80813,1,8,0:0:0:0:
256,192,80997,1,0,0:0:0:0:
256,192,81365,1,8,0:0:0:0:
256,192,81549,1,0,0:0:0:0:
256,192,81641,1,0,0:0:0:0:
256,192,81733,1,8,0:0:0:0:
256,192,81825,1,8,0:0:0:0:
256,192,81917,1,0,0:0:0:0:
256,192,82101,1,0,0:0:0:0:
256,192,82285,1,8,0:0:0:0:
256,192,82377,1,0,0:0:0:0:
256,192,82469,1,8,0:0:0:0:
256,192,82653,1,0,0:0:0:0:
256,192,83021,1,0,0:0:0:0:
256,192,83205,1,8,0:0:0:0:
256,192,83297,1,0,0:0:0:0:
256,192,83389,1,8,0:0:0:0:
256,192,83481,1,0,0:0:0:0:
256,192,83573,1,8,0:0:0:0:
256,192,83941,1,0,0:0:0:0:
256,192,84310,1,8,0:0:0:0:
256,192,84494,1,0,0:0:0:0:
256,192,84586,1,0,0:0:0:0:
256,192,84678,1,8,0:0:0:0:
256,192,84770,1,8,0:0:0:0:
256,192,84862,1,0,0:0:0:0:
256,192,85046,1,0,0:0:0:0:
256,192,85230,1,8,0:0:0:0:
256,192,85322,1,8,0:0:0:0:
256,192,85414,1,8,0:0:0:0:
256,192,85598,1,0,0:0:0:0:
256,192,85966,1,0,0:0:0:0:
256,192,86150,1,8,0:0:0:0:
256,192,86242,1,8,0:0:0:0:
256,192,86334,1,0,0:0:0:0:
256,192,86426,1,0,0:0:0:0:
256,192,86518,1,8,0:0:0:0:
256,192,86702,1,8,0:0:0:0:
256,192,86794,1,8,0:0:0:0:
256,192,86886,1,8,0:0:0:0:
256,192,87070,1,0,0:0:0:0:
256,192,87438,1,8,0:0:0:0:
256,192,87622,1,0,0:0:0:0:
256,192,87991,1,8,0:0:0:0:
256,192,88175,1,0,0:0:0:0:
256,192,88543,1,8,0:0:0:0:
256,192,88727,1,0,0:0:0:0:
256,192,88911,1,0,0:0:0:0:
256,192,89095,1,8,0:0:0:0:
256,192,89279,1,0,0:0:0:0:
256,192,89463,1,8,0:0:0:0:
256,192,89555,1,8,0:0:0:0:
256,192,89647,1,8,0:0:0:0:
256,192,89831,1,4,0:0:0:0:
