osu file format v14

[General]
AudioFilename: audio.mp3
AudioLeadIn: 0
PreviewTime: 78054
Countdown: 0
SampleSet: Soft
StackLeniency: 0.7
Mode: 0
LetterboxInBreaks: 0
WidescreenStoryboard: 1

[Editor]
DistanceSpacing: 1
BeatDivisor: 4
GridSize: 16
TimelineZoom: 1

[Metadata]
Title:Polargeist
TitleUnicode:Polargeist
Artist:Step
ArtistUnicode:Step
Creator:-WinD
Version:Harder
Source:Geometry Dash
Tags:gd polarbear level 3 m75111 electronic techno rhythm videogame
BeatmapID:2569595
BeatmapSetID:803161

[Difficulty]
HPDrainRate:7
CircleSize:3.8
OverallDifficulty:6
ApproachRate:8
SliderMultiplier:1
SliderTickRate:1

[Events]
//Background and Video events
0,0,"city_aerial_view_night-t2.jpg",0,0
//Break Periods
2,66475,71414
//Storyboard Layer 0 (Background)
//Storyboard Layer 1 (Fail)
//Storyboard Layer 2 (Pass)
//Storyboard Layer 3 (Foreground)
//Storyboard Layer 4 (Overlay)
//Storyboard Sound Samples

[TimingPoints]
1490,368.098159509202,4,2,0,40,1,0
19158,-66.6666666666667,4,2,0,70,0,1
30937,-100,4,2,0,40,0,0
42716,-66.6666666666667,4,2,0,70,0,1
54496,-66.6666666666667,4,2,0,70,0,0
72164,-100,4,2,0,40,0,0
78054,-66.6666666666667,4,2,0,70,0,1
89833,-66.6666666666667,4,2,0,40,0,0

[Colours]
Combo1 : 4,69,240
Combo2 : 81,255,255
Combo3 : 0,170,170
Combo4 : 0,128,192

[HitObjects]
136,172,1490,6,0,B|132:106|132:106|140:57,2,100
277,173,2594,1,0,0:0:0:0:
313,288,2962,2,0,L|199:301,1,100
127,162,3698,2,0,L|238:166,1,100
285,62,4434,6,0,B|337:60|337:60|392:66,2,100
135,124,5539,1,0,0:0:0:0:
292,219,5907,2,0,B|324:206|348:237|393:224,1,100
143,156,6643,2,0,B|97:143|76:173|29:153,1,100
145,362,7379,6,0,P|189:264|147:182,1,200
119,103,8483,1,0,0:0:0:0:
119,103,8667,2,0,P|63:107|6:104,2,100
256,68,9588,2,0,P|317:59|372:64,1,100
419,128,10140,1,0,0:0:0:0:
419,128,10324,6,0,P|412:159|423:186,1,50
405,322,10692,2,0,P|409:297|402:273,1,50
319,218,11060,2,0,B|286:215|286:215|250:229|250:229|218:223,1,100
110,205,11612,2,0,B|87:164|139:148|110:94,2,100
215,277,12532,2,0,P|181:271|149:278,1,50
9,297,12901,2,0,P|43:303|75:296,1,50
140,223,13269,5,0,0:0:0:0:
200,142,13453,1,0,0:0:0:0:
312,174,13637,1,0,0:0:0:0:
338,69,13821,1,0,0:0:0:0:
442,0,14005,2,0,P|439:56|448:114,1,100
444,99,14557,1,0,0:0:0:0:
477,195,14741,5,0,0:0:0:0:
371,158,14925,1,0,0:0:0:0:
291,271,15109,1,0,0:0:0:0:
399,243,15293,1,0,0:0:0:0:
252,178,15477,2,0,P|233:148|230:116,1,50
228,0,15845,2,0,P|246:29|249:61,1,50
130,259,16213,5,0,0:0:0:0:
95,85,16397,1,0,0:0:0:0:
224,205,16582,1,0,0:0:0:0:
49,184,16766,1,0,0:0:0:0:
204,99,16950,1,0,0:0:0:0:
346,139,17318,5,0,0:0:0:0:
346,139,17502,2,0,L|351:253,2,100
283,63,18422,2,0,P|230:49|199:54,1,50
93,30,18790,2,0,B|84:20|84:20|79:-3,3,25
107,44,19158,6,0,L|99:151,1,75.0000028610231
151,262,19526,2,0,L|159:155,1,75.0000028610231
347,105,19894,2,0,B|268:85|268:85|178:114,1,150.000005722046
271,207,20447,2,0,B|350:227|350:227|415:205,2,150.000005722046
177,132,21367,1,0,0:0:0:0:
162,298,21735,1,0,0:0:0:0:
280,199,22103,6,0,B|326:199|326:199|366:189,1,75.0000028610231
512,131,22471,2,0,B|466:131|466:131|426:141,1,75.0000028610231
385,337,22839,2,0,P|367:261|391:194,1,150.000005722046
327,101,23391,2,0,P|248:85|164:129,2,150.000005722046
296,230,24312,1,0,0:0:0:0:
112,218,24680,1,0,0:0:0:0:
230,327,25048,6,0,P|276:338|327:338,1,75.0000028610231
474,303,25416,2,0,P|437:293|400:290,1,75.0000028610231
246,149,25784,2,0,B|319:136|319:136|399:152,1,150.000005722046
201,231,26336,2,0,B|118:242|118:242|29:212,2,150.000005722046
334,100,27256,2,0,P|326:141|340:194,1,75.0000028610231
385,282,27624,5,0,0:0:0:0:
258,248,27809,1,0,0:0:0:0:
258,248,27901,1,0,0:0:0:0:
258,248,27993,1,0,0:0:0:0:
307,384,28177,1,0,0:0:0:0:
80,316,28545,5,0,0:0:0:0:
237,321,28729,1,0,0:0:0:0:
159,76,29097,5,0,0:0:0:0:
147,240,29281,1,0,0:0:0:0:
356,154,29649,5,0,0:0:0:0:
179,144,29833,1,0,0:0:0:0:
287,292,30201,2,0,P|331:300|372:289,1,75.0000028610231
155,248,30569,2,0,P|199:256|240:245,1,75.0000028610231
91,185,30937,1,0,0:0:0:0:
200,98,31305,5,0,0:0:0:0:
200,98,31489,1,0,0:0:0:0:
327,187,31858,1,0,0:0:0:0:
327,187,32042,1,0,0:0:0:0:
203,306,32410,2,0,L|199:355,1,50
183,232,32778,2,0,L|133:227,1,50
255,212,33146,2,0,L|261:162,1,50
277,284,33514,2,0,L|326:289,1,50
183,232,33882,6,0,B|124:235|124:235|91:262|91:262|43:265,1,150
0,147,34802,1,0,0:0:0:0:
14,0,35170,1,0,0:0:0:0:
14,0,35355,2,0,L|80:0,1,50
162,70,35907,1,0,0:0:0:0:
162,70,36091,2,0,L|272:68,1,100
382,321,36827,6,0,B|389:236|389:236|383:162,1,150
182,137,37747,1,0,0:0:0:0:
182,137,37931,2,0,B|214:140|214:140|252:134,1,50
256,271,38299,1,0,0:0:0:0:
122,87,38667,1,0,0:0:0:0:
338,157,39036,1,0,0:0:0:0:
122,227,39404,1,0,0:0:0:0:
256,44,39772,1,0,0:0:0:0:
368,238,40324,6,0,B|327:277|327:277|267:280,1,100
134,279,41060,2,0,P|116:295|115:330,2,50
210,150,41796,1,0,0:0:0:0:
210,150,41980,2,0,L|209:114,6,25
149,55,42716,5,0,0:0:0:0:
343,74,43085,2,0,L|232:65,1,75.0000028610231
210,150,43453,1,0,0:0:0:0:
280,217,43637,2,0,L|362:212,1,75.0000028610231
403,348,44005,6,0,P|367:288|362:258,1,75.0000028610231
504,225,44373,2,0,P|436:240|399:233,1,75.0000028610231
420,91,44741,2,0,P|413:161|396:194,1,75.0000028610231
266,131,45109,2,0,P|330:160|354:188,1,75.0000028610231
256,289,45477,2,0,P|301:237|336:228,1,75.0000028610231
366,283,45845,5,0,0:0:0:0:
411,164,46029,1,0,0:0:0:0:
487,261,46213,1,0,0:0:0:0:
487,261,46397,2,0,P|503:291|492:342,2,75.0000028610231
411,164,46950,1,0,0:0:0:0:
411,164,47042,1,0,0:0:0:0:
411,164,47134,1,0,0:0:0:0:
366,283,47318,1,0,0:0:0:0:
366,283,47502,6,0,B|297:258|297:258|214:286,1,150.000005722046
301,356,48054,1,0,0:0:0:0:
301,356,48146,1,0,0:0:0:0:
301,356,48238,1,0,0:0:0:0:
301,356,48330,1,0,0:0:0:0:
301,356,48422,1,0,0:0:0:0:
298,168,48606,1,0,0:0:0:0:
334,12,48974,6,0,L|346:114,1,75.0000028610231
399,157,49342,1,0,0:0:0:0:
346,242,49526,2,0,L|309:324,1,75.0000028610231
107,276,49894,6,0,L|197:271,1,75.0000028610231
128,125,50263,2,0,L|160:207,1,75.0000028610231
278,102,50631,2,0,L|208:164,1,75.0000028610231
346,242,50999,2,0,L|268:191,1,75.0000028610231
241,352,51367,2,0,L|266:265,1,75.0000028610231
333,327,51735,5,0,0:0:0:0:
419,284,51919,1,0,0:0:0:0:
416,189,52103,1,0,0:0:0:0:
416,189,52287,2,0,P|431:157|485:161,2,75.0000028610231
339,242,52839,1,0,0:0:0:0:
339,242,52931,1,0,0:0:0:0:
339,242,53023,1,0,0:0:0:0:
255,188,53207,1,0,0:0:0:0:
339,76,53391,6,0,P|350:111|340:147,1,75.0000028610231
184,189,53759,2,0,P|224:177|254:187,1,75.0000028610231
220,339,54128,2,0,L|228:221,1,75.0000028610231
230,95,54496,1,0,0:0:0:0:
338,264,54864,5,0,0:0:0:0:
338,264,55232,1,0,0:0:0:0:
175,359,55600,6,0,L|183:284,1,75.0000028610231
108,240,55968,2,0,L|176:209,1,75.0000028610231
177,121,56336,2,0,L|237:165,1,75.0000028610231
314,122,56704,2,0,L|305:196,1,75.0000028610231
382,240,57072,2,0,L|313:270,2,75.0000028610231
500,172,57624,5,0,0:0:0:0:
432,54,57809,1,0,0:0:0:0:
314,122,57993,1,0,0:0:0:0:
314,122,58177,2,0,B|279:108|279:108|228:133,2,75.0000028610231
382,240,58729,1,0,0:0:0:0:
382,240,58821,1,0,0:0:0:0:
382,240,58913,1,0,0:0:0:0:
271,327,59097,1,0,0:0:0:0:
162,242,59281,6,0,L|2:248,1,150.000005722046
141,165,59833,1,0,0:0:0:0:
141,165,59925,1,0,0:0:0:0:
141,165,60017,1,0,0:0:0:0:
141,165,60109,1,0,0:0:0:0:
141,165,60201,1,0,0:0:0:0:
95,356,60385,1,0,0:0:0:0:
18,174,60753,6,0,B|8:213|8:213|12:247,1,75.0000028610231
95,356,61121,1,0,0:0:0:0:
162,242,61305,1,0,0:0:0:0:
331,340,61674,6,0,B|332:296|332:296|310:268,1,75.0000028610231
447,230,62042,2,0,B|411:213|411:213|369:225,1,75.0000028610231
380,85,62410,2,0,B|355:119|355:119|356:161,1,75.0000028610231
222,107,62778,2,0,B|243:140|243:140|281:151,1,75.0000028610231
192,262,63146,2,0,B|229:250|229:250|250:215,1,75.0000028610231
395,205,63514,5,0,0:0:0:0:
319,211,63698,1,0,0:0:0:0:
383,74,63882,1,0,0:0:0:0:
424,135,64066,1,0,0:0:0:0:
277,149,64250,1,0,0:0:0:0:
308,82,64434,1,0,0:0:0:0:
351,145,64619,5,0,0:0:0:0:
424,135,64802,2,0,P|461:131|497:114,2,75.0000028610231
351,145,65355,1,0,0:0:0:0:
379,71,65539,1,0,0:0:0:0:
403,212,65723,1,0,0:0:0:0:
403,212,65815,1,0,0:0:0:0:
403,212,65907,2,0,L|408:253,4,37.5000014305115
195,356,72164,6,0,P|169:366|155:395,1,50
221,257,72532,2,0,P|224:229|206:203,1,50
293,329,72901,2,0,P|314:345|391:325,1,100
465,140,73637,6,0,P|491:146|520:130,1,50
386,206,74005,2,0,P|367:226|366:258,1,50
368,105,74374,2,0,P|359:78|285:51,1,100
276,276,75109,5,0,0:0:0:0:
245,116,75293,1,0,0:0:0:0:
175,263,75477,1,0,0:0:0:0:
317,185,75661,1,0,0:0:0:0:
156,165,75845,1,0,0:0:0:0:
299,58,76213,5,0,0:0:0:0:
299,58,76397,2,0,B|261:78|241:39|194:66,2,100
409,138,77318,2,0,P|419:162|416:188,1,50
289,269,77686,2,0,P|290:247|286:225,3,25
256,281,78054,6,0,P|174:294|96:259,1,150.000005722046
19,213,78606,1,0,0:0:0:0:
115,162,78790,2,0,P|167:97|175:12,1,150.000005722046
212,231,79342,2,0,P|238:299|322:316,2,150.000005722046
235,125,80263,1,0,0:0:0:0:
394,103,80631,1,0,0:0:0:0:
177,262,80999,6,0,L|250:278,1,75.0000028610231
384,344,81367,2,0,L|309:350,1,75.0000028610231
309,113,81735,2,0,P|340:185|318:260,1,150.000005722046
238,190,82287,2,0,P|172:223|100:205,2,150.000005722046
370,127,83207,1,0,0:0:0:0:
484,230,83575,1,0,0:0:0:0:
338,336,83943,6,0,P|356:285|351:241,1,75.0000028610231
293,182,84312,2,0,P|275:233|280:277,1,75.0000028610231
374,101,84680,2,0,P|318:65|222:107,1,150.000005722046
37,171,85232,2,0,B|94:169|94:169|121:182|121:182|189:182,2,150.000005722046
174,256,86152,2,0,L|154:344,1,75.0000028610231
296,205,86520,5,0,0:0:0:0:
430,168,86704,1,0,0:0:0:0:
430,168,86796,1,0,0:0:0:0:
430,168,86888,1,0,0:0:0:0:
394,303,87072,1,0,0:0:0:0:
152,275,87440,5,0,0:0:0:0:
305,239,87624,1,0,0:0:0:0:
195,156,87993,5,0,0:0:0:0:
250,337,88177,1,0,0:0:0:0:
342,110,88545,5,0,0:0:0:0:
159,46,88729,1,0,0:0:0:0:
183,276,89097,2,0,L|257:268,1,75.0000028610231
420,215,89465,2,0,L|346:208,1,75.0000028610231
251,104,89833,1,0,0:0:0:0:
256,192,89925,12,0,94986,0:0:0:0:
