osu file format v14

[General]
AudioFilename: audio.mp3
AudioLeadIn: 0
PreviewTime: 56735
Countdown: 0
SampleSet: Soft
StackLeniency: 0.7
Mode: 0
LetterboxInBreaks: 0
WidescreenStoryboard: 1

[Editor]
Bookmarks: 30099,90266,103636
DistanceSpacing: 1
BeatDivisor: 4
GridSize: 4
TimelineZoom: 1

[Metadata]
Title:Novy God (feat. gr. Chernilnoye Nebo)
TitleUnicode:Новый Год (feat гр."Чернильное небо")
Artist:StekloVata
ArtistUnicode:СтеклоVата
Creator:A r M i N
Version:Shmik's Easy
Source:
Tags:A_r_M_i_N Armin russian ruskiy Christmas рождество rojdestvo -Bakari- Shmiklak Стекловата noviy novii novi TheMefisto Chernil'noe Chernil'noye
BeatmapID:1164121
BeatmapSetID:549421

[Difficulty]
HPDrainRate:1
CircleSize:2.6
OverallDifficulty:2
ApproachRate:3
SliderMultiplier:0.999999999999999
SliderTickRate:1

[Events]
//Background and Video events
0,0,"new_year_gifts_christmas_tree_red_candles_cones_balls-wallpaper-1920x1080.jpg",0,0
//Break Periods
//Storyboard Layer 0 (Background)
//Storyboard Layer 1 (Fail)
//Storyboard Layer 2 (Pass)
//Storyboard Layer 3 (Foreground)
//Storyboard Sound Samples

[TimingPoints]
1687,417.827298050139,4,2,0,40,1,0
56840,-100,4,2,0,55,0,1
70106,-100,4,2,0,55,0,0
70210,-100,4,2,0,55,0,1
83581,-100,4,2,0,40,0,0
106979,-100,4,2,0,35,0,0
107815,-100,4,2,0,25,0,0
108650,-100,4,2,0,15,0,0
109486,-100,4,2,0,5,0,0

[Colours]
Combo1 : 111,166,137
Combo2 : 188,150,150
Combo3 : 157,141,214
Combo4 : 111,81,94

[HitObjects]
103,358,2104,6,0,P|124:310|115:257,1,99.9999999999999,0|2,0:0|0:0,0:0:0:0:
61,181,2940,1,2,0:0:0:0:
100,88,3358,6,0,L|300:80,1,200,4|2,0:0|0:0,0:0:0:0:
380,264,5029,2,0,L|180:256,1,200,2|2,0:0|0:0,0:0:0:0:
360,164,6700,6,0,P|428:172|476:296,1,200,2|2,0:0|0:0,0:0:0:0:
300,364,8372,2,0,B|196:356|196:356|120:296,1,200,2|2,0:0|0:0,0:0:0:0:
260,156,10043,6,0,L|466:163,1,200,2|2,0:0|0:0,0:0:0:0:
396,352,11714,2,0,L|196:358,1,200,2|2,0:0|0:0,0:0:0:0:
100,184,13386,6,0,P|96:120|220:68,1,200,2|2,0:0|0:0,0:0:0:0:
298,236,15057,2,0,P|302:300|178:352,1,200,2|2,0:0|0:0,0:0:0:0:
48,224,16728,6,0,B|14:125|90:125|50:29,1,200,4|2,0:0|0:0,0:0:0:0:
184,180,18400,2,0,P|240:192|320:92,1,200,2|2,0:0|0:0,0:0:0:0:
120,104,20071,6,0,P|76:160|132:268,1,200,2|2,0:0|0:0,0:0:0:0:
325,265,21742,2,0,P|369:209|313:101,1,200,2|2,0:0|0:0,0:0:0:0:
120,104,23414,5,2,0:0:0:0:
120,104,23831,2,0,L|132:264,1,150,2|2,0:0|0:0,0:0:0:0:
258,333,25085,2,0,L|418:345,2,150,2|2|2,0:0|0:0|0:0,0:0:0:0:
169,286,26756,6,0,P|93:242|208:112,1,300,2|0,0:0|0:0,0:0:0:0:
277,63,28427,2,0,B|372:80|372:80|448:176,1,200,2|2,0:0|0:0,0:0:0:0:
344,340,30099,6,0,P|292:356|236:340,1,99.9999999999999,4|8,0:0|0:0,0:0:0:0:
168,288,30934,2,0,L|160:176,1,99.9999999999999,2|8,0:0|0:0,0:0:0:0:
89,117,31770,2,0,B|188:151|188:75|284:115,1,200,2|2,0:0|0:0,0:0:0:0:
360,180,33024,1,8,0:0:0:0:
336,276,33441,6,0,P|300:316|236:320,1,99.9999999999999,2|8,0:0|0:0,0:0:0:0:
160,304,34277,2,0,P|118:291|56:280,1,99.9999999999999,2|8,0:0|0:0,0:0:0:0:
16,192,35113,2,0,P|8:152|132:96,1,200,2|2,0:0|0:0,0:0:0:0:
196,162,36366,1,8,0:0:0:0:
266,91,36784,6,0,P|358:99|375:191,1,200,2|2,0:0|0:0,0:0:0:0:
304,264,38037,1,8,0:0:0:0:
304,264,38455,2,0,B|104:218,1,200,2|2,0:0|0:0,0:0:0:0:
60,140,39709,1,8,0:0:0:0:
60,140,40127,6,0,P|25:177|17:230,2,99.9999999999999,2|8|2,0:0|0:0|0:0,0:0:0:0:
112,56,41380,1,8,0:0:0:0:
112,56,41798,2,0,B|184:112|184:112|292:96,1,200,2|2,0:0|0:0,0:0:0:0:
356,20,43051,1,8,0:0:0:0:
424,92,43469,6,0,P|469:131|433:255,1,200,4|2,0:0|0:0,0:0:0:0:
344,288,44723,1,8,0:0:0:0:
252,324,45141,2,0,P|192:332|144:308,1,99.9999999999999,2|8,0:0|0:0,0:0:0:0:
84,252,45976,2,0,P|76:192|100:144,1,99.9999999999999,2|8,0:0|0:0,0:0:0:0:
176,108,46812,6,0,B|275:142|275:66|371:106,1,200,2|2,0:0|0:0,0:0:0:0:
440,176,48065,1,8,0:0:0:0:
400,268,48483,2,0,L|408:372,1,99.9999999999999,2|8,0:0|0:0,0:0:0:0:
312,336,49319,2,0,L|304:232,1,99.9999999999999,2|8,0:0|0:0,0:0:0:0:
232,164,50154,6,0,P|191:225|75:177,1,200,2|2,0:0|0:0,0:0:0:0:
36,92,51408,1,8,0:0:0:0:
36,92,51826,2,0,B|82:292,1,200,2|2,0:0|0:0,0:0:0:0:
168,332,53079,1,8,0:0:0:0:
256,280,53497,6,0,P|308:284|356:328,2,99.9999999999999,2|8|2,0:0|0:0|0:0,0:0:0:0:
168,332,54751,1,8,0:0:0:0:
172,336,55168,2,0,B|228:264|228:264|212:156,1,200,2|2,0:0|0:0,0:0:0:0:
152,76,56421,1,8,0:0:0:0:
241,31,56840,6,0,L|356:28,1,99.9999999999999,4|8,0:0|0:0,0:0:0:0:
411,99,57675,2,0,L|408:198,1,99.9999999999999,2|8,0:0|0:0,0:0:0:0:
360,288,58511,2,0,P|304:344|200:284,1,200,2|2,0:0|0:0,0:0:0:0:
148,216,59764,1,8,0:0:0:0:
180,120,60182,6,0,B|260:64|260:64|368:92,1,200,2|2,0:0|0:0,0:0:0:0:
444,148,61436,1,8,0:0:0:0:
460,244,61854,2,0,P|440:296|400:320,1,99.9999999999999,2|8,0:0|0:0,0:0:0:0:
304,312,62689,2,0,P|257:307|200:316,1,99.9999999999999,2|8,0:0|0:0,0:0:0:0:
108,342,63525,6,0,P|56:332|16:296,1,99.9999999999999,2|8,0:0|0:0,0:0:0:0:
40,204,64361,2,0,P|44:152|44:104,1,99.9999999999999,2|8,0:0|0:0,0:0:0:0:
128,51,65196,2,0,B|227:85|227:9|323:49,1,200,2|2,0:0|0:0,0:0:0:0:
412,92,66450,1,8,0:0:0:0:
368,184,66868,6,0,B|268:216|268:216|168:176,1,200,2|2,0:0|0:0,0:0:0:0:
108,108,68121,1,8,0:0:0:0:
36,180,68539,2,0,P|36:212|76:280,1,99.9999999999999,2|8,0:0|0:0,0:0:0:0:
156,320,69375,2,0,P|208:312|264:320,1,99.9999999999999,2|8,0:0|0:0,0:0:0:0:
352,340,70210,6,0,P|400:336|444:300,1,99.9999999999999,4|8,0:0|0:0,0:0:0:0:
432,204,71046,2,0,P|424:144|432:96,1,99.9999999999999,2|8,0:0|0:0,0:0:0:0:
358,34,71881,2,0,P|290:86|198:34,1,200,2|2,0:0|0:0,0:0:0:0:
104,12,73135,1,8,0:0:0:0:
52,96,73553,6,0,B|74:198|74:198|158:242,1,200,2|2,0:0|0:0,0:0:0:0:
252,208,74806,1,8,0:0:0:0:
328,276,75224,2,0,P|384:268|420:240,1,99.9999999999999,2|8,0:0|0:0,0:0:0:0:
460,152,76060,2,0,P|451:103|420:64,1,99.9999999999999,2|8,0:0|0:0,0:0:0:0:
324,32,76895,6,0,L|216:36,1,99.9999999999999,2|8,0:0|0:0,0:0:0:0:
180,125,77731,2,0,L|288:129,1,99.9999999999999,2|8,0:0|0:0,0:0:0:0:
350,199,78567,2,0,B|255:244|309:298|214:337,1,200,2|2,0:0|0:0,0:0:0:0:
114,337,79820,1,8,0:0:0:0:
32,280,80238,6,0,B|8:184|8:184|48:88,1,200,2|2,0:0|0:0,0:0:0:0:
136,44,81492,1,8,0:0:0:0:
220,100,81909,2,0,P|272:96|312:60,1,99.9999999999999,2|8,0:0|0:0,0:0:0:0:
396,112,82745,2,0,P|448:116|488:152,1,99.9999999999999,2|8,0:0|0:0,0:0:0:0:
448,240,83581,6,0,L|248:248,1,200,4|2,0:0|0:0,0:0:0:0:
112,100,85252,2,0,L|312:108,1,200,2|2,0:0|0:0,0:0:0:0:
272,304,86923,6,0,P|220:320|76:256,1,200,2|2,0:0|0:0,0:0:0:0:
208,112,88595,2,0,B|312:120|312:120|388:180,1,200,2|2,0:0|0:0,0:0:0:0:
244,320,90266,6,0,L|38:313,1,200,4|2,0:0|0:0,0:0:0:0:
8,116,91937,2,0,L|208:110,1,200,2|2,0:0|0:0,0:0:0:0:
368,232,93609,6,0,P|372:296|248:348,1,200,2|2,0:0|0:0,0:0:0:0:
265,154,95280,2,0,P|261:90|385:38,1,200,2|2,0:0|0:0,0:0:0:0:
408,228,96951,6,0,B|309:194|309:270|213:230,1,200,4|2,0:0|0:0,0:0:0:0:
148,40,98623,2,0,P|92:28|12:128,1,200,2|2,0:0|0:0,0:0:0:0:
104,308,100294,6,0,P|160:352|268:296,1,200,2|2,0:0|0:0,0:0:0:0:
432,192,101965,2,0,P|376:148|268:204,1,200,2|2,0:0|0:0,0:0:0:0:
256,192,103636,12,0,109486,0:0:0:0:
