osu file format v14

[General]
AudioFilename: audio.mp3
AudioLeadIn: 0
PreviewTime: 56735
Countdown: 0
SampleSet: Soft
StackLeniency: 0.7
Mode: 0
LetterboxInBreaks: 0
WidescreenStoryboard: 0

[Editor]
DistanceSpacing: 0.2
BeatDivisor: 4
GridSize: 4
TimelineZoom: 1

[Metadata]
Title:Novy God (feat. gr. Chernilnoye Nebo)
TitleUnicode:Новый Год (feat гр."Чернильное небо")
Artist:StekloVata
ArtistUnicode:СтеклоVата
Creator:A r M i N
Version:Happy New Year
Source:
Tags:A_r_M_i_N Armin russian ruskiy Christmas рождество rojdestvo -Bakari- Shmiklak Стекловата noviy novii novi TheMefisto Chernil'noe Chernil'noye
BeatmapID:1164179
BeatmapSetID:549421

[Difficulty]
HPDrainRate:6
CircleSize:4
OverallDifficulty:7.6
ApproachRate:8
SliderMultiplier:1.8
SliderTickRate:1

[Events]
//Background and Video events
0,0,"new_year_gifts_christmas_tree_red_candles_cones_balls-wallpaper-1920x1080.jpg",0,0
//Break Periods
//Storyboard Layer 0 (Background)
//Storyboard Layer 1 (Fail)
//Storyboard Layer 2 (Pass)
//Storyboard Layer 3 (Foreground)
//Storyboard Sound Samples

[TimingPoints]
1687,417.827298050139,4,2,0,40,1,0
56004,-111.111111111111,4,2,0,40,0,0
56317,-111.111111111111,4,2,0,5,0,0
56422,-100,4,2,0,40,0,0
56840,-90.9090909090909,4,2,0,55,0,1
70106,-90.9090909090909,4,2,0,55,0,0
70210,-90.9090909090909,4,2,0,55,0,1
83581,-100,4,2,0,40,0,0
106979,-100,4,2,0,35,0,0
107815,-100,4,2,0,25,0,0
108650,-100,4,2,0,15,0,0
109486,-100,4,2,0,5,0,0

[Colours]
Combo1 : 111,166,137
Combo2 : 188,150,150
Combo3 : 157,141,214
Combo4 : 111,81,94

[HitObjects]
129,46,1896,5,0,0:0:0:0:
129,46,2105,2,0,L|133:145,1,90,2|0,0:0|0:0,0:0:0:0:
257,273,2522,2,0,L|260:183,1,90,2|0,0:0|0:0,0:0:0:0:
393,46,2940,2,0,L|389:145,1,90,2|0,0:0|0:0,0:0:0:0:
336,340,3358,6,0,P|281:373|173:334,1,180,4|8,0:0|0:0,0:0:0:0:
260,183,3985,1,0,0:0:0:0:
260,183,4193,2,0,L|257:273,1,90
393,225,4611,2,0,L|389:135,1,90,8|0,0:0|0:0,0:0:0:0:
250,50,5029,6,0,B|206:57|206:57|158:52,1,90,2|0,0:0|0:0,0:0:0:0:
309,123,5447,1,8,0:0:0:0:
181,222,5656,1,0,0:0:0:0:
159,62,5865,1,2,0:0:0:0:
275,210,6074,1,0,0:0:0:0:
124,148,6283,1,8,0:0:0:0:
250,50,6492,2,0,L|242:100,1,45
181,222,6700,6,0,P|214:273|342:270,1,180,2|8,0:0|0:0,0:0:0:0:
208,127,7327,1,0,0:0:0:0:
208,127,7536,2,0,P|163:125|117:147,1,90,2|0,0:0|0:0,0:0:0:0:
55,308,7954,1,8,0:0:0:0:
181,222,8163,1,0,0:0:0:0:
36,56,8372,5,2,0:0:0:0:
68,216,8581,1,0,0:0:0:0:
168,41,8790,1,8,0:0:0:0:
19,143,8998,1,0,0:0:0:0:
181,222,9207,1,2,0:0:0:0:
106,85,9416,1,0,0:0:0:0:
124,274,9625,1,8,0:0:0:0:
202,121,9834,2,0,L|246:124,1,45
415,92,10043,6,0,P|397:165|417:272,1,180,2|8,0:0|0:0,0:0:0:0:
322,113,10670,1,0,0:0:0:0:
471,165,10879,2,0,P|473:210|489:253,1,90,2|0,0:0|0:0,0:0:0:0:
503,83,11297,1,8,0:0:0:0:
382,181,11505,1,0,0:0:0:0:
197,89,11714,6,0,L|200:0,1,90,2|0,0:0|0:0,0:0:0:0:
105,164,12132,1,8,0:0:0:0:
274,50,12341,1,0,0:0:0:0:
197,216,12550,1,2,0:0:0:0:
115,41,12759,1,0,0:0:0:0:
271,140,12968,1,8,0:0:0:0:
105,164,13177,2,0,L|47:160,1,45
197,42,13386,6,0,P|176:128|196:215,1,180,2|8,0:0|0:0,0:0:0:0:
335,345,14012,1,0,0:0:0:0:
435,223,14221,2,0,L|431:132,1,90,2|0,0:0|0:0,0:0:0:0:
277,243,14639,1,8,0:0:0:0:
419,312,14848,1,0,0:0:0:0:
310,129,15057,6,0,P|262:137|214:126,1,90,2|0,0:0|0:0,0:0:0:0:
59,41,15475,1,8,0:0:0:0:
124,195,15684,1,0,0:0:0:0:
266,49,15893,1,2,0:0:0:0:
116,108,16102,1,0,0:0:0:0:
182,285,16310,1,8,0:0:0:0:
221,129,16519,2,0,L|201:88,1,45
352,53,16728,6,0,P|332:134|353:231,1,180,4|8,0:0|0:0,0:0:0:0:
454,53,17355,1,0,0:0:0:0:
308,129,17564,2,0,P|260:138|215:126,1,90,2|0,0:0|0:0,0:0:0:0:
351,227,17982,1,8,0:0:0:0:
352,53,18191,1,0,0:0:0:0:
226,219,18400,6,0,B|231:264|231:264|225:317,1,90,2|0,0:0|0:0,0:0:0:0:
308,129,18817,1,8,0:0:0:0:
151,177,19026,1,0,0:0:0:0:
313,215,19235,1,2,0:0:0:0:
209,85,19444,1,0,0:0:0:0:
162,262,19653,1,8,0:0:0:0:
308,129,19862,2,0,L|354:132,1,45
209,85,20071,6,0,P|203:156|279:235,1,180,2|8,0:0|0:0,0:0:0:0:
296,21,20698,2,0,P|210:36|121:3,1,180,2|0,0:0|0:0,0:0:0:0:
31,158,21324,2,0,P|37:108|29:64,1,90,8|0,0:0|0:0,0:0:0:0:
209,85,21742,5,2,0:0:0:0:
209,85,21951,2,0,P|202:129|208:173,1,90,0|8,0:0|0:0,0:0:0:0:
390,135,22369,1,0,0:0:0:0:
390,135,22578,2,0,L|294:129,1,90,2|0,0:0|0:0,0:0:0:0:
111,80,22996,1,8,0:0:0:0:
132,242,23205,1,0,0:0:0:0:
129,255,23309,1,0,0:0:0:0:
126,269,23414,5,2,0:0:0:0:
208,173,23622,1,0,0:0:0:0:
111,80,23831,2,0,L|17:85,1,90,2|0,0:0|0:0,0:0:0:0:
200,195,24249,1,0,0:0:0:0:
103,102,24458,2,0,L|9:107,1,90,2|0,0:0|0:0,0:0:0:0:
192,217,24876,1,0,0:0:0:0:
289,310,25085,6,0,L|383:305,1,90,2|0,0:0|0:0,0:0:0:0:
200,195,25503,1,0,0:0:0:0:
297,288,25712,2,0,L|391:283,1,90,2|0,0:0|0:0,0:0:0:0:
208,173,26129,1,0,0:0:0:0:
305,266,26338,2,0,L|399:261,1,90,2|0,0:0|0:0,0:0:0:0:
410,217,26652,1,0,0:0:0:0:
426,173,26756,6,0,L|332:178,1,90,2|0,0:0|0:0,0:0:0:0:
208,173,27174,1,8,0:0:0:0:
291,54,27383,2,0,P|206:28|111:67,1,180,2|0,0:0|0:0,0:0:0:0:
58,232,28010,1,8,0:0:0:0:
208,173,28219,1,0,0:0:0:0:
33,100,28427,5,2,0:0:0:0:
134,212,28636,1,0,0:0:0:0:
174,25,28845,1,8,0:0:0:0:
81,159,29054,1,0,0:0:0:0:
34,21,29263,1,2,0:0:0:0:
169,113,29472,2,0,L|348:102,1,180,2|0,0:0|0:0,0:0:0:0:
378,81,29994,1,0,0:0:0:0:
407,60,30099,6,0,P|400:107|407:150,1,90,4|0,0:0|0:0,0:0:0:0:
482,320,30517,1,8,0:0:0:0:
512,149,30725,1,0,0:0:0:0:
370,231,30934,2,0,P|325:238|281:231,1,90,2|0,0:0|0:0,0:0:0:0:
369,369,31352,1,8,0:0:0:0:
406,148,31561,6,0,B|411:103|411:103|405:57,1,90,0|2,0:0|0:0,0:0:0:0:
231,58,31979,2,0,B|225:102|225:102|230:147,1,90,0|8,0:0|0:0,0:0:0:0:
279,310,32397,1,0,0:0:0:0:
318,148,32606,1,2,0:0:0:0:
159,195,32815,1,0,0:0:0:0:
347,266,33024,2,0,P|397:275|438:265,1,90,8|0,0:0|0:0,0:0:0:0:
474,245,33337,1,0,0:0:0:0:
495,205,33441,6,0,L|492:106,1,90,2|0,0:0|0:0,0:0:0:0:
318,148,33859,1,8,0:0:0:0:
427,30,34068,1,0,0:0:0:0:
393,217,34277,2,0,P|343:247|262:233,1,135,2|0,0:0|0:0,0:0:0:0:
247,221,34695,1,8,0:0:0:0:
373,326,34904,1,0,0:0:0:0:
318,148,35113,6,0,L|320:50,1,90,2|0,0:0|0:0,0:0:0:0:
247,221,35531,1,8,0:0:0:0:
395,143,35739,1,0,0:0:0:0:
237,64,35948,2,0,B|169:73|169:73|98:63,1,135,2|0,0:0|0:0,0:0:0:0:
76,58,36366,1,8,0:0:0:0:
174,193,36575,1,0,0:0:0:0:
174,193,36680,1,0,0:0:0:0:
174,193,36784,6,0,P|158:274|174:372,1,180,2|8,0:0|0:0,0:0:0:0:
75,239,37411,1,0,0:0:0:0:
231,133,37620,2,0,P|277:140|328:133,1,90,2|0,0:0|0:0,0:0:0:0:
425,294,38037,2,0,P|379:287|328:294,1,90,8|0,0:0|0:0,0:0:0:0:
173,369,38455,5,2,0:0:0:0:
195,208,38664,1,0,0:0:0:0:
296,363,38873,1,8,0:0:0:0:
148,283,39082,1,0,0:0:0:0:
310,213,39291,2,0,L|401:215,1,90,2|0,0:0|0:0,0:0:0:0:
235,300,39709,1,8,0:0:0:0:
138,156,39918,2,0,L|140:100,1,45
94,243,40127,6,0,P|145:253|191:238,1,90,2|0,0:0|0:0,0:0:0:0:
312,123,40544,2,0,L|310:212,1,90,8|0,0:0|0:0,0:0:0:0:
471,262,40962,1,0,0:0:0:0:
471,262,41171,2,0,L|469:173,1,90,8|0,0:0|0:0,0:0:0:0:
356,36,41589,1,0,0:0:0:0:
356,36,41798,6,0,P|305:26|259:41,1,90,2|0,0:0|0:0,0:0:0:0:
130,186,42216,2,0,P|181:196|227:181,1,90,2|0,0:0|0:0,0:0:0:0:
312,123,42634,1,2,0:0:0:0:
219,299,42842,1,8,0:0:0:0:
174,99,43051,1,8,0:0:0:0:
360,219,43260,1,8,0:0:0:0:
360,219,43365,1,8,0:0:0:0:
360,219,43469,6,0,P|410:164|394:55,1,180,4|8,0:0|0:0,0:0:0:0:
196,123,44096,1,0,0:0:0:0:
196,123,44305,2,0,P|263:136|319:119,2,120,2|0|0,0:0|0:0|0:0,0:0:0:0:
360,219,45141,2,0,P|373:276|360:334,2,120,2|0|0,0:0|0:0|0:0,0:0:0:0:
250,60,45976,5,2,0:0:0:0:
217,223,46185,1,0,0:0:0:0:
362,93,46394,1,8,0:0:0:0:
196,123,46603,1,0,0:0:0:0:
196,123,46707,1,0,0:0:0:0:
196,123,46812,6,0,L|98:120,1,90,2|0,0:0|0:0,0:0:0:0:
177,293,47230,1,8,0:0:0:0:
274,159,47439,1,0,0:0:0:0:
121,215,47648,2,0,P|90:253|82:306,1,90,2|0,0:0|0:0,0:0:0:0:
273,261,48065,1,8,0:0:0:0:
196,123,48274,1,0,0:0:0:0:
177,293,48483,6,0,L|181:382,1,90,2|0,0:0|0:0,0:0:0:0:
121,215,48901,1,8,0:0:0:0:
273,261,49110,1,0,0:0:0:0:
81,292,49319,2,0,P|50:266|36:207,1,90,2|0,0:0|0:0,0:0:0:0:
55,35,49737,1,8,0:0:0:0:
196,123,49946,1,0,0:0:0:0:
196,123,50050,1,0,0:0:0:0:
196,123,50154,6,0,P|245:133|291:119,1,90,2|0,0:0|0:0,0:0:0:0:
121,215,50572,1,8,0:0:0:0:
160,51,50781,1,0,0:0:0:0:
231,211,50990,2,0,L|229:308,1,90,2|0,0:0|0:0,0:0:0:0:
120,137,51408,1,8,0:0:0:0:
282,123,51617,1,0,0:0:0:0:
121,215,51826,6,0,P|78:203|47:161,1,90,2|0,0:0|0:0,0:0:0:0:
153,293,52244,1,8,0:0:0:0:
120,137,52453,1,0,0:0:0:0:
69,300,52661,2,0,P|85:344|166:377,1,135,2|0,0:0|0:0,0:0:0:0:
188,374,53079,1,8,0:0:0:0:
286,212,53288,1,0,0:0:0:0:
286,212,53393,1,0,0:0:0:0:
286,212,53497,6,0,P|292:165|286:122,1,90,2|0,0:0|0:0,0:0:0:0:
471,156,53915,1,8,0:0:0:0:
471,156,54124,2,0,P|464:200|470:244,1,90,0|2,0:0|0:0,0:0:0:0:
296,306,54542,1,0,0:0:0:0:
296,306,54751,2,0,L|206:303,1,90,8|0,0:0|0:0,0:0:0:0:
369,348,55168,6,0,P|380:301|364:255,1,90,2|0,0:0|0:0,0:0:0:0:
249,123,55586,2,0,P|237:165|248:209,1,90,8|0,0:0|0:0,0:0:0:0:
238,39,56004,6,0,P|184:51|107:34,1,121.499996292114,2|0,0:0|0:0,0:0:0:0:
83,22,56422,6,0,P|82:74|61:107,1,90,8|0,0:0|0:0,0:0:0:0:
31,130,56735,1,0,0:0:0:0:
31,130,56840,5,4,0:0:0:0:
81,273,57049,1,0,0:0:0:0:
142,91,57258,1,8,0:0:0:0:
226,236,57467,1,0,0:0:0:0:
65,198,57675,1,2,0:0:0:0:
98,354,57884,1,0,0:0:0:0:
167,174,58093,1,8,0:0:0:0:
31,287,58302,1,0,0:0:0:0:
219,328,58511,6,0,L|317:325,1,99.0000030212403,2|0,0:0|0:0,0:0:0:0:
364,146,58929,2,0,L|266:143,1,99.0000030212403,8|0,0:0|0:0,0:0:0:0:
395,277,59347,2,0,P|408:328|391:377,1,99.0000030212403,2|0,0:0|0:0,0:0:0:0:
259,227,59764,1,8,0:0:0:0:
262,185,59868,1,0,0:0:0:0:
265,142,59972,1,2,0:0:0:0:
267,100,60077,1,0,0:0:0:0:
270,57,60182,6,0,P|220:66|171:57,1,99.0000030212403,2|0,0:0|0:0,0:0:0:0:
259,227,60600,1,8,0:0:0:0:
363,100,60809,1,0,0:0:0:0:
178,170,61018,2,0,P|160:227|256:327,1,198.000006042481,2|8,0:0|0:0,0:0:0:0:
353,211,61645,1,0,0:0:0:0:
353,211,61854,6,0,P|300:208|252:232,1,99.0000030212403,2|0,0:0|0:0,0:0:0:0:
419,156,62271,2,0,P|448:111|451:58,1,99.0000030212403,8|0,0:0|0:0,0:0:0:0:
433,240,62689,2,0,P|456:287|501:316,1,99.0000030212403,2|0,0:0|0:0,0:0:0:0:
353,211,63107,1,8,0:0:0:0:
310,212,63211,1,0,0:0:0:0:
267,214,63315,1,2,0:0:0:0:
225,216,63420,1,0,0:0:0:0:
182,217,63524,5,2,0:0:0:0:
98,355,63734,1,0,0:0:0:0:
46,179,63943,1,8,0:0:0:0:
163,301,64152,1,0,0:0:0:0:
133,132,64361,1,2,0:0:0:0:
27,266,64570,1,0,0:0:0:0:
47,74,64778,1,8,0:0:0:0:
122,217,64987,1,0,0:0:0:0:
276,86,65196,6,0,P|334:97|382:81,1,99.0000030212403,2|0,0:0|0:0,0:0:0:0:
450,255,65614,2,0,P|392:244|344:260,1,99.0000030212403,8|0,0:0|0:0,0:0:0:0:
198,354,66032,2,0,B|207:305|207:305|203:256,1,99.0000030212403,2|0,0:0|0:0,0:0:0:0:
177,69,66450,1,8,0:0:0:0:
166,109,66554,1,0,0:0:0:0:
140,143,66658,1,2,0:0:0:0:
103,163,66763,1,0,0:0:0:0:
61,166,66868,6,0,P|71:221|58:268,1,99.0000030212403,2|0,0:0|0:0,0:0:0:0:
166,109,67285,1,8,0:0:0:0:
202,255,67494,1,0,0:0:0:0:
86,84,67703,2,0,P|151:26|244:78,1,198.000006042481,2|8,0:0|0:0,0:0:0:0:
202,255,68330,1,0,0:0:0:0:
202,255,68539,6,0,P|205:201|179:158,1,99.0000030212403,2|0,0:0|0:0,0:0:0:0:
19,226,68957,2,0,L|123:223,1,99.0000030212403,8|0,0:0|0:0,0:0:0:0:
162,76,69375,2,0,L|58:73,1,99.0000030212403,2|0,0:0|0:0,0:0:0:0:
183,162,69792,1,8,0:0:0:0:
225,160,69896,1,0,0:0:0:0:
268,158,70000,1,2,0:0:0:0:
310,156,70105,1,0,0:0:0:0:
353,154,70209,5,4,0:0:0:0:
306,308,70419,1,0,0:0:0:0:
183,162,70628,1,8,0:0:0:0:
330,231,70837,1,0,0:0:0:0:
244,87,71046,1,2,0:0:0:0:
202,246,71255,1,0,0:0:0:0:
142,65,71464,1,8,0:0:0:0:
267,169,71673,1,0,0:0:0:0:
103,263,71881,6,0,L|1:260,1,99.0000030212403,2|0,0:0|0:0,0:0:0:0:
150,136,72299,1,8,0:0:0:0:
187,293,72508,1,0,0:0:0:0:
84,183,72717,2,0,P|70:138|90:81,1,99.0000030212403,2|0,0:0|0:0,0:0:0:0:
267,169,73135,1,8,0:0:0:0:
306,184,73239,1,0,0:0:0:0:
348,189,73343,1,2,0:0:0:0:
390,183,73448,1,0,0:0:0:0:
430,168,73553,6,0,P|419:223|435:275,1,99.0000030212403,2|0,0:0|0:0,0:0:0:0:
267,169,73971,1,8,0:0:0:0:
391,60,74180,1,0,0:0:0:0:
314,235,74388,2,0,P|264:250|195:133,1,198.000006042481,2|8,0:0|0:0,0:0:0:0:
132,305,75015,1,0,0:0:0:0:
267,169,75224,6,0,P|264:120|234:81,1,99.0000030212403,2|0,0:0|0:0,0:0:0:0:
210,227,75642,2,0,P|253:248|302:242,1,99.0000030212403,8|0,0:0|0:0,0:0:0:0:
188,148,76060,2,0,P|147:175|129:220,1,99.0000030212403,2|0,0:0|0:0,0:0:0:0:
234,81,76478,1,8,0:0:0:0:
273,96,76582,1,0,0:0:0:0:
315,103,76686,1,2,0:0:0:0:
357,97,76791,1,0,0:0:0:0:
396,80,76895,5,2,0:0:0:0:
267,169,77104,1,0,0:0:0:0:
458,183,77313,1,8,0:0:0:0:
315,103,77522,1,0,0:0:0:0:
398,250,77731,1,2,0:0:0:0:
478,100,77940,1,0,0:0:0:0:
321,228,78149,1,8,0:0:0:0:
396,80,78358,1,0,0:0:0:0:
482,265,78567,6,0,B|474:314|474:314|481:362,1,99.0000030212403,2|0,0:0|0:0,0:0:0:0:
321,228,78985,2,0,B|329:179|329:179|322:131,1,99.0000030212403,8|0,0:0|0:0,0:0:0:0:
144,207,79402,2,0,L|255:201,1,99.0000030212403,2|0,0:0|0:0,0:0:0:0:
84,305,79820,1,8,0:0:0:0:
52,276,79924,1,0,0:0:0:0:
34,238,80028,1,2,0:0:0:0:
30,196,80133,1,0,0:0:0:0:
42,155,80238,6,0,P|91:149|139:109,1,99.0000030212403,2|0,0:0|0:0,0:0:0:0:
321,130,80656,2,0,P|274:115|233:67,1,99.0000030212403,8|0,0:0|0:0,0:0:0:0:
355,235,81074,2,0,P|404:202|406:61,1,198.000006042481,2|8,0:0|0:0,0:0:0:0:
495,201,81700,1,0,0:0:0:0:
321,130,81909,6,0,L|222:135,1,99.0000030212403,2|0,0:0|0:0,0:0:0:0:
153,308,82327,2,0,L|198:219,1,99.0000030212403,8|0,0:0|0:0,0:0:0:0:
82,71,82745,2,0,L|135:154,1,99.0000030212403,2|0,0:0|0:0,0:0:0:0:
231,20,83163,1,8,0:0:0:0:
398,74,83372,1,0,0:0:0:0:
398,74,83476,1,0,0:0:0:0:
398,74,83581,6,0,P|415:140|336:225,1,180,4|8,0:0|0:0,0:0:0:0:
242,93,84207,1,0,0:0:0:0:
242,93,84416,2,0,P|298:127|342:127,1,90,2|0,0:0|0:0,0:0:0:0:
498,82,84834,1,8,0:0:0:0:
355,6,85043,1,0,0:0:0:0:
443,193,85252,6,0,L|439:294,1,90,2|0,0:0|0:0,0:0:0:0:
321,129,85670,1,8,0:0:0:0:
482,115,85879,1,0,0:0:0:0:
364,214,86088,2,0,P|323:225|261:202,1,90,2|0,0:0|0:0,0:0:0:0:
163,61,86505,1,8,0:0:0:0:
329,84,86714,2,0,L|319:133,1,45
276,27,86923,6,0,P|354:10|407:85,1,180,2|8,0:0|0:0,0:0:0:0:
380,249,87550,1,0,0:0:0:0:
329,84,87759,1,2,0:0:0:0:
482,115,87968,1,0,0:0:0:0:
296,163,88177,2,0,L|206:159,1,90,8|0,0:0|0:0,0:0:0:0:
300,324,88595,5,2,0:0:0:0:
297,164,88803,1,0,0:0:0:0:
459,266,89012,1,8,0:0:0:0:
405,110,89221,1,0,0:0:0:0:
335,250,89430,1,2,0:0:0:0:
206,159,89639,1,0,0:0:0:0:
398,194,89848,1,8,0:0:0:0:
256,56,90057,1,0,0:0:0:0:
256,56,90161,1,0,0:0:0:0:
256,56,90266,6,0,P|168:51|96:129,1,180,4|8,0:0|0:0,0:0:0:0:
248,234,90893,1,0,0:0:0:0:
248,234,91102,2,0,P|214:195|205:150,1,90,2|0,0:0|0:0,0:0:0:0:
314,0,91519,1,8,0:0:0:0:
290,160,91728,1,0,0:0:0:0:
130,65,91937,6,0,B|39:70,1,90,2|0,0:0|0:0,0:0:0:0:
205,158,92355,1,8,0:0:0:0:
181,1,92564,1,0,0:0:0:0:
107,174,92773,2,0,P|124:216|167:250,1,90,2|0,0:0|0:0,0:0:0:0:
343,236,93191,1,8,0:0:0:0:
205,158,93400,2,0,L|208:100,1,45
358,122,93609,6,0,P|430:162|455:254,1,180,2|8,0:0|0:0,0:0:0:0:
322,378,94235,1,0,0:0:0:0:
343,236,94444,1,2,0:0:0:0:
472,337,94653,1,0,0:0:0:0:
282,287,94862,2,0,P|236:281|183:290,1,90,8|0,0:0|0:0,0:0:0:0:
305,156,95280,5,2,0:0:0:0:
193,286,95489,1,0,0:0:0:0:
139,107,95698,1,8,0:0:0:0:
312,80,95907,1,0,0:0:0:0:
208,200,96115,1,2,0:0:0:0:
218,36,96324,1,0,0:0:0:0:
280,225,96533,1,8,0:0:0:0:
139,107,96742,1,0,0:0:0:0:
139,107,96847,1,0,0:0:0:0:
139,107,96951,6,0,P|104:143|130:267,1,180,4|8,0:0|0:0,0:0:0:0:
282,287,97578,1,0,0:0:0:0:
282,287,97787,2,0,L|371:276,1,90,2|0,0:0|0:0,0:0:0:0:
216,215,98205,1,8,0:0:0:0:
271,371,98414,1,0,0:0:0:0:
299,178,98622,6,0,P|269:141|224:123,1,90,2|0,0:0|0:0,0:0:0:0:
282,287,99040,1,8,0:0:0:0:
378,150,99249,1,0,0:0:0:0:
249,44,99458,2,0,L|158:47,1,90,2|0,0:0|0:0,0:0:0:0:
299,178,99876,1,8,0:0:0:0:
147,264,100085,1,0,0:0:0:0:
147,264,100189,1,0,0:0:0:0:
147,264,100294,6,0,B|102:259|102:259|55:264,1,90,2|0,0:0|0:0,0:0:0:0:
221,185,100712,1,8,0:0:0:0:
186,343,100920,1,0,0:0:0:0:
126,189,101129,1,2,0:0:0:0:
284,241,101338,1,0,0:0:0:0:
159,105,101547,2,0,P|148:57|156:13,1,90,8|0,0:0|0:0,0:0:0:0:
380,146,101965,5,2,0:0:0:0:
221,185,102174,1,0,0:0:0:0:
295,14,102383,1,8,0:0:0:0:
318,189,102592,1,0,0:0:0:0:
159,105,102801,1,2,0:0:0:0:
362,64,103010,1,0,0:0:0:0:
247,258,103219,1,8,0:0:0:0:
205,30,103427,1,0,0:0:0:0:
208,17,103531,1,0,0:0:0:0:
211,4,103636,5,4,0:0:0:0:
256,192,103741,12,0,109486,0:0:0:0:
