osu file format v14

[General]
AudioFilename: audio.mp3
AudioLeadIn: 0
PreviewTime: 56735
Countdown: 0
SampleSet: Soft
StackLeniency: 0.7
Mode: 0
LetterboxInBreaks: 0
WidescreenStoryboard: 1

[Editor]
Bookmarks: 30099
DistanceSpacing: 1.2
BeatDivisor: 4
GridSize: 4
TimelineZoom: 1

[Metadata]
Title:Novy God (feat. gr. Chernilnoye Nebo)
TitleUnicode:Новый Год (feat гр."Чернильное небо")
Artist:StekloVata
ArtistUnicode:СтеклоVата
Creator:A r M i N
Version:Bakari's Hard
Source:
Tags:A_r_M_i_N Armin russian ruskiy Christmas рождество rojdestvo -Bakari- Shmiklak Стекловата noviy novii novi TheMefisto Chernil'noe Chernil'noye
BeatmapID:1163458
BeatmapSetID:549421

[Difficulty]
HPDrainRate:5
CircleSize:4
OverallDifficulty:6
ApproachRate:7
SliderMultiplier:1.5
SliderTickRate:2

[Events]
//Background and Video events
0,0,"new_year_gifts_christmas_tree_red_candles_cones_balls-wallpaper-1920x1080.jpg",0,0
//Break Periods
//Storyboard Layer 0 (Background)
//Storyboard Layer 1 (Fail)
//Storyboard Layer 2 (Pass)
//Storyboard Layer 3 (Foreground)
//Storyboard Sound Samples

[TimingPoints]
1687,417.827298050139,4,2,0,40,1,0
56840,-90.9090909090909,4,2,0,55,0,1
70106,-90.9090909090909,4,2,0,55,0,0
70210,-90.9090909090909,4,2,0,55,0,1
83581,-100,4,2,0,40,0,0
106979,-100,4,2,0,35,0,0
107815,-100,4,2,0,25,0,0
108650,-100,4,2,0,15,0,0
109486,-100,4,2,0,5,0,0

[Colours]
Combo1 : 111,166,137
Combo2 : 188,150,150
Combo3 : 157,141,214
Combo4 : 111,81,94

[HitObjects]
128,268,1895,5,0,0:0:0:0:
200,212,2104,2,0,P|236:208|288:216,1,75,2|0,0:0|0:0,0:0:0:0:
384,132,2522,2,0,P|369:165|336:206,1,75,2|0,0:0|0:0,0:0:0:0:
360,328,2940,2,0,P|338:298|319:249,1,75,2|0,0:0|0:0,0:0:0:0:
298,118,3358,5,4,0:0:0:0:
152,228,3776,2,0,L|60:216,1,75,8|0,0:0|0:0,0:0:0:0:
20,152,4193,1,2,0:0:0:0:
28,332,4611,2,0,L|112:324,1,75,8|0,0:0|0:0,0:0:0:0:
176,272,5029,5,2,0:0:0:0:
252,320,5238,1,0,0:0:0:0:
332,360,5447,2,0,L|424:352,1,75,8|0,0:0|0:0,0:0:0:0:
492,320,5865,2,0,P|468:284|464:168,1,150,2|8,0:0|0:0,0:0:0:0:
492,96,6492,1,0,0:0:0:0:
379,46,6700,6,0,L|208:32,1,150,2|8,0:0|0:0,0:0:0:0:
168,100,7327,1,0,0:0:0:0:
236,160,7536,2,0,P|268:144|304:104,1,75,2|0,0:0|0:0,0:0:0:0:
168,100,7954,2,0,P|136:116|100:156,1,75,8|0,0:0|0:0,0:0:0:0:
91,314,8372,5,2,0:0:0:0:
40,232,8581,1,0,0:0:0:0:
129,231,8790,1,8,0:0:0:0:
184,300,8998,1,0,0:0:0:0:
281,302,9207,2,0,P|305:310|365:314,1,75,2|0,0:0|0:0,0:0:0:0:
336,191,9625,2,0,P|312:183|252:179,1,75,8|0,0:0|0:0,0:0:0:0:
201,65,10043,6,0,P|244:40|364:28,1,150,2|8,0:0|0:0,0:0:0:0:
408,88,10670,1,0,0:0:0:0:
352,156,10879,2,0,P|320:144|280:112,1,75,2|0,0:0|0:0,0:0:0:0:
408,88,11297,2,0,P|440:100|480:132,1,75,8|0,0:0|0:0,0:0:0:0:
504,248,11714,5,2,0:0:0:0:
504,248,11923,1,0,0:0:0:0:
416,272,12132,2,0,P|376:276|324:272,1,75,8|0,0:0|0:0,0:0:0:0:
268,220,12550,2,0,P|252:180|244:128,1,75,2|0,0:0|0:0,0:0:0:0:
253,300,12968,2,0,P|260:324|264:384,1,75,8|0,0:0|0:0,0:0:0:0:
165,257,13386,6,0,L|8:248,1,150,2|8,0:0|0:0,0:0:0:0:
44,164,14012,1,0,0:0:0:0:
44,164,14221,2,0,P|88:160|128:172,1,75,2|0,0:0|0:0,0:0:0:0:
242,127,14639,2,0,P|247:101|247:41,1,75,8|0,0:0|0:0,0:0:0:0:
152,96,15057,5,2,0:0:0:0:
152,96,15266,1,0,0:0:0:0:
199,215,15475,1,8,0:0:0:0:
120,172,15684,1,0,0:0:0:0:
52,228,15893,2,0,P|44:272|44:316,1,75,2|0,0:0|0:0,0:0:0:0:
138,363,16310,2,0,P|146:319|146:275,1,75,8|0,0:0|0:0,0:0:0:0:
272,226,16728,6,0,P|312:248|440:256,1,150,4|8,0:0|0:0,0:0:0:0:
468,188,17355,1,0,0:0:0:0:
436,104,17564,2,0,P|432:64|436:16,1,75,2|0,0:0|0:0,0:0:0:0:
356,113,17982,2,0,P|366:156|370:196,1,75,8|0,0:0|0:0,0:0:0:0:
283,60,18400,5,2,0:0:0:0:
200,100,18609,1,0,0:0:0:0:
112,88,18817,2,0,P|100:76|64:24,1,75,8|0,0:0|0:0,0:0:0:0:
4,137,19235,2,0,P|24:116|48:72,1,75,2|0,0:0|0:0,0:0:0:0:
104,203,19653,2,0,P|72:168|48:128,1,75,8|0,0:0|0:0,0:0:0:0:
21,232,20071,6,0,P|33:278|32:384,1,150,2|8,0:0|0:0,0:0:0:0:
116,344,20698,1,0,0:0:0:0:
192,296,20907,2,0,P|184:264|176:204,1,75,2|0,0:0|0:0,0:0:0:0:
284,310,21324,2,0,P|279:356|267:392,1,75,8|0,0:0|0:0,0:0:0:0:
262,232,21742,5,2,0:0:0:0:
348,260,21951,1,0,0:0:0:0:
436,288,22160,2,0,L|440:364,2,75,8|0|2,0:0|0:0|0:0,0:0:0:0:
411,197,22787,1,0,0:0:0:0:
360,124,22996,2,0,L|357:43,1,75,8|0,0:0|0:0,0:0:0:0:
440,90,23414,5,2,0:0:0:0:
202,245,23831,2,0,P|184:225|160:169,1,75,2|0,0:0|0:0,0:0:0:0:
204,104,24249,1,0,0:0:0:0:
271,169,24458,2,0,L|362:159,1,75,2|0,0:0|0:0,0:0:0:0:
129,326,25085,6,0,L|216:317,2,75,2|0|0,0:0|0:0|0:0,0:0:0:0:
48,292,25712,2,0,P|48:324|36:368,2,75,2|0|0,0:0|0:0|0:0,0:0:0:0:
125,232,26338,2,0,P|104:204|88:160,1,75,2|0,0:0|0:0,0:0:0:0:
220,214,26756,6,0,P|206:261|246:361,1,150,2|8,0:0|0:0,0:0:0:0:
328,368,27383,1,0,0:0:0:0:
400,312,27592,2,0,P|432:304|484:304,1,75,2|0,0:0|0:0,0:0:0:0:
399,224,28010,2,0,P|372:220|328:196,1,75,8|0,0:0|0:0,0:0:0:0:
408,117,28427,6,0,P|470:146|500:240,1,150,2|8,0:0|0:0,0:0:0:0:
473,302,29054,1,0,0:0:0:0:
360,284,29263,2,0,L|272:272,1,75,2|0,0:0|0:0,0:0:0:0:
184,368,29681,2,0,L|268:360,1,75,8|0,0:0|0:0,0:0:0:0:
100,263,30099,5,4,0:0:0:0:
100,263,30517,1,8,0:0:0:0:
88,176,30725,1,0,0:0:0:0:
80,88,30934,2,0,P|116:64|236:64,1,150,2|8,0:0|0:0,0:0:0:0:
260,136,31561,1,0,0:0:0:0:
353,56,31770,6,0,L|515:65,1,150,2|8,0:0|0:0,0:0:0:0:
372,188,32606,2,0,L|460:180,2,75,2|0|8,0:0|0:0|0:0,0:0:0:0:
312,256,33232,2,0,L|260:248,1,37.5
236,268,33441,6,0,P|216:300|208:356,1,75,2|0,0:0|0:0,0:0:0:0:
129,230,33859,1,8,0:0:0:0:
136,140,34068,1,0,0:0:0:0:
120,52,34277,2,0,P|164:32|265:81,1,150,2|8,0:0|0:0,0:0:0:0:
296,144,34904,1,0,0:0:0:0:
198,197,35113,6,0,P|186:161|182:121,2,75,2|0|8,0:0|0:0|0:0,0:0:0:0:
292,252,35739,1,0,0:0:0:0:
192,320,35948,2,0,L|100:312,2,75,2|0|8,0:0|0:0|0:0,0:0:0:0:
264,376,36575,1,0,0:0:0:0:
378,343,36784,6,0,P|410:303|514:287,1,150,2|8,0:0|0:0,0:0:0:0:
509,288,37620,1,2,0:0:0:0:
488,200,37829,1,0,0:0:0:0:
400,188,38037,2,0,P|376:164|352:116,1,75,8|0,0:0|0:0,0:0:0:0:
343,252,38455,6,0,P|338:275|306:335,1,75,2|0,0:0|0:0,0:0:0:0:
183,345,38873,1,8,0:0:0:0:
124,276,39082,1,0,0:0:0:0:
156,192,39291,2,0,P|176:148|184:32,1,150,2|8,0:0|0:0,0:0:0:0:
104,12,39918,2,0,P|88:8|52:8,1,37.5
36,40,40127,6,0,P|24:64|12:124,1,75,2|0,0:0|0:0,0:0:0:0:
60,232,40544,1,8,0:0:0:0:
52,320,40753,1,0,0:0:0:0:
164,268,40962,2,0,P|184:304|196:356,1,75
192,193,41380,1,8,0:0:0:0:
276,228,41589,1,0,0:0:0:0:
364,212,41798,5,2,0:0:0:0:
268,364,42216,1,8,0:0:0:0:
192,193,42634,1,2,0:0:0:0:
116,236,42842,1,8,0:0:0:0:
160,312,43051,1,8,0:0:0:0:
240,272,43260,1,8,0:0:0:0:
280,147,43469,6,0,P|261:95|197:27,1,150,4|8,0:0|0:0,0:0:0:0:
108,24,44096,1,0,0:0:0:0:
140,108,44305,2,0,L|128:284,1,150,2|8,0:0|0:0,0:0:0:0:
76,332,44932,1,0,0:0:0:0:
184,376,45141,6,0,P|224:368|264:352,1,75,2|0,0:0|0:0,0:0:0:0:
328,300,45558,2,0,P|296:284|264:252,1,75,8|0,0:0|0:0,0:0:0:0:
244,168,45976,1,2,0:0:0:0:
276,84,46185,1,0,0:0:0:0:
152,148,46394,2,0,L|48:140,1,75,8|0,0:0|0:0,0:0:0:0:
191,222,46812,6,0,P|200:272|196:320,1,75,2|0,0:0|0:0,0:0:0:0:
144,368,47230,1,8,0:0:0:0:
76,308,47439,1,0,0:0:0:0:
72,217,47648,2,0,P|76:169|76:117,1,75,2|0,0:0|0:0,0:0:0:0:
212,222,48065,2,0,P|203:260|199:304,1,75,8|0,0:0|0:0,0:0:0:0:
259,148,48483,5,2,0:0:0:0:
328,209,48692,1,0,0:0:0:0:
416,208,48901,1,8,0:0:0:0:
232,60,49319,2,0,P|200:68|140:68,1,75,2|0,0:0|0:0,0:0:0:0:
100,164,49737,2,0,P|144:176|184:196,1,75,8|0,0:0|0:0,0:0:0:0:
167,304,50154,6,0,P|124:324|16:312,1,150,2|8,0:0|0:0,0:0:0:0:
0,228,50781,1,0,0:0:0:0:
88,244,50990,1,2,0:0:0:0:
204,104,51408,1,8,0:0:0:0:
256,176,51617,1,0,0:0:0:0:
168,180,51826,5,2,0:0:0:0:
260,24,52244,2,0,P|288:56|300:104,1,75,8|0,0:0|0:0,0:0:0:0:
376,128,52661,2,0,P|408:100|516:84,1,150,2|8,0:0|0:0,0:0:0:0:
311,180,53497,2,0,L|373:32,1,150,2|8,0:0|0:0,0:0:0:0:
280,56,54124,1,0,0:0:0:0:
331,170,54333,2,0,L|398:21,1,150,2|8,0:0|0:0,0:0:0:0:
280,56,54959,1,0,0:0:0:0:
331,170,55168,6,0,L|415:162,1,75,2|0,0:0|0:0,0:0:0:0:
488,204,55586,1,8,0:0:0:0:
464,292,55795,1,0,0:0:0:0:
376,296,56004,1,2,0:0:0:0:
244,176,56422,1,8,0:0:0:0:
16,304,56840,6,0,P|32:336|72:372,1,82.5000025177003,4|0,0:0|0:0,0:0:0:0:
108,276,57258,2,0,P|92:244|52:208,1,82.5000025177003,8|0,0:0|0:0,0:0:0:0:
160,193,57675,2,0,P|179:229|209:257,1,82.5000025177003,2|0,0:0|0:0,0:0:0:0:
252,165,58093,2,0,P|232:128|202:100,1,82.5000025177003,8|0,0:0|0:0,0:0:0:0:
350,196,58511,6,0,P|384:180|452:56,1,165.000005035401,2|8,0:0|0:0,0:0:0:0:
372,12,59138,1,0,0:0:0:0:
280,52,59347,2,0,P|276:80|284:140,2,82.5000025177003,2|0|8,0:0|0:0|0:0,0:0:0:0:
192,8,59973,2,0,P|164:16|132:20,1,41.2500012588501
104,12,60182,6,0,P|60:40|20:156,1,165.000005035401,2|8,0:0|0:0,0:0:0:0:
100,196,60809,1,0,0:0:0:0:
28,264,61018,2,0,L|8:364,1,82.5000025177003,2|0,0:0|0:0,0:0:0:0:
108,368,61436,2,0,L|123:286,1,82.5000025177003,8|0,0:0|0:0,0:0:0:0:
188,167,61854,6,0,P|221:205|245:345,1,165.000005035401,2|8,0:0|0:0,0:0:0:0:
344,284,62480,1,0,0:0:0:0:
424,340,62689,2,0,P|456:256|516:208,1,165.000005035401,2|8,0:0|0:0,0:0:0:0:
452,132,63316,1,0,0:0:0:0:
500,44,63525,6,0,L|404:32,1,82.5000025177003,2|0,0:0|0:0,0:0:0:0:
352,108,63943,2,0,L|254:98,1,82.5000025177003,8|0,0:0|0:0,0:0:0:0:
232,192,64361,2,0,L|136:180,1,82.5000025177003,2|0,0:0|0:0,0:0:0:0:
84,252,64778,2,0,L|-14:242,1,82.5000025177003,8|0,0:0|0:0,0:0:0:0:
88,354,65196,6,0,P|132:340|268:352,1,165.000005035401,2|8,0:0|0:0,0:0:0:0:
344,380,65823,1,0,0:0:0:0:
320,284,66032,2,0,P|324:240|340:188,1,82.5000025177003,2|0,0:0|0:0,0:0:0:0:
412,140,66450,2,0,L|472:136,2,41.2500012588501,8|0|0,0:0|0:0|0:0,0:0:0:0:
372,108,66763,1,0,0:0:0:0:
332,80,66868,6,0,L|224:88,2,82.5000025177003,2|0|8,0:0|0:0|0:0,0:0:0:0:
408,16,67494,1,0,0:0:0:0:
500,120,67703,2,0,P|492:160|496:216,1,82.5000025177003,2|0,0:0|0:0,0:0:0:0:
401,302,68121,2,0,P|377:250|353:218,1,82.5000025177003,8|0,0:0|0:0,0:0:0:0:
220,197,68539,6,0,P|192:252|176:360,1,165.000005035401,2|8,0:0|0:0,0:0:0:0:
256,292,69166,1,0,0:0:0:0:
110,251,69375,2,0,P|100:218|96:166,1,82.5000025177003,2|0,0:0|0:0,0:0:0:0:
154,49,69792,2,0,P|164:82|168:134,1,82.5000025177003,8|0,0:0|0:0,0:0:0:0:
48,80,70210,6,0,B|68:48|68:48|68:4,1,82.5000025177003,4|0,0:0|0:0,0:0:0:0:
28,156,70628,2,0,B|28:112|28:112|48:80,1,82.5000025177003,8|0,0:0|0:0,0:0:0:0:
48,232,71046,2,0,B|28:200|28:200|28:156,1,82.5000025177003,2|0,0:0|0:0,0:0:0:0:
68,308,71464,2,0,B|68:264|68:264|48:232,1,82.5000025177003,8|0,0:0|0:0,0:0:0:0:
144,88,71881,6,0,P|112:120|152:228,1,165.000005035401,2|8,0:0|0:0,0:0:0:0:
240,208,72508,1,0,0:0:0:0:
328,256,72717,2,0,P|332:288|328:344,1,82.5000025177003,2|0,0:0|0:0,0:0:0:0:
404,214,73135,2,0,P|426:198|478:182,1,82.5000025177003,8|0,0:0|0:0,0:0:0:0:
327,173,73553,6,0,P|300:140|304:12,1,165.000005035401,2|8,0:0|0:0,0:0:0:0:
376,88,74180,1,0,0:0:0:0:
256,152,74388,2,0,P|240:188|228:248,1,82.5000025177003,2|0,0:0|0:0,0:0:0:0:
309,319,74806,2,0,P|325:283|337:223,1,82.5000025177003,8|0,0:0|0:0,0:0:0:0:
208,332,75224,5,2,0:0:0:0:
208,332,75433,1,0,0:0:0:0:
132,268,75642,2,0,P|116:304|112:364,1,82.5000025177003,8|0,0:0|0:0,0:0:0:0:
89,191,76060,2,0,P|60:168|12:148,1,82.5000025177003,2|0,0:0|0:0,0:0:0:0:
181,186,76478,2,0,P|210:154|230:98,1,82.5000025177003,8|0,0:0|0:0,0:0:0:0:
306,279,76895,6,0,P|274:284|210:268,1,82.5000025177003,2|0,0:0|0:0,0:0:0:0:
276,188,77313,2,0,P|308:183|372:199,1,82.5000025177003,8|0,0:0|0:0,0:0:0:0:
386,282,77731,2,0,P|354:287|290:271,1,82.5000025177003,2|0,0:0|0:0,0:0:0:0:
356,191,78149,2,0,P|388:186|452:202,1,82.5000025177003,8|0,0:0|0:0,0:0:0:0:
464,364,78567,6,0,L|280:352,1,165.000005035401,2|8,0:0|0:0,0:0:0:0:
236,280,79193,1,0,0:0:0:0:
140,300,79402,2,0,P|120:332|104:376,1,82.5000025177003,2|0,0:0|0:0,0:0:0:0:
62,244,79820,2,0,L|14:237,2,41.2500012588501,8|0|0,0:0|0:0|0:0,0:0:0:0:
102,212,80134,1,0,0:0:0:0:
142,180,80238,6,0,L|229:192,1,82.5000025177003,2|0,0:0|0:0,0:0:0:0:
300,128,80656,1,8,0:0:0:0:
324,224,80865,1,0,0:0:0:0:
352,320,81074,2,0,P|392:328|456:320,1,82.5000025177003,2|0,0:0|0:0,0:0:0:0:
492,244,81492,2,0,P|452:236|388:244,1,82.5000025177003,8|0,0:0|0:0,0:0:0:0:
348,160,81909,6,0,P|360:104|416:12,1,165.000005035401,2|8,0:0|0:0,0:0:0:0:
440,108,82536,1,0,0:0:0:0:
294,49,82745,2,0,P|265:54|201:54,1,82.5000025177003,2|0,0:0|0:0,0:0:0:0:
144,148,83163,2,0,P|188:156|232:176,1,82.5000025177003,8|0,0:0|0:0,0:0:0:0:
70,237,83581,6,0,L|54:69,1,150,4|8,0:0|0:0,0:0:0:0:
116,20,84207,1,0,0:0:0:0:
176,88,84416,2,0,P|220:72|252:40,1,75,2|0,0:0|0:0,0:0:0:0:
349,151,84834,2,0,P|315:135|271:126,1,75,8|0,0:0|0:0,0:0:0:0:
211,246,85252,6,0,P|251:262|363:214,1,150,2|8,0:0|0:0,0:0:0:0:
428,272,85879,1,0,0:0:0:0:
460,356,86088,1,2,0:0:0:0:
492,212,86297,1,0,0:0:0:0:
436,140,86505,1,8,0:0:0:0:
388,64,86714,2,0,P|384:40|384:16,1,37.5
340,8,86923,6,0,P|312:20|264:72,1,75,2|0,0:0|0:0,0:0:0:0:
280,140,87341,1,8,0:0:0:0:
212,200,87550,1,0,0:0:0:0:
124,176,87759,1,2,0:0:0:0:
96,292,87968,1,0,0:0:0:0:
96,292,88177,2,0,P|132:316|164:360,1,75,8|0,0:0|0:0,0:0:0:0:
237,345,88595,6,0,P|284:328|336:328,1,75,2|0,0:0|0:0,0:0:0:0:
420,360,89012,1,8,0:0:0:0:
392,276,89221,1,0,0:0:0:0:
496,224,89430,1,2,0:0:0:0:
508,136,89639,1,0,0:0:0:0:
380,68,89848,1,8,0:0:0:0:
388,156,90057,2,0,P|384:176|372:208,1,37.5
340,216,90266,6,0,P|308:208|192:244,1,150,4|8,0:0|0:0,0:0:0:0:
168,324,90893,1,0,0:0:0:0:
104,260,91102,2,0,P|80:244|24:232,1,75,2|0,0:0|0:0,0:0:0:0:
128,162,91519,2,0,P|152:156|208:128,1,75,8|0,0:0|0:0,0:0:0:0:
149,36,91937,6,0,L|-17:18,1,150,2|8,0:0|0:0,0:0:0:0:
20,108,92564,2,0,P|18:146|0:200,2,75,0|2|0,0:0|0:0|0:0,0:0:0:0:
140,156,93191,2,0,P|168:148|224:144,1,75,8|0,0:0|0:0,0:0:0:0:
177,283,93609,6,0,L|9:259,1,150,2|8,0:0|0:0,0:0:0:0:
106,348,94235,2,0,L|32:352,2,75,0|2|0,0:0|0:0|0:0,0:0:0:0:
121,199,94862,2,0,L|206:192,1,75,8|0,0:0|0:0,0:0:0:0:
258,57,95280,6,0,L|109:35,1,150,2|8,0:0|0:0,0:0:0:0:
28,72,95907,1,0,0:0:0:0:
76,148,96115,2,0,P|108:140|156:116,2,75,2|0|8,0:0|0:0|0:0,0:0:0:0:
12,212,96742,2,0,P|28:224|52:252,1,37.5
64,276,96951,6,0,P|68:312|68:368,1,75,4|0,0:0|0:0,0:0:0:0:
158,255,97369,2,0,P|168:224|192:176,1,75,8|0,0:0|0:0,0:0:0:0:
264,140,97787,1,2,0:0:0:0:
188,92,97996,1,0,0:0:0:0:
152,8,98205,1,8,0:0:0:0:
14,177,98622,6,0,P|50:193|166:157,1,150,2|8,0:0|0:0,0:0:0:0:
196,248,99249,1,0,0:0:0:0:
284,256,99458,2,0,P|280:296|288:340,2,75,2|0|8,0:0|0:0|0:0,0:0:0:0:
340,184,100085,2,0,L|332:128,1,37.5
328,104,100294,6,0,P|352:56|444:28,1,150,2|8,0:0|0:0,0:0:0:0:
512,84,100920,1,0,0:0:0:0:
431,191,101129,2,0,L|416:105,1,75,2|0,0:0|0:0,0:0:0:0:
512,172,101547,2,0,L|500:256,1,75,8|0,0:0|0:0,0:0:0:0:
367,272,101965,6,0,P|345:246|333:194,1,75,2|0,0:0|0:0,0:0:0:0:
328,116,102383,1,8,0:0:0:0:
244,152,102592,1,0,0:0:0:0:
156,140,102801,1,2,0:0:0:0:
56,51,103010,1,0,0:0:0:0:
68,140,103219,1,8,0:0:0:0:
84,228,103427,1,0,0:0:0:0:
256,192,103636,12,0,109486,0:0:0:0:
