osu file format v14

[General]
AudioFilename: audio.mp3
AudioLeadIn: 0
PreviewTime: 1633
Countdown: 0
SampleSet: Soft
StackLeniency: 0.7
Mode: 0
LetterboxInBreaks: 0
WidescreenStoryboard: 0

[Editor]
DistanceSpacing: 0.9
BeatDivisor: 4
GridSize: 16
TimelineZoom: 1

[Metadata]
Title:We are Number One
TitleUnicode:We are Number One
Artist:Stefan Karl Stefansson & Mani Svavarsson
ArtistUnicode:Stefán Karl Stefánsson & Máni Svavarsson
Creator:A r M i N
Version:Waji's Normal
Source:LazyTown
Tags:armin A_r_M_i_N cut version kids television show Lazy Town 1 Akitoshi Corinn deRandom Otaku Ren ByBy13 wajinshu shmiklak
BeatmapID:1165566
BeatmapSetID:539241

[Difficulty]
HPDrainRate:2.5
CircleSize:3.6
OverallDifficulty:3
ApproachRate:4.5
SliderMultiplier:1.1
SliderTickRate:1

[Events]
//Background and Video events
0,0,"number 1.jpg",0,0
//Break Periods
//Storyboard Layer 0 (Background)
//Storyboard Layer 1 (Fail)
//Storyboard Layer 2 (Pass)
//Storyboard Layer 3 (Foreground)
//Storyboard Sound Samples

[TimingPoints]
245,370.37037037037,4,2,3,50,1,0
2096,-100,4,2,1,50,0,0
2467,-100,4,2,3,50,0,0
3207,-100,4,2,1,50,0,0
8763,-100,4,2,5,50,0,0
9133,-100,4,2,1,50,0,0
15059,-100,4,2,2,40,0,0
15152,-100,4,2,1,50,0,0
20244,-100,4,2,5,50,0,0
20522,-100,4,2,1,50,0,0
20615,-100,4,2,5,50,0,0
20985,-100,4,2,1,50,0,0
26170,-100,4,2,5,50,0,0
26911,-100,4,2,1,50,0,1
32096,-100,4,2,5,50,0,0
32837,-100,4,2,1,50,0,1
40244,-100,4,2,1,50,0,0

[Colours]
Combo1 : 128,0,128
Combo2 : 128,0,0
Combo3 : 0,0,187
Combo4 : 255,0,255

[HitObjects]
82,41,1726,6,0,L|216:35,1,110,8|4,0:3|0:0,0:0:0:0:
277,85,2467,2,0,L|411:79,1,110,10|12,0:3|0:0,0:0:0:0:
459,147,3207,6,0,P|406:155|364:195,1,110,4|8,1:2|0:0,0:0:0:0:
360,291,3948,2,0,P|320:287|293:288,1,55,0|2,1:0|0:0,0:0:0:0:
259,305,4319,2,0,P|219:309|192:308,1,55,8|2,0:0|0:0,0:0:0:0:
172,270,4689,2,0,B|153:224|153:224|152:140,1,110,0|8,1:0|0:0,0:0:0:0:
210,83,5430,2,0,P|194:57|185:33,2,55
258,92,5985,1,0,0:0:0:0:
306,102,6170,6,0,L|300:213,1,110,0|8,1:0|0:0,0:0:0:0:
403,202,6911,2,0,L|404:92,1,110,0|8,1:0|0:0,0:0:0:0:
348,9,7652,2,0,P|303:4|282:4,1,55,0|2,1:0|0:0,0:0:0:0:
261,41,8022,2,0,P|216:46|195:46,1,55,8|2,0:0|0:0,0:0:0:0:
157,38,8393,1,0,1:0:0:0:
119,110,8763,1,12,0:0:0:0:
132,207,9133,6,0,B|180:204|180:204|247:225,1,110,4|8,1:2|0:0,0:0:0:0:
325,271,9874,2,0,P|366:286|390:293,2,55,0|2|8,1:0|0:0|0:0,0:0:0:0:
332,221,10430,1,2,0:0:0:0:
332,221,10615,2,0,P|343:168|342:102,1,110,0|8,1:0|0:0,0:0:0:0:
263,53,11356,2,0,P|225:66|202:72,1,55
163,84,11726,2,0,P|136:91|110:100,1,55
114,152,12096,6,0,B|125:208|125:208|117:282,1,110,0|8,1:0|0:0,0:0:0:0:
218,260,12837,2,0,B|212:207|212:207|223:151,1,110,0|8,1:0|0:0,0:0:0:0:
303,93,13578,5,0,0:0:0:0:
394,129,13948,1,0,0:0:0:0:
473,70,14319,2,0,P|491:111|478:181,1,110
399,229,15059,6,0,P|345:224|289:199,1,110,0|8,1:0|0:0,0:0:0:0:
249,113,15800,2,0,P|216:65|168:37,1,110,0|8,1:0|0:0,0:0:0:0:
119,122,16541,2,0,P|126:185|127:240,1,110,0|8,1:0|0:0,0:0:0:0:
220,264,17282,2,0,P|221:209|222:186,1,55,0|8,1:0|0:0,0:0:0:0:
247,167,17652,2,0,P|248:112|249:89,1,55,0|8,1:0|0:0,0:0:0:0:
265,65,18022,6,0,P|337:64|384:62,2,110,0|8|0,1:0|0:0|1:0,0:0:0:0:
166,50,19133,1,8,0:0:0:0:
128,141,19504,2,0,P|119:181|118:206,1,55,0|2,1:0|0:0,0:0:0:0:
146,235,19874,2,0,P|155:275|156:300,1,55,8|2,0:0|0:0,0:0:0:0:
136,334,20244,1,0,3:0:0:0:
36,335,20615,1,12,0:0:0:0:
7,240,20985,6,0,B|12:198|12:198|7:114,1,110,4|8,1:2|0:0,0:0:0:0:
95,83,21726,2,0,P|139:91|206:80,1,110,0|8,1:0|0:0,0:0:0:0:
283,23,22467,2,0,P|300:72|291:130,2,110,0|8|0,1:0|0:0|1:0,0:0:0:0:
202,81,23578,1,8,0:0:0:0:
221,177,23948,6,0,P|266:206|325:208,1,110,0|8,1:0|0:0,0:0:0:0:
392,140,24689,2,0,P|446:142|492:171,1,110,0|8,1:0|0:0,0:0:0:0:
416,236,25430,2,0,P|422:261|430:312,1,55,0|2,1:0|0:0,0:0:0:0:
425,339,25800,2,0,P|390:336|360:340,1,55,8|2,0:0|0:0,0:0:0:0:
323,353,26170,1,0,3:0:0:0:
231,315,26541,1,12,3:2:0:0:
146,263,26911,6,0,P|102:257|25:264,1,110,4|8,1:2|0:0,0:0:0:0:
64,166,27652,2,0,P|108:172|185:165,1,110,0|8,1:0|0:0,0:0:0:0:
261,122,28393,2,0,L|255:-2,2,110,0|8|0,1:0|0:0|1:0,0:0:0:0:
301,212,29504,1,8,0:0:0:0:
385,263,29874,6,0,P|398:202|380:155,1,110,0|8,1:0|0:0,0:0:0:0:
301,212,30615,2,0,P|284:263|298:316,1,110,4|8,1:0|0:0,0:0:0:0:
384,366,31356,2,0,L|499:365,2,110,0|8|0,1:0|0:0|3:0,0:0:0:0:
298,316,32467,1,12,3:2:0:0:
226,247,32837,6,0,B|205:202|205:202|204:120,1,110,4|8,1:2|0:0,0:0:0:0:
227,45,33578,2,0,L|289:38,2,55,0|2|8,1:0|0:0|0:0,0:0:0:0:
178,56,34133,1,2,0:0:0:0:
178,56,34319,2,0,B|141:68|141:68|45:53,1,110,0|8,1:0|0:0,0:0:0:0:
42,151,35059,2,0,P|78:146|119:145,1,55,0|8,1:0|0:0,0:0:0:0:
141,166,35430,2,0,P|177:164|218:168,1,55,0|8,1:0|0:0,0:0:0:0:
232,199,35800,6,0,P|212:252|177:302,2,110,0|8|0,1:0|0:0|1:0,0:0:0:0:
258,104,36911,1,8,0:0:0:0:
345,56,37282,2,0,L|468:47,2,110,0|8|0,1:0|0:0|1:0,0:0:0:0:
200,191,38763,2,0,L|77:182,2,110,0|8|0,1:0|0:0|1:0,0:0:0:0:
384,262,40244,6,0,L|392:331,2,55,0|0|0,1:0|0:0|0:0,0:0:0:0:
397,214,40800,2,0,L|390:141,1,55,0|0,0:0|0:0,0:0:0:0:
379,60,41356,1,4,0:0:0:0:
285,92,41726,1,4,1:0:0:0:
