osu file format v14

[General]
AudioFilename: audio.mp3
AudioLeadIn: 0
PreviewTime: 93315
Countdown: 0
SampleSet: Soft
StackLeniency: 0.7
Mode: 0
LetterboxInBreaks: 0
WidescreenStoryboard: 0

[Editor]
Bookmarks: 80537,89797
DistanceSpacing: 1.3
BeatDivisor: 4
GridSize: 16
TimelineZoom: 1.8

[Metadata]
Title:We are Number One
TitleUnicode:We are Number One
Artist:Stefan Karl Stefansson & Mani Svavarsson
ArtistUnicode:Stefán Karl Stefánsson & Máni Svavarsson
Creator:- G I D Z -
Version:Normal
Source:LazyTown
Tags:meme original television kids show gidz
BeatmapID:1132689
BeatmapSetID:534404

[Difficulty]
HPDrainRate:4
CircleSize:3.4
OverallDifficulty:4
ApproachRate:5
SliderMultiplier:0.8
SliderTickRate:1

[Events]
//Background and Video events
0,0,"BG we'r nmbir won.png",0,0
Video,0,"LazyTown We are Number One Music Video.avi"
//Break Periods
2,45922,47736
2,68515,70328
2,99626,104032
2,111108,113291
//Storyboard Layer 0 (Background)
//Storyboard Layer 1 (Fail)
//Storyboard Layer 2 (Pass)
//Storyboard Layer 3 (Foreground)
//Storyboard Sound Samples

[TimingPoints]
32760,370.37037037037,4,2,1,70,1,0
34241,-100,4,2,1,80,0,1
39797,-100,4,2,1,80,0,0
40167,-100,4,2,1,80,0,1
45908,-100,4,2,1,80,0,0
63871,-100,4,2,1,60,0,0
71648,-100,4,2,1,70,0,1
77204,-100,4,2,1,70,0,0
78685,-100,4,2,1,70,0,1
84611,-100,4,2,1,70,0,0
139426,-100,4,2,1,70,0,1
164611,-100,4,2,1,70,0,0

[Colours]
Combo1 : 0,255,0
Combo2 : 255,0,0
Combo3 : 255,255,0
Combo4 : 255,128,0

[HitObjects]
105,91,33871,5,8,0:0:0:0:
105,91,34241,6,0,P|124:126|133:187,1,80,4|8,0:0|0:0,0:0:0:0:
123,216,34797,1,0,0:0:0:0:
123,216,34982,2,0,P|161:237|211:244,1,80,0|8,0:0|0:0,0:0:0:0:
296,223,35722,6,0,P|303:265|299:301,2,80,0|8|0,0:0|0:0|0:0,0:0:0:0:
271,176,36648,2,0,P|262:154|258:126,1,40,0|8,0:0|0:0,0:0:0:0:
263,86,37019,1,0,0:0:0:0:
307,59,37204,6,0,L|402:47,1,80,0|8,0:0|0:0,0:0:0:0:
464,117,37945,2,0,L|476:212,1,80,0|8,0:0|0:0,0:0:0:0:
434,292,38685,2,0,P|394:289|351:303,1,80,0|8,0:0|0:0,0:0:0:0:
318,336,39241,1,0,0:0:0:0:
318,336,39426,2,0,P|279:317|247:278,1,80,0|12,0:0|0:0,0:0:0:0:
259,186,40167,6,0,P|218:193|180:221,1,80,4|8,0:0|0:0,0:0:0:0:
150,250,40722,1,0,0:0:0:0:
150,250,40907,2,0,P|109:234|71:200,1,80,0|8,0:0|0:0,0:0:0:0:
51,113,41648,6,0,B|44:63|44:63|52:33,2,80,0|8|0,0:0|0:0|0:0,0:0:0:0:
102,106,42574,2,0,P|129:100|159:96,1,40,0|8,0:0|0:0,0:0:0:0:
193,103,42945,1,0,0:0:0:0:
241,121,43130,6,0,P|281:116|330:94,1,80,0|8,0:0|0:0,0:0:0:0:
369,191,43871,2,0,P|331:205|292:210,1,80,0|8,0:0|0:0,0:0:0:0:
294,313,44611,2,0,P|333:307|371:293,1,80,0|8,0:0|0:0,0:0:0:0:
418,271,45167,1,0,0:0:0:0:
418,271,45352,1,0,0:0:0:0:
388,370,45722,1,8,0:0:0:0:
154,58,49056,6,0,P|139:97|137:143,1,80,0|8,0:0|0:0,0:0:0:0:
157,181,49611,1,0,0:0:0:0:
191,219,49797,2,0,P|187:258|173:295,1,80,0|8,0:0|0:0,0:0:0:0:
73,326,50537,6,0,P|115:317|160:321,1,80,0|8,0:0|0:0,0:0:0:0:
197,344,51093,2,0,P|236:345|275:337,1,80
311,299,51648,2,0,P|335:290|363:283,1,40,8|0,0:0|0:0,0:0:0:0:
400,290,52019,5,0,0:0:0:0:
400,290,52204,2,0,P|410:262|412:235,1,40,0|8,0:0|0:0,0:0:0:0:
401,201,52574,1,0,0:0:0:0:
379,153,52760,2,0,P|371:114|373:65,1,80,0|8,0:0|0:0,0:0:0:0:
473,55,53500,6,0,P|437:60|384:50,1,80,0|8,0:0|0:0,0:0:0:0:
345,34,54056,2,0,P|305:27|266:32,1,80,0|8,0:0|0:0,0:0:0:0:
221,59,54611,1,8,0:0:0:0:
250,158,54982,6,0,P|207:162|165:147,1,80,0|8,0:0|0:0,0:0:0:0:
128,123,55537,1,0,0:0:0:0:
89,87,55722,2,0,P|62:82|36:81,1,40
8,114,56093,2,0,P|3:141|2:167,1,40,8|0,0:0|0:0,0:0:0:0:
21,201,56463,6,0,P|32:242|27:283,1,80,0|8,0:0|0:0,0:0:0:0:
22,330,57019,2,0,P|68:337|117:332,1,80,0|8,0:0|0:0,0:0:0:0:
148,314,57574,1,8,0:0:0:0:
210,230,57945,6,0,P|249:213|293:206,1,80,0|8,0:0|0:0,0:0:0:0:
335,221,58500,1,0,0:0:0:0:
335,221,58685,2,0,P|374:213|410:197,1,80,0|8,0:0|0:0,0:0:0:0:
466,109,59426,6,0,P|492:137|513:187,1,80,0|8,0:0|0:0,0:0:0:0:
485,220,59982,2,0,P|483:259|493:298,1,80
496,350,60537,2,0,L|445:348,1,40,8|0,0:0|0:0,0:0:0:0:
403,345,60908,6,0,L|313:350,1,80,2|10,0:0|0:0,0:0:0:0:
224,317,61648,2,0,L|134:322,1,80,2|10,0:0|0:0,0:0:0:0:
49,277,62389,5,10,0:0:0:0:
71,65,63871,6,0,P|108:57|156:57,1,80,0|8,0:0|0:0,0:0:0:0:
195,81,64426,1,0,0:0:0:0:
195,81,64611,2,0,P|234:80|274:72,1,80,0|8,0:0|0:0,0:0:0:0:
378,71,65352,6,0,P|386:108|386:156,1,80,0|8,0:0|0:0,0:0:0:0:
362,195,65907,1,0,0:0:0:0:
362,195,66092,2,0,P|362:234|370:274,1,80,0|8,0:0|0:0,0:0:0:0:
287,336,66834,6,0,P|250:344|202:344,1,80,0|8,0:0|0:0,0:0:0:0:
163,320,67389,1,0,0:0:0:0:
163,320,67574,2,0,P|163:280|155:240,1,80,0|8,0:0|0:0,0:0:0:0:
63,191,68315,5,2,0:0:0:0:
283,166,71648,6,0,P|325:152|360:121,2,80
179,172,72760,6,0,P|144:192|126:234,1,80,4|8,0:0|0:0,0:0:0:0:
139,276,73315,1,0,0:0:0:0:
182,304,73500,2,0,P|207:303|232:298,1,40
266,273,73871,2,0,P|285:270|305:269,1,40,8|0,0:0|0:0,0:0:0:0:
354,288,74241,6,0,P|400:270|429:250,1,80,0|8,0:0|0:0,0:0:0:0:
451,207,74797,1,0,0:0:0:0:
451,207,74982,2,0,P|429:173|416:135,1,80,0|8,0:0|0:0,0:0:0:0:
420,83,75537,1,0,0:0:0:0:
430,32,75722,6,0,P|387:30|341:39,1,80,0|8,0:0|0:0,0:0:0:0:
262,91,76463,2,0,P|222:97|182:95,1,80,0|8,0:0|0:0,0:0:0:0:
87,52,77204,5,2,0:0:0:0:
186,292,78130,2,0,L|244:291,1,40,0|8,0:0|0:0,0:0:0:0:
328,271,78685,6,0,P|330:229|326:191,1,80,4|8,0:0|0:0,0:0:0:0:
302,144,79241,1,0,0:0:0:0:
302,144,79426,2,0,P|297:104|300:64,1,80,0|8,0:0|0:0,0:0:0:0:
397,26,80167,6,0,P|436:21|476:24,2,80,0|8|0,0:0|0:0|0:0,0:0:0:0:
376,74,81093,1,0,0:0:0:0:
401,119,81278,2,0,P|411:138|417:173,1,40,8|0,0:0|0:0,0:0:0:0:
410,207,81648,6,0,L|333:245,1,80,0|8,0:0|0:0,0:0:0:0:
247,293,82389,2,0,L|175:257,1,80,0|8,0:0|0:0,0:0:0:0:
74,285,83130,6,0,P|63:263|57:242,1,40
83,202,83500,2,0,P|94:180|100:159,1,40,8|0,0:0|0:0,0:0:0:0:
96,113,83871,1,8,0:0:0:0:
83,9,84241,1,8,0:0:0:0:
179,51,84611,6,0,L|266:42,1,80,2|0,0:0|0:0,0:0:0:0:
316,129,85352,2,0,L|236:137,1,80,2|0,0:0|0:0,0:0:0:0:
185,228,86093,6,0,P|210:262|246:290,1,80,4|8,0:0|0:0,0:0:0:0:
290,295,86648,1,0,0:0:0:0:
290,295,86834,2,0,P|315:264|347:240,1,80,0|8,0:0|0:0,0:0:0:0:
398,230,87389,1,0,0:0:0:0:
448,217,87574,6,0,P|459:179|453:135,1,80,0|8,0:0|0:0,0:0:0:0:
433,91,88130,1,0,0:0:0:0:
433,91,88315,2,0,P|395:80|351:86,1,80,0|8,0:0|0:0,0:0:0:0:
309,109,88871,1,0,0:0:0:0:
286,156,89056,6,0,P|257:177|207:184,2,80,0|8|0,0:0|0:0|0:0,0:0:0:0:
213,80,90167,1,8,0:0:0:0:
120,127,90537,2,0,P|102:153|96:178,1,40
100,212,90908,2,0,P|97:237|102:266,1,40,8|0,0:0|0:0,0:0:0:0:
131,291,91278,2,0,P|134:316|129:345,1,40,8|0,0:0|0:0,0:0:0:0:
111,378,91648,1,8,0:0:0:0:
448,204,93500,6,0,P|404:202|361:215,1,80,0|8,0:0|0:0,0:0:0:0:
338,253,94056,1,0,0:0:0:0:
338,253,94241,2,0,P|299:262|259:260,1,80,0|8,0:0|0:0,0:0:0:0:
213,235,94797,1,0,0:0:0:0:
188,189,94982,6,0,P|143:192|104:212,1,80,0|8,0:0|0:0,0:0:0:0:
66,231,95537,2,0,P|50:194|48:154,1,80
60,103,96093,1,8,0:0:0:0:
163,100,96463,6,0,P|211:93|251:72,1,80,0|8,0:0|0:0,0:0:0:0:
277,44,97019,1,0,0:0:0:0:
277,44,97204,2,0,P|313:28|353:23,1,80,0|8,0:0|0:0,0:0:0:0:
404,31,97759,1,0,0:0:0:0:
424,78,97945,6,0,P|421:123|401:162,1,80,0|8,0:0|0:0,0:0:0:0:
370,191,98500,2,0,P|354:227|352:267,1,80
375,314,99056,1,8,0:0:0:0:
454,247,99426,5,2,0:0:0:0:
138,117,105352,6,0,P|119:158|119:201,1,80,4|8,0:0|0:0,0:0:0:0:
136,240,105908,1,0,0:0:0:0:
136,240,106093,2,0,P|171:248|216:253,1,80,0|8,0:0|0:0,0:0:0:0:
317,234,106834,6,0,P|355:253|383:294,1,80,0|8,0:0|0:0,0:0:0:0:
415,317,107389,2,0,P|445:291|462:256,1,80
456,204,107945,2,0,P|451:178|449:147,1,40,8|0,0:0|0:0,0:0:0:0:
447,112,108315,6,0,P|417:87|372:71,1,80,0|8,0:0|0:0,0:0:0:0:
337,103,108871,2,0,P|299:88|269:63,1,80
241,19,109426,1,8,0:0:0:0:
158,83,109797,6,0,P|159:122|177:166,1,80,0|8,0:0|0:0,0:0:0:0:
225,170,110353,2,0,P|239:207|240:247,1,80
227,298,110908,1,8,0:0:0:0:
382,139,114611,6,0,B|371:102|371:102|386:45,2,80,8|0|8,0:0|0:0|0:0,0:0:0:0:
438,227,115722,6,0,P|401:253|354:267,1,80,4|8,0:0|0:0,0:0:0:0:
316,259,116278,1,0,0:0:0:0:
264,258,116463,2,0,P|245:272|230:291,1,40
215,332,116834,2,0,P|201:346|185:358,1,40,8|0,0:0|0:0,0:0:0:0:
134,369,117204,6,0,P|112:338|97:284,1,80,0|8,0:0|0:0,0:0:0:0:
93,246,117759,1,0,0:0:0:0:
93,246,117945,2,0,P|80:208|57:175,1,80,0|8,0:0|0:0,0:0:0:0:
17,142,118500,1,0,0:0:0:0:
17,142,118685,6,0,P|51:117|88:99,1,80,0|8,0:0|0:0,0:0:0:0:
188,96,119426,2,0,P|213:130|231:167,1,80,0|8,0:0|0:0,0:0:0:0:
232,267,120167,2,0,P|257:264|276:257,1,40
311,226,120537,2,0,P|330:220|349:218,1,40,8|0,0:0|0:0,0:0:0:0:
400,231,120908,1,0,0:0:0:0:
497,195,121278,1,12,0:0:0:0:
465,97,121648,6,0,P|430:78|380:67,1,80,4|8,0:0|0:0,0:0:0:0:
339,71,122204,1,0,0:0:0:0:
339,71,122389,2,0,P|319:81|297:88,1,40
251,78,122759,2,0,P|232:84|214:93,1,40,8|0,0:0|0:0,0:0:0:0:
171,122,123130,6,0,P|132:111|96:94,1,80,0|8,0:0|0:0,0:0:0:0:
63,193,123871,2,0,P|74:233|92:270,1,80,0|8,0:0|0:0,0:0:0:0:
121,309,124426,1,0,0:0:0:0:
172,306,124611,6,0,P|222:298|267:301,1,80,0|8,0:0|0:0,0:0:0:0:
286,200,125352,2,0,P|246:199|206:207,1,80,0|8,0:0|0:0,0:0:0:0:
241,108,126093,5,8,0:3:0:0:
147,63,126463,1,8,0:3:0:0:
233,5,126834,1,8,0:3:0:0:
327,50,127204,2,0,P|352:41|376:33,1,40,8|0,0:0|0:0,0:0:0:0:
416,33,127574,6,0,P|428:71|423:116,1,80,4|8,0:0|0:0,0:0:0:0:
406,159,128130,1,0,0:0:0:0:
375,201,128315,2,0,P|366:240|386:285,1,80,0|8,0:0|0:0,0:0:0:0:
386,328,128871,1,0,0:0:0:0:
386,328,129056,6,0,P|345:342|301:345,1,80,0|8,0:0|0:0,0:0:0:0:
246,262,129797,2,0,P|206:266|168:279,1,80,0|8,0:0|0:0,0:0:0:0:
128,312,130352,1,0,0:0:0:0:
128,312,130537,6,0,P|111:248|110:220,1,80,0|8,0:0|0:0,0:0:0:0:
180,157,131278,2,0,P|197:93|198:65,1,80,0|8,0:0|0:0,0:0:0:0:
296,46,132019,6,0,P|297:69|295:93,1,40
276,134,132389,2,0,P|275:157|277:181,1,40,8|0,0:0|0:0,0:0:0:0:
292,223,132759,1,0,0:0:0:0:
277,326,133130,1,12,0:0:0:0:
373,287,133500,6,0,P|391:251|394:207,1,80,4|8,0:0|0:0,0:0:0:0:
389,159,134056,1,0,0:0:0:0:
389,159,134241,2,0,P|371:123|368:79,1,80,0|8,0:0|0:0,0:0:0:0:
464,44,134982,6,0,L|487:133,1,80,0|8,0:0|0:0,0:0:0:0:
389,159,135722,2,0,L|367:82,1,80,0|8,0:0|0:0,0:0:0:0:
350,32,136278,1,0,0:0:0:0:
300,47,136463,6,0,P|264:55|206:58,1,80,0|8,0:0|0:0,0:0:0:0:
205,161,137204,2,0,P|244:158|283:149,1,80,0|8,0:0|0:0,0:0:0:0:
258,259,137945,5,0,0:0:0:0:
258,259,138315,1,8,0:0:0:0:
258,259,138685,1,8,0:0:0:0:
258,259,139056,1,8,0:0:0:0:
154,254,139426,6,0,P|121:229|93:190,1,80,4|8,0:0|0:0,0:0:0:0:
91,146,139982,1,0,0:0:0:0:
91,146,140167,2,0,P|104:123|123:107,1,40
161,93,140537,2,0,P|174:78|183:60,1,40,8|0,0:0|0:0,0:0:0:0:
186,7,140908,6,0,P|227:14|266:29,1,80,0|8,0:0|0:0,0:0:0:0:
297,65,141463,1,0,0:0:0:0:
297,65,141648,2,0,P|334:78|373:85,1,80,0|8,0:0|0:0,0:0:0:0:
426,85,142204,1,0,0:0:0:0:
457,128,142389,6,0,P|464:167|465:209,1,80,0|8,0:0|0:0,0:0:0:0:
384,273,143130,2,0,P|377:234|376:192,1,80,0|8,0:0|0:0,0:0:0:0:
376,89,143871,2,0,P|348:90|328:97,1,40
299,130,144241,2,0,P|279:134|259:134,1,40,8|0,0:0|0:0,0:0:0:0:
210,117,144611,1,0,0:0:0:0:
210,12,144982,1,8,0:0:0:0:
120,65,145352,6,0,P|108:109|112:149,1,80,4|8,0:0|0:0,0:0:0:0:
127,192,145908,1,0,0:0:0:0:
127,192,146093,2,0,P|139:236|135:276,1,80,0|8,0:0|0:0,0:0:0:0:
107,312,146648,1,0,0:0:0:0:
73,351,146834,6,0,L|171:353,1,80,0|8,0:0|0:0,0:0:0:0:
245,305,147574,2,0,L|343:307,1,80,0|8,0:0|0:0,0:0:0:0:
411,248,148315,6,0,P|431:209|432:157,1,80,0|8,0:0|0:0,0:0:0:0:
426,121,148871,1,0,0:0:0:0:
378,99,149056,2,0,P|355:95|332:80,1,40
324,37,149426,2,0,P|306:28|286:25,1,40,8|0,0:0|0:0,0:0:0:0:
236,38,149797,6,0,L|190:50,1,40
157,81,150167,2,0,L|111:93,1,40,8|0,0:0|0:0,0:0:0:0:
74,119,150537,1,8,0:0:0:0:
16,206,150908,1,8,0:0:0:0:
120,211,151278,6,0,P|166:209|204:221,1,80,4|8,0:0|0:0,0:0:0:0:
243,244,151834,1,0,0:0:0:0:
243,244,152019,2,0,P|281:254|321:251,1,80,0|8,0:0|0:0,0:0:0:0:
366,225,152574,1,0,0:0:0:0:
416,214,152759,6,0,P|422:174|415:135,2,80,0|8|0,0:0|0:0|0:0,0:0:0:0:
393,261,153685,2,0,P|395:285|404:312,1,40,0|8,0:0|0:0,0:0:0:0:
428,343,154056,1,0,0:0:0:0:
388,376,154241,6,0,P|341:372|291:361,1,80,0|8,0:0|0:0,0:0:0:0:
221,308,154982,2,0,P|224:268|231:228,1,80,0|8,0:0|0:0,0:0:0:0:
271,132,155722,2,0,P|244:125|218:129,1,40
188,154,156093,2,0,P|168:153|149:147,1,40,8|0,0:0|0:0,0:0:0:0:
111,111,156463,1,8,0:0:0:0:
78,11,156834,1,8,0:0:0:0:
181,23,157204,6,0,P|223:25|272:36,1,80,4|8,0:0|0:0,0:0:0:0:
305,57,157759,1,0,0:0:0:0:
305,57,157945,2,0,P|344:64|384:66,1,80,0|8,0:0|0:0,0:0:0:0:
436,67,158500,1,0,0:0:0:0:
485,83,158685,6,0,P|482:128|465:172,2,80,0|8|0,0:0|0:0|0:0,0:0:0:0:
436,67,159611,2,0,P|413:65|386:65,1,40,0|8,0:0|0:0,0:0:0:0:
343,63,159982,1,0,0:0:0:0:
294,80,160167,6,0,P|259:91|205:90,1,80,0|8,0:0|0:0,0:0:0:0:
226,195,160908,2,0,P|265:194|304:183,1,80,0|8,0:0|0:0,0:0:0:0:
389,123,161648,2,0,P|393:146|392:166,1,40
378,213,162019,2,0,P|374:236|375:256,1,40,8|0,0:0|0:0,0:0:0:0:
385,303,162389,1,0,0:0:0:0:
295,355,162759,1,8,0:0:0:0:
208,296,163130,6,0,P|204:273|205:253,1,40
215,206,163501,2,0,P|219:183|218:163,1,40,8|0,0:0|0:0,0:0:0:0:
208,116,163871,1,0,0:0:0:0:
112,74,164241,1,8,0:0:0:0:
200,19,164611,5,2,0:0:0:0:
54,294,165722,2,0,L|136:294,1,80,8|4,0:0|0:0,0:0:0:0:
