osu file format v14

[General]
AudioFilename: audio.mp3
AudioLeadIn: 0
PreviewTime: 93315
Countdown: 0
SampleSet: Soft
StackLeniency: 0.7
Mode: 0
LetterboxInBreaks: 0
WidescreenStoryboard: 0

[Editor]
Bookmarks: 80537,81278,89797
DistanceSpacing: 1
BeatDivisor: 4
GridSize: 16
TimelineZoom: 1.8

[Metadata]
Title:We are Number One
TitleUnicode:We are Number One
Artist:Stefan Karl Stefansson & Mani Svavarsson
ArtistUnicode:Stefán Karl Stefánsson & Máni Svavarsson
Creator:- G I D Z -
Version:No.1
Source:LazyTown
Tags:meme original television kids show gidz
BeatmapID:1131984
BeatmapSetID:534404

[Difficulty]
HPDrainRate:7
CircleSize:4
OverallDifficulty:8
ApproachRate:9
SliderMultiplier:1.7
SliderTickRate:1

[Events]
//Background and Video events
0,0,"BG we'r nmbir won.png",0,0
Video,0,"LazyTown We are Number One Music Video.avi"
//Break Periods
2,46108,48456
2,68515,71048
2,91848,92900
2,99626,104011
2,111385,114011
//Storyboard Layer 0 (Background)
//Storyboard Layer 1 (Fail)
//Storyboard Layer 2 (Pass)
//Storyboard Layer 3 (Foreground)
//Storyboard Sound Samples

[TimingPoints]
32760,370.37037037037,4,2,1,70,1,0
34241,-100,4,2,1,80,0,1
39797,-100,4,2,1,80,0,0
40167,-100,4,2,1,80,0,1
45908,-100,4,2,1,80,0,0
54334,-100,4,2,1,5,0,0
54426,-100,4,2,1,80,0,0
62389,-100,4,2,1,40,0,0
62760,-100,4,2,1,60,0,0
63871,-142.857142857143,4,2,1,60,0,0
71648,-100,4,2,1,70,0,0
72760,-100,4,2,1,70,0,1
77204,-100,4,2,1,70,0,0
78685,-100,4,2,1,70,0,1
84611,-100,4,2,1,70,0,0
84982,-83.3333333333333,4,2,1,70,0,0
85352,-71.4285714285714,4,2,1,70,0,0
85722,-100,4,2,1,70,0,0
139426,-83.3333333333333,4,2,1,70,0,1
164611,-100,4,2,1,70,0,0

[Colours]
Combo1 : 0,255,0
Combo2 : 255,0,0
Combo3 : 255,255,0
Combo4 : 255,128,0

[HitObjects]
63,232,33871,5,8,0:0:0:0:
63,232,34241,6,0,P|51:151|101:74,1,170,4|8,0:0|0:0,0:0:0:0:
200,63,34797,1,0,0:0:0:0:
268,144,34982,1,2,0:0:0:0:
307,129,35074,1,2,0:0:0:0:
340,102,35167,1,2,0:0:0:0:
362,66,35259,1,2,0:0:0:0:
371,25,35352,2,0,P|416:15|457:25,1,85,8|0,0:0|0:0,0:0:0:0:
441,183,35722,6,0,P|431:138|441:96,1,85
488,257,36093,2,0,P|498:302|487:343,1,85,8|0,0:0|0:0,0:0:0:0:
336,298,36463,2,0,P|381:288|422:299,1,85
266,336,36834,2,0,P|256:294|266:253,1,85,8|0,0:0|0:0,0:0:0:0:
340,170,37204,6,0,L|245:150,1,85
89,172,37574,2,0,L|184:192,1,85,8|0,0:0|0:0,0:0:0:0:
356,97,37945,2,0,L|261:77,1,85
105,99,38315,2,0,L|200:119,1,85,8|0,0:0|0:0,0:0:0:0:
435,176,38685,5,0,0:0:0:0:
356,97,38870,1,0,0:0:0:0:
278,176,39055,1,8,0:0:0:0:
356,254,39241,1,0,0:0:0:0:
434,98,39426,1,0,0:0:0:0:
275,99,39611,2,0,P|252:99|222:92,1,42.5,2|0,0:0|0:0,0:0:0:0:
166,72,39797,2,0,P|123:76|84:92,1,85,12|0,0:0|0:0,0:0:0:0:
76,255,40167,6,0,P|146:298|229:286,1,170,4|8,0:0|0:0,0:0:0:0:
300,209,40722,1,0,0:0:0:0:
288,102,40907,1,2,0:0:0:0:
327,117,40999,1,2,0:0:0:0:
360,144,41092,1,2,0:0:0:0:
382,180,41184,1,2,0:0:0:0:
399,219,41277,2,0,P|407:260|397:301,1,85,8|0,0:0|0:0,0:0:0:0:
244,321,41648,6,0,P|289:311|331:321,1,85
178,359,42019,2,0,P|133:369|91:359,1,85,8|0,0:0|0:0,0:0:0:0:
140,206,42389,2,0,P|147:247|137:288,1,85
97,134,42760,2,0,P|142:124|184:134,1,85,8|0,0:0|0:0,0:0:0:0:
236,218,43130,6,0,L|279:135,1,85
428,72,43500,2,0,L|385:155,1,85,8|0,0:0|0:0,0:0:0:0:
295,276,43871,2,0,L|338:193,1,85
487,130,44241,2,0,L|444:213,1,85,8|0,0:0|0:0,0:0:0:0:
334,357,44611,5,0,0:0:0:0:
413,278,44796,1,0,0:0:0:0:
334,200,44981,1,8,0:0:0:0:
256,278,45167,1,0,0:0:0:0:
416,360,45352,5,0,0:0:0:0:
259,357,45537,1,2,0:0:0:0:
102,360,45722,1,8,0:0:0:0:
259,357,45908,1,2,0:0:0:0:
92,265,49056,6,0,B|65:169|118:193|87:88,1,170,0|8,0:0|0:0,0:0:0:0:
34,34,49611,1,0,0:0:0:0:
163,82,49797,2,0,P|206:69|230:38,1,85
331,86,50167,2,0,P|288:99|264:130,1,85,8|0,0:0|0:0,0:0:0:0:
342,178,50537,6,0,P|382:253|358:337,1,170,0|8,0:0|0:0,0:0:0:0:
282,284,51093,2,0,P|357:241|435:276,1,170
481,362,51648,1,8,0:0:0:0:
361,331,51834,1,0,0:0:0:0:
512,263,52019,6,0,P|499:220|468:196,1,85
454,98,52389,2,0,P|411:111|387:142,1,85,8|0,0:0|0:0,0:0:0:0:
289,158,52760,2,0,P|302:201|333:225,1,85
347,323,53130,2,0,P|390:310|414:279,1,85,8|0,0:0|0:0,0:0:0:0:
332,224,53500,6,0,P|260:265|235:345,1,170,0|8,0:0|0:0,0:0:0:0:
62,263,54056,2,2,P|123:278|159:330,1,127.5,0|0,0:0|0:0,0:0:0:0:
160,355,54426,1,8,0:0:0:0:
205,193,54611,1,8,0:0:0:0:
54,131,54797,6,0,B|99:109|99:109|157:116|216:90,1,170
309,109,55352,2,0,P|352:96|376:65,1,85,8|0,0:0|0:0,0:0:0:0:
296,15,55722,1,0,0:0:0:0:
228,163,55908,1,0,0:0:0:0:
296,15,56093,1,8,0:0:0:0:
342,189,56278,1,0,0:0:0:0:
226,76,56463,6,0,P|144:61|74:106,1,170,0|8,0:0|0:0,0:0:0:0:
99,194,57019,2,0,P|143:264|129:345,1,170,0|8,0:0|0:0,0:0:0:0:
129,345,57482,1,8,0:0:0:0:
129,345,57574,1,8,0:0:0:0:
32,288,57760,1,0,0:0:0:0:
218,314,57945,6,0,P|261:301|285:270,1,85
237,130,58315,2,0,P|250:173|281:197,1,85,8|0,0:0|0:0,0:0:0:0:
427,151,58685,2,0,P|384:164|360:195,1,85
410,335,59056,2,0,P|397:292|366:268,1,85,8|0,0:0|0:0,0:0:0:0:
205,242,59426,6,0,B|142:262|142:262|80:246,2,127.5
280,196,60167,2,0,L|325:268,1,85
144,180,60537,2,0,L|216:134,1,85,8|0,0:0|0:0,0:0:0:0:
297,79,60908,5,2,0:0:0:0:
483,283,61278,1,10,0:0:0:0:
286,275,61648,1,2,0:0:0:0:
482,86,62019,1,10,0:0:0:0:
155,155,62389,5,8,0:0:0:0:
164,114,62481,1,8,0:0:0:0:
196,87,62574,1,8,0:0:0:0:
238,84,62666,1,8,0:0:0:0:
273,107,62759,1,8,0:0:0:0:
287,146,62851,1,8,0:0:0:0:
276,186,62944,1,8,0:0:0:0:
243,212,63037,1,8,0:0:0:0:
201,212,63129,1,8,0:0:0:0:
201,212,63871,6,0,P|184:271|217:329,1,118.999996368408,0|8,0:0|0:0,0:0:0:0:
310,318,64426,1,0,0:0:0:0:
310,318,64611,2,0,L|318:237,1,59.4999981842042
417,288,64982,2,0,L|409:369,1,59.4999981842042,8|0,0:0|0:0,0:0:0:0:
276,172,65352,6,0,L|285:53,1,118.999996368408,0|8,0:0|0:0,0:0:0:0:
190,28,65908,1,0,0:0:0:0:
190,28,66093,2,0,L|182:109,1,59.4999981842042
88,94,66463,2,0,L|96:13,1,59.4999981842042,8|0,0:0|0:0,0:0:0:0:
195,200,66834,6,0,L|186:319,1,118.999996368408,0|8,0:0|0:0,0:0:0:0:
111,272,67389,1,0,0:0:0:0:
111,272,67574,1,0,0:0:0:0:
300,348,67945,1,8,0:0:0:0:
424,190,68315,5,0,0:0:0:0:
347,73,71648,6,0,P|351:117|349:163,1,85,2|0,0:0|0:0,0:0:0:0:
268,204,72019,2,0,P|261:178|261:141,1,42.5,2|0,0:0|0:0,0:0:0:0:
268,73,72204,1,8,0:3:0:0:
178,127,72389,1,8,0:0:0:0:
178,127,72482,1,8,0:0:0:0:
178,127,72574,1,8,0:3:0:0:
178,127,72667,1,8,0:3:0:0:
178,127,72760,6,0,P|134:197|146:280,1,170,4|8,0:0|0:0,0:0:0:0:
231,342,73315,1,0,0:0:0:0:
337,332,73500,1,2,0:0:0:0:
376,317,73592,1,2,0:0:0:0:
409,290,73685,1,2,0:0:0:0:
431,254,73777,1,2,0:0:0:0:
443,213,73870,2,0,P|451:171|441:130,1,85,8|0,0:0|0:0,0:0:0:0:
286,143,74241,6,0,P|327:151|368:141,1,85
216,105,74611,2,0,P|174:96|133:106,1,85,8|0,0:0|0:0,0:0:0:0:
180,258,74982,2,0,P|188:216|178:175,1,85
141,332,75352,2,0,P|182:340|223:330,1,85,8|0,0:0|0:0,0:0:0:0:
297,266,75722,6,0,L|306:350,1,85
419,223,76093,2,0,L|409:138,1,85,8|0,0:0|0:0,0:0:0:0:
372,294,76463,2,0,L|381:378,1,85
494,251,76834,2,0,L|484:166,1,85,8|0,0:0|0:0,0:0:0:0:
502,335,77204,5,0,0:0:0:0:
223,330,78130,5,0,0:0:0:0:
419,223,78315,1,8,0:0:0:0:
419,223,78685,6,0,P|462:152|450:69,1,170,4|8,0:0|0:0,0:0:0:0:
366,8,79240,1,0,0:0:0:0:
285,77,79426,1,2,0:0:0:0:
246,93,79518,1,2,0:0:0:0:
204,98,79611,1,2,0:0:0:0:
163,88,79703,1,2,0:0:0:0:
125,67,79796,2,0,P|89:43|68:7,1,85,8|0,0:0|0:0,0:0:0:0:
124,225,80167,6,0,P|159:201|180:165,1,85
34,259,80537,2,0,P|55:295|90:318,1,85,8|0,0:0|0:0,0:0:0:0:
256,296,80908,2,0,P|215:285|173:294,1,85
342,341,81278,2,0,P|352:300|343:258,1,85,8|0,0:0|0:0,0:0:0:0:
256,203,81648,6,0,L|326:146,1,85
464,58,82019,2,0,L|467:142,1,85,8|0,0:0|0:0,0:0:0:0:
181,166,82389,2,0,L|251:109,1,85
389,21,82760,2,0,L|392:105,1,85,8|0,0:0|0:0,0:0:0:0:
400,228,83130,5,0,0:0:0:0:
321,149,83315,1,0,0:0:0:0:
243,228,83500,1,8,0:0:0:0:
321,306,83686,1,0,0:0:0:0:
244,153,83871,1,8,0:0:0:0:
244,153,83963,1,8,0:0:0:0:
244,153,84056,1,8,0:3:0:0:
244,153,84148,1,8,0:3:0:0:
244,153,84241,1,8,0:0:0:0:
44,284,84611,6,0,B|46:254|46:254|57:223|57:223|57:182,1,85,2|0,0:0|0:0,0:0:0:0:
137,305,84982,6,0,B|136:269|136:269|147:238|147:238|149:188,1,101.999996887207,2|0,0:0|0:0,0:0:0:0:
235,327,85352,6,0,B|234:282|234:282|249:247|249:247|249:197,1,118.999996368408,2|8,0:0|0:0,0:0:0:0:
327,349,85722,5,8,0:0:0:0:
369,346,85814,1,8,0:0:0:0:
406,327,85907,1,8,0:0:0:0:
433,294,85999,1,8,0:0:0:0:
452,255,86093,6,0,P|464:172|421:101,1,170,4|8,0:0|0:0,0:0:0:0:
320,132,86648,1,0,0:0:0:0:
232,192,86834,1,2,0:0:0:0:
193,208,86926,1,2,0:0:0:0:
151,213,87019,1,2,0:0:0:0:
110,203,87111,1,2,0:0:0:0:
72,182,87204,2,0,P|36:158|15:122,1,85,8|0,0:0|0:0,0:0:0:0:
134,24,87574,6,0,P|110:59|74:80,1,85
225,13,87945,2,0,P|260:36|281:72,1,85,8|0,0:0|0:0,0:0:0:0:
284,241,88315,2,0,P|248:217|227:181,1,85
394,189,88685,2,0,P|429:212|450:248,1,85,8|0,0:0|0:0,0:0:0:0:
370,352,89056,6,0,L|271:348,1,85
87,318,89426,2,0,L|186:314,1,85,8|0,0:0|0:0,0:0:0:0:
352,264,89797,2,0,L|253:260,1,85
69,230,90167,2,0,L|168:226,1,85,8|0,0:0|0:0,0:0:0:0:
346,182,90537,5,0,0:0:0:0:
267,103,90722,1,0,0:0:0:0:
189,182,90907,1,8,0:0:0:0:
267,260,91093,1,0,0:0:0:0:
190,107,91278,1,8,0:0:0:0:
190,107,91370,1,8,0:0:0:0:
190,107,91463,1,8,0:3:0:0:
190,107,91555,1,8,0:3:0:0:
190,107,91648,1,8,0:0:0:0:
449,255,93500,6,0,P|401:258|356:279,1,85
429,349,93871,1,8,0:0:0:0:
294,271,94056,1,0,0:0:0:0:
242,361,94241,2,0,P|290:358|335:337,1,85
331,207,94611,1,8,0:0:0:0:
189,275,94797,1,0,0:0:0:0:
201,152,94982,6,0,P|198:104|177:59,1,85
95,134,95352,1,8,0:0:0:0:
278,118,95537,2,0,B|354:74|364:126|446:78,1,170
484,156,96093,2,0,P|483:198|470:238,1,85,8|0,0:0|0:0,0:0:0:0:
157,215,96463,6,0,P|195:202|241:205,1,85
302,277,96834,1,8,0:0:0:0:
79,284,97019,2,0,B|35:208|87:198|39:116,1,170
107,63,97574,2,0,P|126:98|130:143,1,85,8|0,0:0|0:0,0:0:0:0:
279,74,97945,6,0,P|368:62|446:92,1,170,0|8,0:0|0:0,0:0:0:0:
423,172,98500,2,0,P|395:251|407:334,1,170
493,355,99056,1,8,0:0:0:0:
324,312,99241,1,0,0:0:0:0:
423,172,99426,5,2,0:0:0:0:
280,267,104611,5,8,0:0:0:0:
280,116,104796,1,8,0:3:0:0:
191,238,104981,1,4,0:3:0:0:
335,192,105166,1,4,0:3:0:0:
191,145,105352,6,0,P|151:131|107:128,1,85
108,127,105722,1,8,0:0:0:0:
245,49,105908,1,2,0:0:0:0:
245,49,106093,2,0,P|289:113|273:200,1,170,0|8,0:0|0:0,0:0:0:0:
191,238,106648,1,0,0:0:0:0:
269,332,106834,6,0,P|350:348|419:303,1,170,0|8,0:0|0:0,0:0:0:0:
392,222,107389,2,0,P|375:140|420:71,1,170
493,116,107945,1,8,0:0:0:0:
360,16,108130,1,0,0:0:0:0:
274,87,108315,6,0,P|232:91|195:70,1,85
97,21,108685,2,0,P|76:57|80:99,1,85,8|0,0:0|0:0,0:0:0:0:
233,181,109056,2,0,P|196:160|154:164,1,85
51,237,109426,2,0,P|87:257|129:253,1,85,8|0,0:0|0:0,0:0:0:0:
233,181,109797,6,0,P|278:250|261:331,1,170,0|8,0:0|0:0,0:0:0:0:
176,278,110352,2,0,P|245:232|326:249,1,170
391,328,110908,1,8,0:0:0:0:
484,229,111093,1,8,0:0:0:0:
484,229,111185,1,8,0:0:0:0:
165,73,114611,6,0,P|161:117|163:163,1,85,2|0,0:0|0:0,0:0:0:0:
244,204,114982,2,0,P|251:178|251:141,1,42.5,2|0,0:0|0:0,0:0:0:0:
244,73,115167,1,8,0:3:0:0:
334,127,115352,1,8,0:0:0:0:
334,127,115445,1,8,0:0:0:0:
334,127,115537,1,8,0:3:0:0:
334,127,115630,1,8,0:3:0:0:
334,127,115723,6,0,P|378:197|366:280,1,170,4|8,0:0|0:0,0:0:0:0:
281,342,116278,1,0,0:0:0:0:
175,332,116463,1,2,0:0:0:0:
136,317,116555,1,2,0:0:0:0:
103,290,116648,1,2,0:0:0:0:
81,254,116740,1,2,0:0:0:0:
69,213,116833,2,0,P|61:171|71:130,1,85,8|0,0:0|0:0,0:0:0:0:
230,131,117204,6,0,P|188:139|147:129,1,85
226,49,117574,2,0,P|268:41|309:51,1,85,8|0,0:0|0:0,0:0:0:0:
313,209,117945,2,0,P|305:167|315:126,1,85
386,214,118315,2,0,P|394:256|384:297,1,85,8|0,0:0|0:0,0:0:0:0:
231,336,118685,6,0,L|328:326,1,85
224,261,119056,2,0,L|139:269,1,85,8|0,0:0|0:0,0:0:0:0:
216,188,119426,2,0,L|313:178,1,85
209,113,119797,2,0,L|124:121,1,85,8|0,0:0|0:0,0:0:0:0:
299,102,120167,5,0,0:0:0:0:
386,214,120352,1,0,0:0:0:0:
299,102,120537,1,8,0:0:0:0:
386,214,120722,1,0,0:0:0:0:
216,188,120908,1,0,0:0:0:0:
473,114,121278,1,12,0:0:0:0:
303,317,121648,6,0,P|221:332|148:292,1,170,4|8,0:0|0:0,0:0:0:0:
121,190,122203,1,0,0:0:0:0:
226,175,122388,1,2,0:0:0:0:
211,136,122482,1,2,0:0:0:0:
184,103,122573,1,2,0:0:0:0:
148,81,122667,1,2,0:0:0:0:
107,69,122759,2,0,P|65:61|24:71,1,85,8|0,0:0|0:0,0:0:0:0:
206,30,123130,6,0,P|248:38|289:28,1,85
389,77,123500,2,0,P|381:119|391:160,1,85,8|0,0:0|0:0,0:0:0:0:
469,240,123871,2,0,P|427:232|386:242,1,85
303,317,124241,2,0,P|345:325|386:315,1,85,8|0,0:0|0:0,0:0:0:0:
236,253,124611,6,0,L|215:339,1,85
105,346,124982,2,0,L|125:263,1,85,8|0,0:0|0:0,0:0:0:0:
200,116,125352,2,0,L|179:202,1,85
69,209,125723,2,0,L|89:126,1,85,8|0,0:0|0:0,0:0:0:0:
114,16,126093,5,8,0:3:0:0:
398,16,126463,1,8,0:3:0:0:
114,16,126834,1,8,0:3:0:0:
358,98,127111,1,8,0:0:0:0:
358,98,127204,1,8,0:0:0:0:
293,192,127389,1,0,0:0:0:0:
208,114,127574,6,0,P|126:98|53:138,1,170,4|8,0:0|0:0,0:0:0:0:
26,241,128129,1,0,0:0:0:0:
100,318,128315,1,2,0:0:0:0:
138,334,128407,1,2,0:0:0:0:
180,339,128500,1,2,0:0:0:0:
221,329,128592,1,2,0:0:0:0:
259,308,128685,2,0,P|294:283|316:247,1,85,8|0,0:0|0:0,0:0:0:0:
216,125,129056,6,0,P|240:160|276:182,1,85
414,211,129426,2,0,P|389:175|353:153,1,85,8|0,0:0|0:0,0:0:0:0:
400,288,129797,2,0,P|422:323|457:347,1,85
318,325,130167,2,0,P|276:315|235:323,1,85,8|0,0:0|0:0,0:0:0:0:
169,373,130537,6,0,L|139:293,1,85
39,231,130908,2,0,L|68:310,1,85,8|0,0:0|0:0,0:0:0:0:
218,266,131278,2,0,L|188:186,1,85
88,124,131649,2,0,L|117:203,1,85,8|0,0:0|0:0,0:0:0:0:
260,175,132019,5,0,0:0:0:0:
320,114,132204,1,0,0:0:0:0:
260,54,132389,1,8,0:0:0:0:
199,114,132574,1,0,0:0:0:0:
335,191,132759,1,0,0:0:0:0:
117,203,133130,1,12,0:0:0:0:
266,47,133500,6,0,P|347:31|420:71,1,170,4|8,0:0|0:0,0:0:0:0:
461,170,134055,1,0,0:0:0:0:
410,263,134241,1,2,0:0:0:0:
372,279,134333,1,2,0:0:0:0:
330,284,134426,1,2,0:0:0:0:
289,274,134518,1,2,0:0:0:0:
251,253,134611,2,0,P|215:228|193:192,1,85,8|0,0:0|0:0,0:0:0:0:
334,116,134982,6,0,P|309:151|273:173,1,85
117,171,135352,2,0,P|141:135|177:113,1,85,8|0,0:0|0:0,0:0:0:0:
150,269,135722,2,0,P|158:311|148:352,1,85
36,241,136093,2,0,P|27:198|38:158,1,85,8|0,0:0|0:0,0:0:0:0:
100,87,136463,6,0,L|120:191,1,85
274,173,136834,2,0,L|257:89,1,85,8|0,0:0|0:0,0:0:0:0:
171,52,137204,2,0,L|191:156,1,85
345,138,137575,2,0,L|328:54,1,85,8|0,0:0|0:0,0:0:0:0:
421,164,137945,5,0,0:0:0:0:
171,52,138315,1,8,0:0:0:0:
80,308,138685,1,8,0:0:0:0:
80,308,138778,1,8,0:0:0:0:
80,308,138871,1,8,0:3:0:0:
80,308,138963,1,8,0:3:0:0:
80,308,139056,1,8,0:0:0:0:
334,346,139426,6,0,P|259:285|259:177,1,203.999993774414,4|8,0:0|0:0,0:0:0:0:
366,119,139982,1,0,0:0:0:0:
268,37,140167,1,2,0:0:0:0:
217,45,140259,1,2,0:0:0:0:
172,68,140352,1,2,0:0:0:0:
136,104,140444,1,2,0:0:0:0:
120,152,140537,2,0,P|112:205|121:263,1,101.999996887207,8|0,0:0|0:0,0:0:0:0:
321,283,140908,6,0,P|268:275|210:284,1,101.999996887207
426,269,141278,2,0,P|431:218|423:168,1,101.999996887207,8|0,0:0|0:0,0:0:0:0:
268,37,141648,2,0,P|260:90|269:148,1,101.999996887207
463,82,142019,2,0,P|412:76|362:84,1,101.999996887207,8|0,0:0|0:0,0:0:0:0:
164,146,142389,6,0,L|277:136,1,101.999996887207
443,237,142759,2,0,L|341:228,1,101.999996887207,8|0,0:0|0:0,0:0:0:0:
137,245,143130,2,0,L|250:235,1,101.999996887207
421,326,143500,2,0,L|308:316,1,101.999996887207,8|0,0:0|0:0,0:0:0:0:
118,352,143871,5,0,0:0:0:0:
66,170,144056,1,0,0:0:0:0:
118,352,144241,1,8,0:0:0:0:
66,170,144426,1,0,0:0:0:0:
238,236,144611,6,0,L|249:180,3,50.9999984436036,2|0|0|0,0:0|0:0|0:0|0:0,0:0:0:0:
267,137,144982,2,0,L|305:88,3,50.9999984436036,2|0|0|0,0:0|0:0|0:0|0:0,0:0:0:0:
335,61,145352,6,0,P|410:122|410:230,1,203.999993774414,4|8,0:0|0:0,0:0:0:0:
336,325,145908,1,0,0:0:0:0:
209,328,146093,1,2,0:0:0:0:
158,320,146185,1,2,0:0:0:0:
113,297,146278,1,2,0:0:0:0:
77,261,146370,1,2,0:0:0:0:
61,213,146463,2,0,P|53:160|62:102,1,101.999996887207,8|0,0:0|0:0,0:0:0:0:
266,95,146834,6,0,P|213:103|155:94,1,101.999996887207
372,92,147204,2,0,P|377:142|369:192,1,101.999996887207,8|0,0:0|0:0,0:0:0:0:
227,338,147574,2,0,P|219:285|228:227,1,101.999996887207
424,285,147945,2,0,P|371:293|313:284,1,101.999996887207,8|0,0:0|0:0,0:0:0:0:
123,249,148315,6,0,L|235:236,1,101.999996887207
408,146,148685,2,0,L|296:133,1,101.999996887207,8|0,0:0|0:0,0:0:0:0:
106,92,149056,2,0,L|218:79,1,101.999996887207
407,38,149426,2,0,L|295:25,1,101.999996887207,8|0,0:0|0:0,0:0:0:0:
100,2,149797,5,0,0:0:0:0:
207,80,149982,1,0,0:0:0:0:
129,187,150167,1,8,0:0:0:0:
23,109,150352,1,0,0:0:0:0:
235,179,150537,1,8,0:0:0:0:
235,179,150630,1,8,0:0:0:0:
235,179,150722,1,8,0:3:0:0:
235,179,150815,1,8,0:3:0:0:
235,179,150908,2,0,P|262:185|286:201,1,50.9999984436036,8|0,0:0|0:0,0:0:0:0:
333,261,151093,2,0,P|354:273|379:279,1,50.9999984436036,2|0,0:0|0:0,0:0:0:0:
457,248,151278,6,0,P|513:166|489:70,1,203.999993774414,4|8,0:0|0:0,0:0:0:0:
363,50,151834,1,0,0:0:0:0:
275,141,152019,1,2,0:0:0:0:
233,171,152111,1,2,0:0:0:0:
185,186,152204,1,2,0:0:0:0:
134,186,152296,1,2,0:0:0:0:
89,164,152389,2,0,P|45:132|11:84,1,101.999996887207,8|0,0:0|0:0,0:0:0:0:
135,261,152759,6,0,P|143:314|134:371,1,101.999996887207
290,225,153130,2,0,P|343:216|400:226,1,101.999996887207,8|0,0:0|0:0,0:0:0:0:
198,157,153500,2,0,P|189:104|199:46,1,101.999996887207
399,25,153871,2,0,P|407:78|398:135,1,101.999996887207,8|0,0:0|0:0,0:0:0:0:
367,322,154241,6,0,L|397:195,1,101.999996887207
307,36,154611,2,0,L|283:135,1,101.999996887207,8|0,0:0|0:0,0:0:0:0:
198,321,154982,2,0,L|228:194,1,101.999996887207
160,27,155352,2,0,L|136:126,1,101.999996887207,8|0,0:0|0:0,0:0:0:0:
94,326,155722,5,0,0:0:0:0:
124,197,155907,1,0,0:0:0:0:
254,228,156092,1,8,0:0:0:0:
220,356,156277,1,0,0:0:0:0:
49,222,156462,1,8,0:0:0:0:
49,222,156555,1,8,0:0:0:0:
49,222,156647,1,8,0:3:0:0:
49,222,156740,1,8,0:3:0:0:
49,222,156833,2,0,P|45:193|51:166,1,50.9999984436036,8|0,0:0|0:0,0:0:0:0:
94,103,157018,2,0,P|98:77|94:52,1,50.9999984436036,2|0,0:0|0:0,0:0:0:0:
172,22,157204,6,0,P|253:78|349:54,1,203.999993774414,4|8,0:0|0:0,0:0:0:0:
464,0,157759,1,0,0:0:0:0:
478,127,157945,1,2,0:0:0:0:
469,177,158037,1,2,0:0:0:0:
446,222,158130,1,2,0:0:0:0:
410,258,158222,1,2,0:0:0:0:
362,274,158315,2,0,P|309:282|251:273,1,101.999996887207,8|0,0:0|0:0,0:0:0:0:
132,119,158685,6,0,P|185:110|243:120,1,101.999996887207
429,175,159056,2,0,P|376:183|318:174,1,101.999996887207,8|0,0:0|0:0,0:0:0:0:
128,214,159426,2,0,P|120:267|129:325,1,101.999996887207
330,277,159797,2,0,P|335:226|327:176,1,101.999996887207,8|0,0:0|0:0,0:0:0:0:
199,18,160167,6,0,L|233:124,1,101.999996887207
118,285,160537,2,0,L|86:187,1,101.999996887207,8|0,0:0|0:0,0:0:0:0:
223,233,160908,2,0,L|329:199,1,101.999996887207
155,81,161278,2,0,L|57:112,1,101.999996887207,8|0,0:0|0:0,0:0:0:0:
253,52,161648,5,2,0:0:0:0:
359,125,161834,1,2,0:0:0:0:
288,229,162019,1,8,0:0:0:0:
182,159,162204,1,2,0:0:0:0:
411,230,162389,1,2,0:0:0:0:
95,300,162759,1,8,0:0:0:0:
162,60,163130,5,2,0:0:0:0:
98,172,163316,1,2,0:0:0:0:
208,234,163501,1,8,0:0:0:0:
272,125,163686,1,2,0:0:0:0:
95,300,163871,1,2,0:0:0:0:
411,230,164241,1,8,0:0:0:0:
256,189,164611,5,0,0:0:0:0:
256,189,164797,1,0,0:0:0:0:
256,189,164982,1,0,0:0:0:0:
256,189,165167,1,0,0:0:0:0:
256,189,165352,1,0,0:0:0:0:
256,32,165722,5,8,0:0:0:0:
256,352,166093,1,4,0:0:0:0:
