osu file format v14

[General]
AudioFilename: audio.mp3
AudioLeadIn: 0
PreviewTime: 93315
Countdown: 0
SampleSet: Soft
StackLeniency: 0.7
Mode: 0
LetterboxInBreaks: 0
WidescreenStoryboard: 0

[Editor]
Bookmarks: 80537,89797
DistanceSpacing: 1.3
BeatDivisor: 4
GridSize: 16
TimelineZoom: 1.8

[Metadata]
Title:We are Number One
TitleUnicode:We are Number One
Artist:Stefan Karl Stefansson & Mani Svavarsson
ArtistUnicode:Stefán Karl Stefánsson & Máni Svavarsson
Creator:- G I D Z -
Version:Easy
Source:LazyTown
Tags:meme original television kids show gidz
BeatmapID:1132687
BeatmapSetID:534404

[Difficulty]
HPDrainRate:2
CircleSize:3
OverallDifficulty:2
ApproachRate:2
SliderMultiplier:0.6
SliderTickRate:1

[Events]
//Background and Video events
0,0,"BG we'r nmbir won.png",0,0
Video,0,"LazyTown We are Number One Music Video.avi"
//Break Periods
2,45922,47496
2,68515,70088
2,99626,103792
2,111108,113051
//Storyboard Layer 0 (Background)
//Storyboard Layer 1 (Fail)
//Storyboard Layer 2 (Pass)
//Storyboard Layer 3 (Foreground)
//Storyboard Sound Samples

[TimingPoints]
32760,370.37037037037,4,2,1,70,1,0
34241,-100,4,2,1,80,0,1
39797,-100,4,2,1,80,0,0
40167,-100,4,2,1,80,0,1
45908,-100,4,2,1,80,0,0
63871,-100,4,2,1,60,0,0
71648,-100,4,2,1,70,0,1
77204,-100,4,2,1,70,0,0
78685,-100,4,2,1,70,0,1
84611,-100,4,2,1,70,0,0
139426,-100,4,2,1,70,0,1
164611,-100,4,2,1,70,0,0

[Colours]
Combo1 : 0,255,0
Combo2 : 255,0,0
Combo3 : 255,255,0
Combo4 : 255,128,0

[HitObjects]
178,89,34241,6,0,B|214:77|214:77|257:93|305:85,1,120,4|0,0:0|0:0,0:0:0:0:
372,81,35352,1,8,0:0:0:0:
445,105,35722,2,0,P|455:147|459:174,1,60,0|8,0:0|0:0,0:0:0:0:
429,236,36463,2,0,P|419:278|415:305,1,60,0|8,0:0|0:0,0:0:0:0:
338,298,37204,6,0,P|286:270|223:266,1,120
153,295,38315,1,8,0:0:0:0:
75,301,38685,2,0,P|65:259|61:232,1,60,0|8,0:0|0:0,0:0:0:0:
93,170,39426,2,0,P|103:128|107:101,1,60,0|12,0:0|0:0,0:0:0:0:
75,39,40167,6,0,B|111:27|111:27|154:43|202:35,1,120,4|0,0:0|0:0,0:0:0:0:
269,31,41278,1,8,0:0:0:0:
342,55,41648,2,0,P|352:97|356:124,1,60,0|8,0:0|0:0,0:0:0:0:
326,186,42389,2,0,P|316:228|312:255,1,60,0|8,0:0|0:0,0:0:0:0:
298,321,43130,6,0,B|202:313|202:313|182:297,2,120
374,303,44982,1,8,0:0:0:0:
439,261,45352,2,0,P|447:232|451:202,1,60,0|8,0:0|0:0,0:0:0:0:
154,61,49056,6,0,P|128:77|97:102,1,60,0|8,0:0|0:0,0:0:0:0:
101,173,49797,2,0,P|124:191|150:207,1,60,0|8,0:0|0:0,0:0:0:0:
220,241,50537,2,0,B|219:303|219:303|194:355,2,120
191,168,52389,5,8,0:0:0:0:
191,89,52760,2,0,P|222:68|254:54,1,60,0|8,0:0|0:0,0:0:0:0:
319,45,53500,2,0,P|367:79|394:142,1,120
385,210,54611,1,8,0:0:0:0:
346,277,54982,6,0,P|316:283|281:283,1,60,0|8,0:0|0:0,0:0:0:0:
212,259,55722,2,0,P|182:259|152:265,1,60,0|8,0:0|0:0,0:0:0:0:
76,283,56463,2,0,B|69:196|69:196|50:167,2,120
74,361,58315,1,8,0:0:0:0:
151,366,58685,2,0,P|184:363|221:356,1,60,0|8,0:0|0:0,0:0:0:0:
271,309,59426,6,0,P|330:293|391:299,1,120
460,327,60537,1,8,0:0:0:0:
469,249,60908,6,0,P|472:216|468:182,1,60,2|10,0:0|0:0,0:0:0:0:
412,136,61648,2,0,P|409:103|413:69,1,60,2|10,0:0|0:0,0:0:0:0:
466,21,62389,1,10,0:0:0:0:
160,83,63871,6,0,P|154:143|158:208,1,120
202,265,64982,1,8,0:0:0:0:
275,239,65352,2,0,P|278:179|272:119,1,120
249,44,66463,1,8,0:0:0:0:
327,47,66834,6,0,P|351:71|359:105,1,60,0|8,0:0|0:0,0:0:0:0:
358,173,67574,2,0,P|362:206|385:233,1,60,0|8,0:0|0:0,0:0:0:0:
453,246,68315,1,2,0:0:0:0:
101,137,71648,6,0,L|34:137,2,60,8|0|8,0:0|0:0|0:0,0:0:0:0:
179,140,72760,6,0,P|176:200|158:260,1,120,4|0,0:0|0:0,0:0:0:0:
118,324,73871,1,8,0:0:0:0:
190,352,74241,2,0,P|223:347|253:339,1,60,0|8,0:0|0:0,0:0:0:0:
301,282,74982,2,0,P|330:274|359:270,1,60,0|8,0:0|0:0,0:0:0:0:
437,279,75722,6,0,P|471:230|477:167,1,120
460,94,76834,1,8,0:0:0:0:
395,137,77204,5,2,0:0:0:0:
106,256,78685,6,0,P|88:199|93:128,1,120,4|0,0:0|0:0,0:0:0:0:
122,68,79797,1,8,0:0:0:0:
192,101,80167,2,0,P|225:105|260:99,1,60,0|8,0:0|0:0,0:0:0:0:
316,58,80908,2,0,P|345:54|375:58,1,60,0|8,0:0|0:0,0:0:0:0:
445,92,81648,6,0,B|453:188|453:188|433:233,2,120
375,58,83500,1,8,0:0:0:0:
321,115,83871,2,0,P|317:148|321:194,1,60,0|8,0:0|0:0,0:0:0:0:
341,248,84611,6,0,B|345:296|301:320|301:320|279:362|218:361,1,180,2|8,0:0|0:0,0:0:0:0:
170,303,86093,6,0,P|156:244|118:186,1,120,4|0,0:0|0:0,0:0:0:0:
57,155,87204,1,8,0:0:0:0:
79,80,87574,2,0,P|114:73|152:73,1,60,0|8,0:0|0:0,0:0:0:0:
203,115,88315,2,0,P|232:113|262:107,1,60,0|8,0:0|0:0,0:0:0:0:
325,61,89056,6,0,B|421:38|421:38|459:46,2,120
262,107,90908,1,8,0:0:0:0:
312,166,91278,2,0,P|312:202|307:234,1,60,0|8,0:0|0:0,0:0:0:0:
49,334,93500,6,0,P|108:339|177:330,1,120
241,304,94611,1,8,0:0:0:0:
306,260,94982,2,0,P|363:242|423:237,1,120
498,258,96093,1,8,0:0:0:0:
501,180,96463,6,0,P|500:146|495:110,1,60,0|8,0:0|0:0,0:0:0:0:
459,51,97204,2,0,P|429:51|399:55,1,60,0|8,0:0|0:0,0:0:0:0:
343,109,97945,2,0,P|284:118|206:103,1,120
174,49,99056,1,8,0:0:0:0:
245,17,99426,5,2,0:0:0:0:
144,154,105352,6,0,P|141:197|132:233,1,60,0|8,0:0|0:0,0:0:0:0:
81,267,106093,2,0,P|84:310|93:346,1,60,0|8,0:0|0:0,0:0:0:0:
164,338,106834,2,0,P|223:325|295:289,1,120
305,227,107945,1,8,0:0:0:0:
317,150,108315,6,0,P|371:125|430:112,1,120
502,142,109426,1,8,0:0:0:0:
484,218,109797,2,0,P|429:242|370:255,1,120
292,248,110908,1,8,0:0:0:0:
67,162,114611,6,0,B|50:236,2,60,8|0|8,0:0|0:0|0:0,0:0:0:0:
101,91,115722,6,0,P|158:78|235:71,1,120,4|0,0:0|0:0,0:0:0:0:
291,100,116834,1,8,0:0:0:0:
366,120,117204,2,0,P|392:96|409:76,1,60,0|8,0:0|0:0,0:0:0:0:
461,134,117945,2,0,P|441:156|419:176,1,60,0|8,0:0|0:0,0:0:0:0:
348,209,118685,6,0,B|254:217|254:217|233:232,2,120
401,265,120537,2,0,P|412:298|418:334,1,60,8|0,0:0|0:0,0:0:0:0:
361,377,121278,1,12,0:0:0:0:
291,341,121648,6,0,P|235:322|167:316,1,120,4|0,0:0|0:0,0:0:0:0:
96,320,122759,1,8,0:0:0:0:
54,253,123130,2,0,P|45:216|45:185,1,60,0|8,0:0|0:0,0:0:0:0:
115,161,123871,2,0,P|124:124|124:93,1,60,0|8,0:0|0:0,0:0:0:0:
130,24,124611,6,0,L|204:29,1,60,0|8,0:0|0:0,0:0:0:0:
261,59,125352,2,0,L|335:64,1,60,0|8,0:0|0:0,0:0:0:0:
398,54,126093,2,0,B|392:20|392:20|372:5,2,60,8|8|8,0:3|0:3|0:3,0:0:0:0:
379,129,127204,1,8,0:0:0:0:
305,153,127574,6,0,P|247:165|203:213,1,120,4|0,0:0|0:0,0:0:0:0:
194,284,128685,1,8,0:0:0:0:
254,333,129056,2,0,P|311:321|353:278,1,120
371,202,130167,1,8,0:0:0:0:
318,144,130537,6,0,P|330:107|346:85,1,60,0|8,0:0|0:0,0:0:0:0:
412,56,131278,2,0,P|400:19|384:-3,1,60,0|8,0:0|0:0,0:0:0:0:
310,10,132019,2,0,P|255:31|187:43,1,120
117,33,133130,1,12,0:0:0:0:
56,82,133500,6,0,P|57:143|70:211,1,120,4|0,0:0|0:0,0:0:0:0:
114,263,134611,1,8,0:0:0:0:
188,240,134982,2,0,P|217:233|247:232,1,60,0|8,0:0|0:0,0:0:0:0:
304,285,135722,2,0,P|333:280|360:268,1,60,0|8,0:0|0:0,0:0:0:0:
399,200,136463,6,0,L|411:132,1,60,0|8,0:0|0:0,0:0:0:0:
334,119,137204,2,8,L|323:178,1,60,0|8,0:0|0:0,0:0:0:0:
246,163,137945,5,2,0:0:0:0:
8,365,139426,6,0,P|46:314|61:247,1,120,4|0,0:0|0:0,0:0:0:0:
54,182,140537,1,8,0:0:0:0:
29,107,140908,2,8,P|55:91|90:77,1,60,0|8,0:0|0:0,0:0:0:0:
153,110,141648,2,0,P|180:98|206:82,1,60,0|8,0:0|0:0,0:0:0:0:
272,41,142389,6,0,B|367:31|367:31|410:49,2,120
206,82,144241,1,8,0:0:0:0:
239,152,144611,2,0,P|251:187|255:224,1,60,0|8,0:0|0:0,0:0:0:0:
265,286,145352,6,0,P|328:287|397:255,1,120,4|0,0:0|0:0,0:0:0:0:
440,216,146463,1,8,0:0:0:0:
463,141,146834,2,0,P|457:113|448:77,1,60,0|8,0:0|0:0,0:0:0:0:
392,29,147574,2,0,P|362:35|333:42,1,60,0|8,0:0|0:0,0:0:0:0:
281,100,148315,6,0,B|201:139|201:139|156:132,2,120
333,42,150167,1,8,0:0:0:0:
258,19,150537,2,0,P|228:15|180:13,1,60,8|8,0:0|0:0,0:0:0:0:
121,26,151278,6,0,P|96:79|91:153,1,120,4|0,0:0|0:0,0:0:0:0:
118,212,152389,1,8,0:0:0:0:
195,203,152759,2,0,P|234:209|264:224,1,60,0|8,0:0|0:0,0:0:0:0:
281,289,153500,2,8,P|308:299|338:303,1,60,0|8,0:0|0:0,0:0:0:0:
408,267,154241,6,0,L|452:217,1,60,0|8,0:0|0:0,0:0:0:0:
389,170,154982,2,0,L|345:120,1,60,0|8,0:0|0:0,0:0:0:0:
275,100,155722,2,0,P|219:119|152:111,1,120
85,86,156834,1,8,0:0:0:0:
142,33,157204,6,0,L|278:15,1,120,4|0,0:0|0:0,0:0:0:0:
337,33,158315,1,8,0:0:0:0:
406,68,158685,2,0,P|412:97|411:135,1,60,0|8,0:0|0:0,0:0:0:0:
360,185,159426,2,0,P|354:214|355:252,1,60,0|8,0:0|0:0,0:0:0:0:
367,321,160167,6,0,B|283:352|283:352|226:348,2,120
354,244,162019,1,8,0:0:0:0:
286,205,162389,2,0,P|269:173|259:136,1,60,0|8,0:0|0:0,0:0:0:0:
259,72,163130,5,0,0:0:0:0:
182,86,163500,2,0,P|165:118|155:155,1,60,8|0,0:0|0:0,0:0:0:0:
169,217,164241,1,8,0:0:0:0:
105,261,164611,5,0,0:0:0:0:
476,252,165722,2,0,P|479:216|474:177,1,60,8|4,0:0|0:0,0:0:0:0:
