osu file format v14

[General]
AudioFilename: audio.mp3
AudioLeadIn: 0
PreviewTime: -1
Countdown: 3
SampleSet: Soft
StackLeniency: 1
Mode: 0
LetterboxInBreaks: 0
WidescreenStoryboard: 0

[Editor]
Bookmarks: 45099,51243
DistanceSpacing: 1.2
BeatDivisor: 8
GridSize: 8
TimelineZoom: 2.5

[Metadata]
Title:Foxtrot Fletcher
TitleUnicode:Foxtrot Fletcher
Artist:Steampianist
ArtistUnicode:Steampianist
Creator:Kusiu
Version:Foxtrot
Source:
Tags:
BeatmapID:2096938
BeatmapSetID:1001733

[Difficulty]
HPDrainRate:6
CircleSize:4
OverallDifficulty:7
ApproachRate:9
SliderMultiplier:1.7
SliderTickRate:1

[Events]
//Background and Video events
0,0,"bscgembk66u21.jpg",0,0
//Break Periods
2,116467,118570
2,119563,121473
2,122660,124763
//Storyboard Layer 0 (Background)
//Storyboard Layer 1 (Fail)
//Storyboard Layer 2 (Pass)
//Storyboard Layer 3 (Foreground)
//Storyboard Layer 4 (Overlay)
//Storyboard Sound Samples

[TimingPoints]
6346.19768088125,387.046675274371,3,2,0,53,1,0
8571,-1000,3,2,0,53,0,1
9055,-50,3,2,0,53,0,0
11764,-1000,3,2,0,53,0,0
12055,-50,3,2,0,53,0,0
15828,-33.3333333333333,3,2,0,53,0,0
20279,-200,4,2,0,53,0,0
20860,-33.3333333333333,4,2,0,53,0,0
21828,-33.3333333333333,4,2,0,53,0,0
23376,-200,4,2,0,53,0,0
24924,-33.3333333333333,4,2,0,53,0,0
28020,-200,4,2,0,53,0,0
28214,-33.3333333333333,4,2,0,53,0,0
29568,-25,4,2,0,53,0,0
33245,-1000,4,2,0,53,0,0
33439,-33.3333333333333,4,2,0,53,0,0
34358,-33.3333333333333,4,2,0,53,0,0
37503,-25,4,2,0,53,0,0
45099,-25,4,2,0,53,0,1
50469,-100,4,2,0,53,0,0
63629,-100,4,2,0,53,0,0
76014,-25,4,2,0,53,0,1
83755,-25,4,2,0,53,0,1
84626,-25,4,2,0,53,0,1
86851,-25,4,2,0,53,0,1
88400,-25,4,2,0,53,0,0
100785,-25,4,2,0,53,0,1
116267,-25,4,2,0,53,0,0
128265,-100,4,3,0,53,0,0
153617,-50,4,2,0,53,0,0
164261,-100,4,2,0,53,0,0
169437,-100,4,2,0,53,0,0
181291,-25,4,2,0,53,0,1
185935,-100,4,2,0,53,0,1
186129,-50,4,2,0,53,0,1
186709,-25,4,2,0,53,0,1
214722,-100,4,2,0,53,0,1
215544,-25,4,2,0,53,0,1
226962,-100,4,2,0,53,0,0
228123,-100,4,2,0,53,0,0
228510,-25,4,2,0,53,0,0

[Colours]
Combo1 : 128,0,255
Combo2 : 0,255,255
Combo3 : 255,255,128
Combo4 : 255,0,0
Combo5 : 0,255,0
Combo6 : 255,128,0

[HitObjects]
56,96,6346,5,0,0:0:0:0:
56,144,6442,1,0,0:0:0:0:
56,192,6539,1,0,0:0:0:0:
104,192,6636,1,0,0:0:0:0:
152,192,6733,1,0,0:0:0:0:
152,144,6926,1,0,0:0:0:0:
200,144,7023,1,0,0:0:0:0:
200,192,7120,1,0,0:0:0:0:
248,144,7362,1,0,0:0:0:0:
248,192,7652,1,0,0:0:0:0:
288,144,7894,2,0,B|408:144|408:144|472:144,1,170
464,200,8668,6,0,L|464:216,1,17
464,288,9152,1,0,0:0:0:0:
464,352,9249,1,0,0:0:0:0:
400,352,9345,1,0,0:0:0:0:
336,352,9442,1,0,0:0:0:0:
256,352,9636,6,0,L|256:304,1,42.5
160,192,9974,1,0,0:0:0:0:
256,40,10168,1,0,0:0:0:0:
344,192,10506,1,0,0:0:0:0:
256,96,10797,2,8,L|256:280,3,170
256,288,11522,1,0,0:0:0:0:
256,320,11764,2,8,L|240:320,1,17
184,320,12248,1,0,0:0:0:0:
128,232,12345,1,0,0:0:0:0:
128,136,12442,1,0,0:0:0:0:
184,56,12538,1,0,0:0:0:0:
320,56,12732,5,0,0:0:0:0:
352,64,12829,1,0,0:0:0:0:
360,96,12925,1,0,0:0:0:0:
360,184,13119,2,8,L|360:272,2,85
280,184,13506,2,8,L|280:272,2,85
208,184,13893,2,8,L|152:184,4,42.5
104,184,14280,2,8,L|104:272,2,85
104,96,14667,2,8,L|280:96,1,170
328,80,15054,1,0,0:0:0:0:
344,112,15151,1,0,0:0:0:0:
360,80,15248,1,0,0:0:0:0:
376,112,15345,1,0,0:0:0:0:
392,80,15441,1,0,0:0:0:0:
408,112,15538,1,0,0:0:0:0:
424,80,15635,1,0,0:0:0:0:
288,232,15828,6,0,B|192:232|192:232|192:152,2,127.500004863739
223,104,16215,2,0,B|319:104|319:104|319:184,2,127.500004863739
192,200,16602,2,0,B|192:104|192:104|272:104,2,127.500004863739
319,135,16989,2,8,B|319:231|319:231|239:231,2,127.500004863739
376,136,17231,2,8,B|376:56|376:56|264:8|56:56,1,382.500014591218
77,51,17570,2,8,B|197:91|317:51|317:51|317:315,1,446.250017023087
280,304,18151,5,0,0:0:0:0:
280,256,18247,1,0,0:0:0:0:
280,208,18344,1,0,0:0:0:0:
328,208,18441,1,0,0:0:0:0:
376,208,18538,1,0,0:0:0:0:
376,160,18634,1,0,0:0:0:0:
368,112,18731,6,10,L|320:64,1,63.7500024318696
368,168,18925,2,10,L|320:120,1,63.7500024318696
368,216,19118,2,10,L|320:168,1,63.7500024318696
368,272,19312,2,10,L|320:224,1,63.7500024318696
144,232,19505,2,10,L|192:280,1,63.7500024318696
144,176,19699,2,10,L|192:224,1,63.7500024318696
144,120,19892,2,10,L|192:168,1,63.7500024318696
144,64,20086,2,10,L|192:112,1,63.7500024318696
256,64,20279,6,0,L|304:112,2,63.7500024318696
184,56,21053,1,0,0:0:0:0:
176,96,21150,1,0,0:0:0:0:
184,136,21247,1,0,0:0:0:0:
208,168,21344,1,0,0:0:0:0:
240,192,21441,1,0,0:0:0:0:
280,200,21537,1,0,0:0:0:0:
320,192,21634,1,0,0:0:0:0:
360,160,21731,1,0,0:0:0:0:
384,128,21828,6,10,P|360:104|336:80,1,63.7500024318696
336,224,22021,2,10,L|288:176,1,63.7500024318696
176,224,22215,2,10,L|224:176,1,63.7500024318696
128,128,22408,2,10,L|176:80,1,63.7500024318696
424,96,22602,2,10,L|341:13,1,63.7500024318696
360,272,22795,2,10,L|277:189,1,63.7500024318696
152,272,22989,2,10,L|234:189,1,63.7500024318696
88,96,23182,2,10,L|170:13,1,63.7500024318696
256,64,23376,2,0,L|208:112,2,63.7500024318696
304,88,24150,5,0,0:0:0:0:
344,120,24247,1,0,0:0:0:0:
376,160,24343,1,0,0:0:0:0:
392,208,24440,1,0,0:0:0:0:
376,256,24537,1,0,0:0:0:0:
336,288,24634,1,0,0:0:0:0:
288,280,24730,1,0,0:0:0:0:
256,240,24827,1,0,0:0:0:0:
256,192,24924,6,10,L|338:109,1,63.7500024318696
256,192,25117,2,10,L|339:274,1,63.7500024318696
256,192,25311,2,10,L|174:275,1,63.7500024318696
256,192,25505,2,10,L|173:110,1,63.7500024318696
128,56,25698,2,10,L|203:138,1,63.7500024318696
128,328,25892,2,10,L|210:245,1,63.7500024318696
384,328,26085,2,10,L|301:246,1,63.7500024318696
384,56,26279,2,10,L|302:139,1,63.7500024318696
336,112,26472,6,4,P|384:224|336:344,1,255.000009727478
240,344,26859,2,4,P|176:208|280:128,1,255.000009727478
144,64,27246,2,4,L|144:335,1,255.000009727478
400,320,27633,2,4,L|400:49,1,255.000009727478
400,48,28020,2,0,L|352:48,1,42.5
320,48,28311,1,0,0:0:0:0:
264,56,28407,1,0,0:0:0:0:
208,56,28504,1,0,0:0:0:0:
168,96,28601,1,0,0:0:0:0:
200,144,28698,1,0,0:0:0:0:
256,136,28794,1,0,0:0:0:0:
312,144,28891,1,0,0:0:0:0:
352,184,28988,1,0,0:0:0:0:
320,232,29085,1,0,0:0:0:0:
264,224,29181,1,0,0:0:0:0:
208,240,29278,1,0,0:0:0:0:
184,288,29375,1,0,0:0:0:0:
224,328,29472,1,0,0:0:0:0:
280,336,29568,6,8,B|424:336|424:336|424:120,1,340
424,56,29956,2,8,B|336:56|336:56|336:144|336:144|256:144|256:144|256:232,1,340
200,232,30343,2,8,B|200:120|200:120|320:120|320:120|320:232,1,340
256,192,30730,12,0,31117,0:0:0:0:
256,128,31310,5,0,0:0:0:0:
288,96,31407,1,0,0:0:0:0:
320,128,31504,1,0,0:0:0:0:
400,128,31697,2,2,B|480:128|480:128|480:240,2,170
400,218,32084,2,2,B|320:218|320:218|320:106,2,170
400,304,32471,6,2,L|8:304,3,340
64,272,33149,1,0,0:0:0:0:
64,240,33245,2,0,L|64:232,1,8.5
64,168,33536,1,0,0:0:0:0:
136,168,33633,1,0,0:0:0:0:
208,168,33730,1,0,0:0:0:0:
280,168,33826,1,0,0:0:0:0:
352,168,33923,1,0,0:0:0:0:
424,168,34020,1,0,0:0:0:0:
424,96,34116,1,0,0:0:0:0:
352,96,34213,1,0,0:0:0:0:
280,96,34358,6,8,L|200:96,1,63.7500024318696,8|8,2:0|2:0,2:0:0:0:
216,160,34745,2,8,L|296:160,1,63.7500024318696,8|8,2:0|2:0,2:0:0:0:
216,224,34939,2,4,L|296:224,1,63.7500024318696,4|4,2:0|2:0,2:0:0:0:
344,192,35374,1,0,0:0:0:0:
344,56,35761,1,0,0:0:0:0:
360,80,35858,1,0,0:0:0:0:
344,104,35955,1,0,0:0:0:0:
256,112,36148,1,0,0:0:0:0:
240,80,36245,1,0,0:0:0:0:
256,48,36342,1,0,0:0:0:0:
168,48,36535,1,0,0:0:0:0:
192,80,36632,1,0,0:0:0:0:
168,115,36729,1,0,0:0:0:0:
88,224,36922,1,0,0:0:0:0:
72,200,37019,1,0,0:0:0:0:
88,176,37116,1,0,0:0:0:0:
104,152,37213,1,0,0:0:0:0:
88,128,37309,1,0,0:0:0:0:
88,96,37503,6,8,L|280:96,2,170
88,272,37890,2,8,L|88:82,2,170
258,274,38277,2,8,L|66:274,2,170
258,104,38664,2,8,L|258:296,2,170
344,104,39051,2,0,L|344:296,1,170
344,328,39245,1,0,0:0:0:0:
256,328,39438,1,0,0:0:0:0:
248,304,39535,1,0,0:0:0:0:
256,280,39632,1,0,0:0:0:0:
296,264,39825,1,0,0:0:0:0:
344,240,39922,1,0,0:0:0:0:
384,208,40019,1,0,0:0:0:0:
400,160,40116,1,0,0:0:0:0:
392,112,40212,1,0,0:0:0:0:
368,72,40309,1,0,0:0:0:0:
328,48,40406,1,0,0:0:0:0:
280,40,40599,6,8,L|48:40,1,170
112,80,40793,1,0,0:0:0:0:
200,80,40986,1,0,0:0:0:0:
248,80,41083,1,0,0:0:0:0:
296,80,41180,1,0,0:0:0:0:
304,160,41373,1,0,0:0:0:0:
248,160,41470,1,0,0:0:0:0:
192,160,41567,1,0,0:0:0:0:
184,240,41760,1,0,0:0:0:0:
248,240,41857,1,0,0:0:0:0:
312,240,41954,1,0,0:0:0:0:
400,240,42148,5,0,0:0:0:0:
456,176,42341,1,0,0:0:0:0:
456,88,42535,1,0,0:0:0:0:
344,40,42728,1,0,0:0:0:0:
168,40,42922,1,0,0:0:0:0:
40,192,43018,1,0,0:0:0:0:
85,263,43309,6,4,B|190:312|267:255|360:207|449:278,1,340
424,200,43696,1,0,0:0:0:0:
424,160,43889,1,0,0:0:0:0:
424,120,44083,1,0,0:0:0:0:
424,80,44276,1,0,0:0:0:0:
384,80,44470,1,0,0:0:0:0:
344,80,44567,1,0,0:0:0:0:
304,80,44663,2,4,B|372:92|372:92|410:159|410:159|392:232|392:232|287:265|287:265|184:232|184:232|156:153|156:153|65:150|65:150|47:82,1,680
48,48,45099,6,4,L|48:141,1,85
144,88,45244,2,4,L|144:184,1,85
240,128,45437,2,4,L|240:224,1,85
336,168,45631,2,4,L|336:264,1,85
432,200,45824,2,4,L|432:296,1,85
432,200,46018,2,4,L|432:296,1,85
432,200,46115,2,4,L|432:296,1,85
320,320,46599,6,4,L|208:320,1,85
152,256,46792,2,4,L|264:256,1,85
392,192,46986,2,4,L|280:192,1,85
80,128,47179,2,4,L|192:128,1,85
480,48,47373,2,4,L|368:48,1,85
480,48,47566,2,4,L|368:48,1,85
320,48,47760,5,0,0:0:0:0:
320,88,47856,1,0,0:0:0:0:
320,128,47953,1,0,0:0:0:0:
320,168,48050,1,0,0:0:0:0:
320,216,48147,1,2,0:0:0:0:
344,256,48244,1,0,0:0:0:0:
392,272,48340,1,0,0:0:0:0:
440,256,48437,1,0,0:0:0:0:
458,207,48534,1,2,0:0:0:0:
448,152,48631,1,0,0:0:0:0:
408,96,48728,1,0,0:0:0:0:
352,64,48825,1,0,0:0:0:0:
288,56,48921,1,2,0:0:0:0:
224,72,49018,1,0,0:0:0:0:
176,120,49115,1,0,0:0:0:0:
160,184,49212,1,0,0:0:0:0:
176,248,49308,1,2,0:0:0:0:
232,296,49405,1,0,0:0:0:0:
304,304,49501,1,0,0:0:0:0:
376,272,49598,1,0,0:0:0:0:
416,208,49695,1,4,0:0:0:0:
256,192,49792,12,0,50469,0:0:0:0:
384,72,51050,5,0,0:0:0:0:
432,48,51147,1,0,0:0:0:0:
488,40,51244,2,0,B|424:328|88:328|32:40,1,680
80,40,52985,1,0,0:0:0:0:
128,40,53178,1,0,0:0:0:0:
176,40,53372,1,0,0:0:0:0:
224,40,53565,1,0,0:0:0:0:
272,40,53952,1,0,0:0:0:0:
352,40,54339,6,0,B|512:32|424:192|496:360|72:16|72:328,1,637.5
120,328,55888,1,0,0:0:0:0:
200,328,56275,2,0,L|240:280,1,42.5
256,328,56468,1,0,0:0:0:0:
336,328,56855,2,0,L|376:280,1,42.5
392,328,57048,1,0,0:0:0:0:
472,328,57436,6,0,B|488:80|144:176|384:264|160:400|40:408|40:176,1,680
40,152,59178,1,0,0:0:0:0:
88,80,59565,1,0,0:0:0:0:
88,80,59661,1,0,0:0:0:0:
88,80,59758,1,0,0:0:0:0:
176,72,59952,1,0,0:0:0:0:
184,80,60048,1,0,0:0:0:0:
184,80,60145,1,0,0:0:0:0:
264,72,60532,6,0,P|456:72|256:296,1,680
176,288,62467,2,0,L|176:192,1,85
176,136,62855,1,0,0:0:0:0:
208,136,62951,1,0,0:0:0:0:
248,136,63048,1,0,0:0:0:0:
280,136,63145,1,0,0:0:0:0:
312,136,63242,1,0,0:0:0:0:
344,136,63338,1,0,0:0:0:0:
376,136,63435,1,0,0:0:0:0:
408,136,63532,1,0,0:0:0:0:
440,136,63629,5,0,0:0:0:0:
368,136,63822,1,0,0:0:0:0:
272,136,64016,1,0,0:0:0:0:
176,136,64209,1,0,0:0:0:0:
224,304,64403,1,0,0:0:0:0:
320,304,64596,1,0,0:0:0:0:
368,304,64693,1,0,0:0:0:0:
456,304,64887,1,0,0:0:0:0:
424,280,64983,1,0,0:0:0:0:
456,248,65080,1,0,0:0:0:0:
424,224,65177,1,0,0:0:0:0:
272,184,65370,5,0,0:0:0:0:
424,128,65564,1,0,0:0:0:0:
272,72,65757,1,0,0:0:0:0:
424,16,65951,1,0,0:0:0:0:
184,16,66144,1,0,0:0:0:0:
136,16,66241,1,0,0:0:0:0:
48,16,66435,1,0,0:0:0:0:
48,64,66531,1,0,0:0:0:0:
48,112,66628,1,0,0:0:0:0:
48,160,66725,1,0,0:0:0:0:
112,264,66919,5,0,0:0:0:0:
400,264,67112,1,0,0:0:0:0:
464,192,67306,1,0,0:0:0:0:
400,120,67499,1,0,0:0:0:0:
112,120,67693,1,0,0:0:0:0:
40,192,67790,1,0,0:0:0:0:
112,192,67983,5,0,0:0:0:0:
160,192,68080,1,0,0:0:0:0:
208,192,68176,1,0,0:0:0:0:
256,192,68273,1,0,0:0:0:0:
328,120,68467,1,0,0:0:0:0:
184,120,68660,1,0,0:0:0:0:
184,264,68854,1,0,0:0:0:0:
328,264,68950,1,0,0:0:0:0:
376,208,69241,5,0,0:0:0:0:
381,164,69338,1,0,0:0:0:0:
368,123,69434,1,0,0:0:0:0:
338,93,69531,1,0,0:0:0:0:
335,35,69628,1,0,0:0:0:0:
298,51,69725,5,0,0:0:0:0:
276,82,69821,1,0,0:0:0:0:
272,123,69918,1,0,0:0:0:0:
332,125,70015,1,0,0:0:0:0:
305,169,70112,1,0,0:0:0:0:
285,215,70208,5,0,0:0:0:0:
306,259,70306,1,0,0:0:0:0:
331,304,70402,1,0,0:0:0:0:
282,325,70498,1,0,0:0:0:0:
225,324,70594,1,0,0:0:0:0:
178,293,70691,1,0,0:0:0:0:
147,262,70789,6,0,L|131:246,4,21.25
176,176,71079,1,0,0:0:0:0:
208,208,71176,1,0,0:0:0:0:
248,216,71273,1,0,0:0:0:0:
288,200,71370,1,0,0:0:0:0:
319,245,71467,5,0,0:0:0:0:
353,215,71563,1,0,0:0:0:0:
345,171,71660,1,0,0:0:0:0:
313,142,71757,1,0,0:0:0:0:
364,109,71854,5,0,0:0:0:0:
370,65,71950,1,0,0:0:0:0:
329,76,72047,1,0,0:0:0:0:
283,86,72144,1,0,0:0:0:0:
286,38,72241,5,0,0:0:0:0:
243,65,72338,1,0,0:0:0:0:
247,115,72434,1,0,0:0:0:0:
229,157,72531,1,0,0:0:0:0:
200,192,72627,1,0,0:0:0:0:
168,216,72724,1,0,0:0:0:0:
128,216,72821,1,0,0:0:0:0:
96,200,72918,1,0,0:0:0:0:
80,168,73014,1,0,0:0:0:0:
80,136,73111,1,0,0:0:0:0:
104,104,73208,1,0,0:0:0:0:
136,88,73305,1,0,0:0:0:0:
176,96,73402,1,0,0:0:0:0:
200,120,73498,1,0,0:0:0:0:
216,152,73595,1,0,0:0:0:0:
240,176,73692,1,0,0:0:0:0:
272,184,73789,1,0,0:0:0:0:
312,176,73885,2,0,L|328:160,4,21.25
352,136,74176,5,0,0:0:0:0:
376,104,74272,1,0,0:0:0:0:
368,64,74369,1,0,0:0:0:0:
328,48,74466,5,6,0:0:0:0:
280,56,74563,1,0,0:0:0:0:
232,80,74659,1,0,0:0:0:0:
192,120,74756,1,0,0:0:0:0:
168,176,74853,5,6,0:0:0:0:
176,240,74950,1,0,0:0:0:0:
224,288,75046,1,0,0:0:0:0:
288,288,75143,1,0,0:0:0:0:
344,256,75240,5,6,0:0:0:0:
376,192,75337,1,0,0:0:0:0:
368,128,75434,1,0,0:0:0:0:
320,80,75530,1,0,0:0:0:0:
256,72,75627,5,6,0:0:0:0:
192,96,75724,1,0,0:0:0:0:
152,152,75821,1,0,0:0:0:0:
152,216,75917,1,0,0:0:0:0:
176,280,76014,6,8,P|200:264|192:264,2,85
304,256,76208,2,8,P|328:240|320:240,2,85,8|8|8,0:0|0:0|0:0,0:0:0:0:
312,184,76401,2,8,P|288:200|296:200,2,85
200,248,76595,2,8,P|176:264|184:264,2,85
120,208,76788,5,2,0:0:0:0:
80,184,76885,1,0,0:0:0:0:
120,160,76982,1,0,0:0:0:0:
80,136,77078,1,0,0:0:0:0:
120,112,77175,1,2,0:0:0:0:
79,89,77272,1,0,0:0:0:0:
120,72,77369,1,0,0:0:0:0:
80,48,77466,5,0,0:0:0:0:
96,48,77562,1,2,0:0:0:0:
112,48,77659,1,0,0:0:0:0:
128,48,77756,1,0,0:0:0:0:
144,48,77853,1,0,0:0:0:0:
160,48,77949,1,2,0:0:0:0:
176,48,78046,1,0,0:0:0:0:
192,48,78143,1,0,0:0:0:0:
208,48,78240,1,0,0:0:0:0:
184,48,78336,5,2,0:0:0:0:
232,48,78434,1,0,0:0:0:0:
280,56,78531,1,0,0:0:0:0:
328,72,78627,1,0,0:0:0:0:
360,112,78724,1,2,0:0:0:0:
376,160,78821,1,0,0:0:0:0:
376,208,78917,1,0,0:0:0:0:
376,256,79014,1,0,0:0:0:0:
376,304,79110,6,8,L|160:304,1,170
128,224,79304,2,8,L|344:224,1,170
376,144,79498,2,8,L|160:144,1,170
128,64,79691,2,8,L|344:64,1,170
344,64,79885,1,0,0:0:0:0:
384,64,79981,1,0,0:0:0:0:
384,112,80078,1,0,0:0:0:0:
344,112,80175,1,0,0:0:0:0:
344,160,80272,1,0,0:0:0:0:
384,160,80368,1,0,0:0:0:0:
384,208,80465,1,0,0:0:0:0:
344,208,80562,1,0,0:0:0:0:
296,208,80659,5,2,0:0:0:0:
264,224,80755,5,0,0:0:0:0:
232,224,80852,1,0,0:0:0:0:
200,208,80949,1,0,0:0:0:0:
200,160,81046,1,2,0:0:0:0:
232,144,81142,1,0,0:0:0:0:
264,144,81239,1,0,0:0:0:0:
296,160,81336,1,0,0:0:0:0:
344,256,81433,1,2,0:0:0:0:
288,288,81530,1,0,0:0:0:0:
224,288,81626,1,0,0:0:0:0:
168,256,81723,1,0,0:0:0:0:
168,104,81820,1,2,0:0:0:0:
224,64,81917,1,0,0:0:0:0:
288,64,82013,1,0,0:0:0:0:
344,104,82110,1,0,0:0:0:0:
472,168,82207,6,8,L|280:168,1,170
424,208,82400,2,8,L|232:208,1,170
368,168,82594,2,8,L|176:168,1,170
304,208,82787,2,8,L|112:208,1,170
64,208,82981,1,2,0:0:0:0:
64,280,83078,1,0,0:0:0:0:
136,280,83174,1,0,0:0:0:0:
208,280,83271,1,0,0:0:0:0:
280,280,83368,1,2,0:0:0:0:
352,280,83465,1,0,0:0:0:0:
424,280,83562,1,0,0:0:0:0:
424,208,83658,1,0,0:0:0:0:
424,136,83755,6,8,P|480:136|328:136,8,170
424,96,84626,1,0,0:0:0:0:
384,64,84723,1,0,0:0:0:0:
344,96,84819,1,0,0:0:0:0:
304,64,84916,1,2,0:0:0:0:
264,96,85013,1,0,0:0:0:0:
224,64,85110,1,0,0:0:0:0:
184,96,85206,1,0,0:0:0:0:
184,144,85303,6,8,B|248:200|248:200|160:272,1,170
240,312,85497,2,8,B|296:248|296:248|368:336,1,170
408,256,85690,2,8,B|344:200|344:200|432:128,1,170
352,88,85884,2,8,B|296:152|296:152|224:64,1,170
272,200,86077,5,2,0:0:0:0:
304,168,86174,1,0,0:0:0:0:
336,200,86271,1,0,0:0:0:0:
304,232,86368,1,0,0:0:0:0:
272,200,86464,1,2,0:0:0:0:
304,168,86561,1,0,0:0:0:0:
336,200,86658,1,0,0:0:0:0:
304,232,86755,1,0,0:0:0:0:
240,248,86851,6,4,L|368:136,1,170
368,248,87045,2,4,L|232:128,1,170
112,247,87238,2,4,L|240:135,1,170
240,247,87432,2,4,L|104:127,1,170
96,336,87625,2,4,L|224:224,1,170
416,48,87819,2,4,L|288:160,1,170
56,192,88013,2,4,L|248:192,1,170
456,192,88207,2,4,L|264:192,1,170
288,224,88400,5,2,0:0:0:0:
288,256,88496,1,0,0:0:0:0:
320,256,88593,1,0,0:0:0:0:
320,288,88690,1,0,0:0:0:0:
320,320,88787,1,2,0:0:0:0:
320,352,88883,1,0,0:0:0:0:
352,352,88980,1,0,0:0:0:0:
384,352,89077,1,0,0:0:0:0:
384,320,89174,1,0,0:0:0:0:
384,64,89367,1,0,0:0:0:0:
128,64,89561,1,0,0:0:0:0:
128,320,89754,1,0,0:0:0:0:
256,320,89948,5,2,0:0:0:0:
256,296,90045,1,0,0:0:0:0:
256,272,90141,1,0,0:0:0:0:
256,248,90238,1,0,0:0:0:0:
256,224,90335,1,2,0:0:0:0:
256,200,90432,1,0,0:0:0:0:
256,176,90528,1,0,0:0:0:0:
256,152,90625,1,0,0:0:0:0:
256,128,90722,1,2,0:0:0:0:
256,40,90915,1,0,0:0:0:0:
256,344,91109,1,0,0:0:0:0:
256,40,91302,1,0,0:0:0:0:
256,344,91496,5,2,0:0:0:0:
296,336,91593,1,0,0:0:0:0:
336,312,91689,1,0,0:0:0:0:
368,280,91786,1,0,0:0:0:0:
392,240,91883,1,2,0:0:0:0:
408,200,91980,1,0,0:0:0:0:
408,152,92077,1,0,0:0:0:0:
392,104,92173,1,0,0:0:0:0:
368,64,92270,1,2,0:0:0:0:
256,40,92464,1,0,0:0:0:0:
48,192,92657,1,0,0:0:0:0:
256,336,92851,1,0,0:0:0:0:
344,336,93044,6,8,L|344:160,1,170
408,168,93238,1,0,0:0:0:0:
408,104,93334,1,0,0:0:0:0:
344,104,93431,1,6,0:0:0:0:
272,104,93625,5,0,0:0:0:0:
200,104,93721,1,0,0:0:0:0:
128,104,93818,1,6,0:0:0:0:
128,176,94011,5,0,0:0:0:0:
200,176,94108,1,0,0:0:0:0:
272,176,94205,1,6,0:0:0:0:
272,248,94302,1,0,0:0:0:0:
200,248,94398,1,0,0:0:0:0:
128,248,94495,1,0,0:0:0:0:
128,320,94592,5,2,0:0:0:0:
152,320,94689,1,0,0:0:0:0:
184,320,94785,1,0,0:0:0:0:
208,320,94882,1,0,0:0:0:0:
232,320,94979,1,2,0:0:0:0:
256,320,95076,1,0,0:0:0:0:
280,320,95173,1,0,0:0:0:0:
304,320,95270,1,0,0:0:0:0:
328,320,95366,1,2,0:0:0:0:
328,192,95560,1,0,0:0:0:0:
184,192,95753,1,0,0:0:0:0:
184,320,95947,1,0,0:0:0:0:
256,320,96141,5,2,0:0:0:0:
288,288,96237,1,0,0:0:0:0:
320,256,96334,1,0,0:0:0:0:
352,224,96431,1,0,0:0:0:0:
320,184,96528,1,2,0:0:0:0:
288,152,96624,1,0,0:0:0:0:
320,120,96721,1,0,0:0:0:0:
352,88,96818,1,0,0:0:0:0:
320,48,96915,1,2,0:0:0:0:
240,48,97108,1,0,0:0:0:0:
152,48,97302,1,0,0:0:0:0:
96,48,97495,1,0,0:0:0:0:
64,48,97592,5,0,0:0:0:0:
64,80,97689,1,2,0:0:0:0:
96,80,97786,1,0,0:0:0:0:
96,112,97883,1,0,0:0:0:0:
96,144,97980,1,0,0:0:0:0:
64,144,98076,1,2,0:0:0:0:
64,184,98173,1,0,0:0:0:0:
64,224,98269,1,0,0:0:0:0:
64,264,98366,1,0,0:0:0:0:
64,304,98463,1,2,0:0:0:0:
448,304,98656,1,0,0:0:0:0:
448,80,98850,1,0,0:0:0:0:
64,80,99043,1,0,0:0:0:0:
64,152,99237,6,8,L|64:240,1,85
96,128,99430,2,8,L|96:216,1,85
128,152,99624,2,8,L|128:240,1,85
160,128,99817,2,8,L|160:216,1,85
336,128,100011,2,8,L|336:216,1,85
48,176,100204,2,8,L|48:264,1,85
176,128,100398,2,8,L|176:216,1,85
464,176,100591,2,8,L|464:264,1,85
432,264,100785,5,2,0:0:0:0:
392,264,100882,1,0,0:0:0:0:
352,248,100979,1,0,0:0:0:0:
312,224,101075,1,0,0:0:0:0:
272,208,101172,1,2,0:0:0:0:
232,200,101269,1,0,0:0:0:0:
192,208,101366,1,0,0:0:0:0:
152,224,101462,1,0,0:0:0:0:
112,232,101559,6,8,L|112:56,1,170
184,32,101752,2,8,L|184:208,1,170
256,232,101946,2,8,L|256:56,1,170
328,32,102140,2,8,L|328:208,1,170
416,176,102333,2,8,L|328:336,1,170
288,296,102527,2,8,L|376:136,1,170
328,112,102720,2,8,L|240:272,1,170
208,224,102914,2,8,L|296:64,1,170
312,48,103108,1,2,0:0:0:0:
360,48,103205,5,0,0:0:0:0:
400,72,103302,1,0,0:0:0:0:
400,120,103398,1,0,0:0:0:0:
360,160,103495,1,2,0:0:0:0:
400,200,103592,1,0,0:0:0:0:
432,240,103689,1,0,0:0:0:0:
464,280,103786,1,0,0:2:0:0:
424,320,103881,1,2,0:0:0:0:
403,320,103978,1,0,0:0:0:0:
382,320,104075,1,0,0:0:0:0:
361,320,104172,1,0,0:0:0:0:
340,320,104269,1,2,0:0:0:0:
319,320,104365,1,0,0:0:0:0:
298,320,104462,1,0,0:0:0:0:
278,320,104559,1,0,0:0:0:0:
208,320,104655,5,2,0:0:0:0:
120,304,104751,1,0,0:0:0:0:
56,240,104848,1,0,0:0:0:0:
40,152,104945,1,0,0:0:0:0:
64,72,105042,1,2,0:0:0:0:
128,16,105139,1,0,0:0:0:0:
208,0,105235,1,0,0:0:0:0:
288,16,105430,1,0,0:0:0:0:
304,56,105527,1,0,0:0:0:0:
344,72,105623,1,4,0:0:0:0:
224,368,105817,1,0,0:0:0:0:
208,328,105913,1,0,0:0:0:0:
168,304,106010,1,4,0:0:0:0:
80,160,106204,1,0,0:0:0:0:
120,144,106301,1,0,0:0:0:0:
136,104,106397,1,4,0:0:0:0:
440,216,106591,1,2,0:0:0:0:
400,240,106688,1,0,0:0:0:0:
384,280,106784,1,4,0:0:0:0:
336,280,106881,5,0,0:0:0:0:
288,280,106978,1,2,0:0:0:0:
240,280,107074,1,0,0:0:0:0:
240,232,107171,1,0,0:0:0:0:
288,232,107268,1,0,0:0:0:0:
288,184,107365,1,2,0:0:0:0:
240,184,107461,1,0,0:0:0:0:
192,184,107558,1,0,0:0:0:0:
128,184,107655,1,0,0:0:0:0:
64,184,107752,1,2,0:0:0:0:
64,120,107848,1,0,0:0:0:0:
128,120,107945,1,0,0:0:0:0:
96,56,108042,1,0,0:0:0:0:
168,56,108139,1,2,0:0:0:0:
240,56,108235,1,0,0:0:0:0:
312,56,108332,1,0,0:0:0:0:
368,80,108429,6,8,L|368:256,1,170
312,80,108623,2,8,L|312:256,1,170
256,80,108816,2,8,L|256:256,1,170
200,80,109010,2,8,L|200:256,1,170
304,272,109203,5,0,0:0:0:0:
344,272,109300,1,2,0:0:0:0:
384,272,109397,1,0,0:0:0:0:
384,312,109493,1,0,0:0:0:0:
344,312,109590,1,0,0:0:0:0:
304,312,109687,1,2,0:0:0:0:
304,272,109784,1,0,0:0:0:0:
344,272,109881,1,0,0:0:0:0:
384,272,109977,1,0,0:0:0:0:
384,248,110074,2,8,B|384:176|384:176|272:176,1,170
224,184,110267,2,8,B|224:112|224:112|336:112,1,170
384,120,110461,2,8,B|384:48|384:48|272:48,1,170
224,48,110655,2,8,L|40:48,1,170
224,104,110848,2,8,L|32:104,1,170
224,160,111042,2,8,L|32:160,1,170
224,216,111235,2,8,L|32:216,1,170
224,272,111429,2,8,L|32:272,1,170
224,272,111622,6,4,B|56:272|56:272|56:40|56:40|56:40,1,340
128,104,112009,2,4,L|480:104,1,340
464,176,112396,2,4,B|464:352|464:352|256:352,1,340
224,352,112784,2,4,L|224:8,1,340
232,16,113074,5,0,0:0:0:0:
248,16,113122,1,0,0:0:0:0:
264,16,113171,1,0,0:0:0:0:
304,24,113364,1,0,0:0:0:0:
328,48,113558,1,0,0:0:0:0:
344,80,113751,1,0,0:0:0:0:
336,120,113945,1,0,0:0:0:0:
312,144,114138,1,0,0:0:0:0:
280,144,114332,1,0,0:0:0:0:
256,120,114525,5,0,0:0:0:0:
224,104,114719,1,12,0:0:0:0:
136,72,114912,1,4,0:0:0:0:
256,352,115106,1,4,0:0:0:0:
376,72,115299,1,4,0:0:0:0:
256,192,115493,1,4,0:0:0:0:
256,160,115590,1,4,0:0:0:0:
312,160,115880,5,0,0:0:0:0:
288,128,115977,1,0,0:0:0:0:
256,112,116073,1,0,0:0:0:0:
216,128,116170,1,0,0:0:0:0:
192,160,116267,1,4,0:0:0:0:
232,176,119170,5,8,0:0:0:0:
280,176,119267,1,8,0:0:0:0:
256,216,119363,1,8,0:0:0:0:
192,192,122073,6,0,B|216:128|304:128|328:208,1,170
256,216,122460,1,8,0:0:0:0:
200,144,125363,5,8,0:0:0:0:
312,144,125459,1,8,0:0:0:0:
256,248,125556,1,8,0:0:0:0:
256,192,126330,1,8,0:0:0:0:
256,192,127104,1,8,0:0:0:0:
256,192,127491,1,8,0:0:0:0:
312,224,127878,1,8,0:0:0:0:
256,272,128265,5,0,0:0:0:0:
200,224,128362,1,0,0:0:0:0:
200,152,128459,1,0,0:0:0:0:
256,104,128556,1,0,0:0:0:0:
312,152,128652,1,0,0:0:0:0:
312,88,129039,1,0,0:0:0:0:
368,128,129427,1,0,0:0:0:0:
368,192,129814,1,0,0:0:0:0:
312,224,130201,5,0,0:0:0:0:
312,160,130588,1,0,0:0:0:0:
256,192,130975,1,0,0:0:0:0:
256,128,131410,1,0,0:0:0:0:
256,192,131555,1,0,0:0:0:0:
200,160,132136,5,0,0:0:0:0:
200,224,132523,1,0,0:0:0:0:
256,192,132910,1,0,0:0:0:0:
320,192,133297,1,0,0:0:0:0:
384,192,133684,1,0,0:0:0:0:
352,136,134071,1,0,0:0:0:0:
288,136,134458,1,0,0:0:0:0:
224,136,134845,5,0,0:0:0:0:
200,136,134894,1,0,0:0:0:0:
144,136,135232,1,0,0:0:0:0:
168,136,135281,1,0,0:0:0:0:
144,216,135619,1,0,0:0:0:0:
144,240,135668,1,0,0:0:0:0:
232,216,136006,1,0,0:0:0:0:
232,192,136055,1,0,0:0:0:0:
296,216,136200,1,0,0:0:0:0:
296,176,136297,1,0,0:0:0:0:
328,176,136442,1,0,0:0:0:0:
328,216,136587,1,0,0:0:0:0:
408,216,136926,5,0,0:0:0:0:
328,288,137264,1,0,0:0:0:0:
240,288,137506,1,0,0:0:0:0:
240,248,137603,1,0,0:0:0:0:
144,200,137748,1,0,0:0:0:0:
184,200,137845,1,0,0:0:0:0:
240,200,137990,1,0,0:0:0:0:
288,160,138183,2,0,P|240:136|192:168,1,106.25
200,184,138522,1,0,0:0:0:0:
200,224,138716,1,0,0:0:0:0:
200,272,138909,2,0,P|240:184|352:264,1,255
360,280,139683,5,0,0:0:0:0:
320,128,139877,1,0,0:0:0:0:
464,192,140070,1,0,0:0:0:0:
384,192,140457,6,0,L|296:192,2,85
296,168,141038,1,0,0:0:0:0:
296,136,141231,1,0,0:0:0:0:
296,104,141425,1,0,0:0:0:0:
240,104,141812,1,0,0:0:0:0:
240,136,142006,1,0,0:0:0:0:
240,168,142199,1,0,0:0:0:0:
240,56,142393,1,0,0:0:0:0:
192,56,142586,5,0,0:0:0:0:
192,96,142635,1,0,0:0:0:0:
192,136,142780,1,0,0:0:0:0:
96,136,142973,1,0,0:0:0:0:
144,136,143118,1,0,0:0:0:0:
144,176,143263,1,0,0:0:0:0:
144,208,143360,1,0,0:0:0:0:
144,240,143457,1,0,0:0:0:0:
144,272,143554,1,0,0:0:0:0:
144,304,143651,1,0,0:0:0:0:
216,304,143941,5,0,0:0:0:0:
216,232,144134,1,0,0:0:0:0:
256,232,144231,1,0,0:0:0:0:
296,232,144328,1,0,0:0:0:0:
368,232,144521,1,0,0:0:0:0:
424,184,144715,1,0,0:0:0:0:
424,112,144908,1,0,0:0:0:0:
368,56,145102,1,0,0:0:0:0:
328,56,145199,1,0,0:0:0:0:
288,56,145295,1,0,0:0:0:0:
224,56,145683,5,0,0:0:0:0:
224,144,145924,1,0,0:0:0:0:
152,96,146263,1,0,0:0:0:0:
96,96,146457,1,0,0:0:0:0:
96,120,146553,1,0,0:0:0:0:
96,144,146650,1,0,0:0:0:0:
96,168,146844,2,0,B|96:216|216:224|240:168,1,170
240,120,147424,5,0,0:0:0:0:
240,232,147714,1,0,0:0:0:0:
176,200,148585,1,0,0:0:0:0:
304,200,148779,1,0,0:0:0:0:
304,136,149408,1,0,0:0:0:0:
360,168,149505,1,0,0:0:0:0:
360,232,149795,1,0,0:0:0:0:
184,232,150134,1,0,0:0:0:0:
184,168,150327,1,4,0:0:0:0:
248,168,150714,1,4,0:0:0:0:
248,232,151101,1,4,0:0:0:0:
312,232,151488,1,4,0:0:0:0:
312,168,151875,5,4,0:0:0:0:
368,128,152069,1,0,0:0:0:0:
368,64,152262,1,0,0:0:0:0:
312,64,152456,1,0,0:0:0:0:
248,64,152649,1,0,0:0:0:0:
216,96,152746,1,2,0:0:0:0:
96,64,152940,1,0,0:0:0:0:
128,96,153036,1,2,0:0:0:0:
168,144,153230,1,0,0:0:0:0:
168,168,153278,1,0,0:0:0:0:
168,192,153327,1,0,0:0:0:0:
168,216,153375,1,0,0:0:0:0:
168,240,153423,1,0,0:0:0:0:
103,244,153617,6,8,P|168:304|232:232,2,191.25
230,195,154391,2,8,P|165:135|101:207,2,191.25
166,200,154972,2,8,B|228:316|302:10|336:306|435:272|279:276,1,297.5
264,280,155407,1,0,0:0:0:0:
224,304,155552,1,0,0:0:0:0:
176,312,155794,1,0,0:0:0:0:
128,304,156084,1,0,0:0:0:0:
88,280,156375,1,0,0:0:0:0:
176,256,156520,5,0,0:0:0:0:
176,200,156617,2,8,L|360:200,2,170
144,200,157100,1,0,0:0:0:0:
112,200,157197,1,0,0:0:0:0:
80,200,157294,1,2,0:0:0:0:
176,120,157391,2,8,L|-8:120,2,170
208,120,157874,1,0,0:0:0:0:
288,120,158068,6,8,P|408:184|416:288,1,212.5
368,248,158407,1,0,0:0:0:0:
368,192,158649,1,0,0:0:0:0:
424,192,158842,1,4,0:0:0:0:
224,192,159181,1,4,0:0:0:0:
168,192,159423,5,0,0:0:0:0:
224,192,159616,1,0,0:0:0:0:
280,192,159810,2,8,L|280:144,1,42.5
280,48,160003,2,8,L|280:96,1,42.5
336,192,160197,2,8,L|336:144,1,42.5
336,48,160390,2,8,L|336:96,1,42.5
392,120,160681,1,0,0:0:0:0:
392,232,161019,1,0,0:0:0:0:
392,312,161213,1,4,0:0:0:0:
256,312,161455,1,4,0:0:0:0:
120,312,161745,5,0,0:0:0:0:
120,192,161987,1,0,0:0:0:0:
120,72,162229,1,0,0:0:0:0:
256,72,162519,1,4,0:0:0:0:
392,72,162713,1,4,0:0:0:0:
256,192,163003,5,0,0:0:0:0:
208,192,163100,1,2,0:0:0:0:
184,152,163293,1,0,0:0:0:0:
208,104,163487,1,0,0:0:0:0:
232,152,163777,1,0,0:0:0:0:
256,104,163874,1,2,0:0:0:0:
280,152,164067,1,0,0:0:0:0:
352,152,164261,6,8,B|456:240|328:232|312:296|392:336,1,212.5
375,326,164841,2,8,P|328:320|320:272,1,85
288,216,165325,1,0,0:0:0:0:
256,256,165422,1,2,0:0:0:0:
288,216,165664,1,0,0:0:0:0:
256,256,165809,1,2,0:0:0:0:
256,336,166002,5,0,0:0:0:0:
208,336,166099,1,0,0:0:0:0:
160,336,166196,1,0,0:0:0:0:
160,296,166293,1,0,0:0:0:0:
160,256,166389,1,4,0:0:0:0:
160,176,166583,1,0,0:0:0:0:
120,176,166680,1,4,0:0:0:0:
160,96,166971,1,0,0:0:0:0:
200,96,167067,1,0,0:0:0:0:
240,96,167164,1,4,0:0:0:0:
320,96,167357,5,0,0:0:0:0:
320,128,167454,1,4,0:0:0:0:
400,96,167647,5,0,0:0:0:0:
400,128,167744,1,0,0:0:0:0:
400,168,167841,1,0,0:0:0:0:
400,200,167938,1,0,0:0:0:0:
400,232,168034,1,0,0:0:0:0:
400,264,168131,1,4,0:0:0:0:
320,264,168373,1,0,0:0:0:0:
48,264,168615,1,0,0:0:0:0:
320,264,168905,5,0,0:0:0:0:
320,200,169099,1,0,0:0:0:0:
256,200,169196,1,0,0:0:0:0:
192,200,169292,1,4,0:0:0:0:
192,136,169486,1,0,0:0:0:0:
256,136,169583,1,0,0:0:0:0:
320,136,169680,1,4,0:0:0:0:
384,136,169873,5,0,0:0:0:0:
384,72,169970,1,0,0:0:0:0:
320,56,170066,1,0,0:0:0:0:
256,88,170163,1,0,0:0:0:0:
192,56,170260,1,0,0:0:0:0:
128,72,170357,1,0,0:0:0:0:
128,136,170453,1,4,0:0:0:0:
128,200,170744,1,0,0:0:0:0:
192,200,170840,1,4,0:0:0:0:
192,136,171034,5,0,0:0:0:0:
256,200,171228,1,0,0:0:0:0:
320,200,171421,1,0,0:0:0:0:
320,176,171711,1,0,0:0:0:0:
320,152,172002,5,0,0:0:0:0:
320,96,172195,1,0,0:0:0:0:
256,96,172291,1,0,0:0:0:0:
192,96,172389,1,4,0:0:0:0:
120,96,172582,5,0,0:0:0:0:
96,120,172679,1,0,0:0:0:0:
120,144,172776,1,0,0:0:0:0:
144,168,172873,1,0,0:0:0:0:
120,192,172969,1,0,0:0:0:0:
96,216,173066,1,0,0:0:0:0:
120,240,173163,1,0,0:0:0:0:
144,264,173260,1,0,0:0:0:0:
120,288,173356,1,4,0:0:0:0:
120,328,173598,1,0,0:0:0:0:
192,328,173743,5,0,0:0:0:0:
216,288,173841,1,0,0:0:0:0:
192,248,173938,1,0,0:0:0:0:
168,208,174034,1,0,0:0:0:0:
192,168,174131,1,0,0:0:0:0:
216,128,174228,1,0,0:0:0:0:
192,88,174325,1,0,0:0:0:0:
192,48,174421,1,0,0:0:0:0:
232,48,174517,1,4,0:0:0:0:
304,48,174711,1,0,0:0:0:0:
320,48,174808,1,4,0:0:0:0:
368,48,175098,1,0,0:0:0:0:
368,120,175872,5,0,0:0:0:0:
256,120,176308,1,0,0:0:0:0:
184,192,176646,1,2,0:0:0:0:
256,264,177033,1,2,0:0:0:0:
328,192,177420,1,2,0:0:0:0:
256,264,177807,1,2,0:0:0:0:
256,128,178194,5,0,0:0:0:0:
296,152,178388,1,0,0:0:0:0:
320,192,178581,1,0,0:0:0:0:
296,232,178775,1,0,0:0:0:0:
256,256,178969,1,0,0:0:0:0:
216,232,179162,1,0,0:0:0:0:
192,192,179356,1,0,0:0:0:0:
216,152,179549,1,0,0:0:0:0:
256,192,179743,1,8,0:0:0:0:
216,240,180517,5,0,0:0:0:0:
192,208,180614,1,0,0:0:0:0:
192,176,180711,1,0,0:0:0:0:
216,144,180808,1,0,0:0:0:0:
256,96,180904,1,0,0:0:0:0:
304,152,181001,1,0,0:0:0:0:
304,224,181098,1,0,0:0:0:0:
256,288,181195,1,0,0:0:0:0:
184,288,181291,1,10,0:0:0:0:
80,240,181388,6,0,L|80:16,1,170
144,72,181581,1,0,0:0:0:0:
208,72,181678,1,10,0:0:0:0:
272,72,181775,6,8,L|272:296,1,170
328,216,181968,1,0,0:0:0:0:
368,216,182065,1,10,0:0:0:0:
368,176,182162,1,0,0:0:0:0:
352,136,182258,1,0,0:0:0:0:
320,112,182355,1,0,0:0:0:0:
280,104,182452,1,10,0:0:0:0:
240,104,182549,1,0,0:0:0:0:
200,104,182645,1,0,0:0:0:0:
160,104,182742,1,0,0:0:0:0:
120,104,182839,6,8,L|120:280,1,170
176,272,183033,1,0,0:0:0:0:
232,272,183129,1,0,0:0:0:0:
288,272,183226,1,10,0:0:0:0:
344,272,183323,6,8,B|344:200|344:200|208:200,1,170
192,200,183516,1,0,0:0:0:0:
136,200,183613,1,10,0:0:0:0:
80,200,183710,1,0,0:0:0:0:
48,152,183807,1,0,0:0:0:0:
104,152,183903,1,0,0:0:0:0:
160,152,184000,5,10,0:0:0:0:
240,152,184096,1,0,0:0:0:0:
320,152,184194,1,0,0:0:0:0:
400,152,184290,1,0,0:0:0:0:
480,152,184387,1,14,0:0:0:0:
512,72,184484,6,8,L|320:72,1,170
296,72,184678,1,0,0:0:0:0:
248,72,184774,1,2,0:0:0:0:
200,72,184871,1,0,0:0:0:0:
152,72,184968,1,0,0:0:0:0:
112,96,185064,1,0,0:0:0:0:
88,136,185161,1,2,0:0:0:0:
72,184,185258,1,0,0:0:0:0:
72,240,185355,6,8,L|264:240,1,170
72,296,185548,2,8,L|264:296,1,170
440,296,185742,2,8,L|248:296,1,170
440,240,185984,2,8,L|368:240,1,63.75
352,240,186371,2,8,L|224:240,1,127.5
184,176,186709,2,8,B|440:176|440:176|440:24,1,340
440,56,187000,1,0,0:0:0:0:
400,56,187096,1,2,0:0:0:0:
360,56,187194,1,0,0:0:0:0:
320,56,187290,1,0,0:0:0:0:
280,56,187387,1,0,0:0:0:0:
240,56,187484,1,6,0:0:0:0:
160,55,187677,6,8,L|104:119,1,85
48,56,187871,2,8,L|104:119,1,85
104,119,188064,2,8,L|104:203,1,85
104,289,188258,2,8,L|104:177,1,85
189,204,188548,2,8,L|101:204,1,85
274,204,188838,2,8,L|186:204,1,85
359,204,189032,2,8,L|271:204,1,85
414,140,189322,2,8,L|358:204,1,85
414,225,189612,6,8,L|414:137,1,85
353,285,189806,2,8,L|417:221,1,85
384,208,189999,1,0,0:0:0:0:
416,192,190096,1,0,0:0:0:0:
384,168,190193,1,2,0:0:0:0:
416,152,190290,1,0,0:0:0:0:
384,128,190386,1,0,0:0:0:0:
416,112,190483,1,0,0:0:0:0:
384,88,190580,1,6,0:0:0:0:
312,40,190773,5,0,0:0:0:0:
256,40,190870,1,0,0:0:0:0:
200,40,190967,1,4,0:0:0:0:
256,192,191160,1,0,0:0:0:0:
256,152,191402,5,0,0:0:0:0:
160,40,191548,1,0,0:0:0:0:
256,40,191644,1,0,0:0:0:0:
352,40,191741,1,4,0:0:0:0:
400,48,191934,5,0,0:0:0:0:
440,80,192031,1,0,0:0:0:0:
464,128,192128,1,0,0:0:0:0:
480,176,192224,1,0,0:0:0:0:
472,232,192321,1,0,0:0:0:0:
440,280,192418,1,0,0:0:0:0:
400,312,192515,1,0,0:0:0:0:
352,328,192612,1,0,0:0:0:0:
296,336,192709,1,0,0:0:0:0:
240,336,192805,1,0,0:0:0:0:
184,320,192902,1,0,0:0:0:0:
160,280,192999,1,0,0:0:0:0:
160,256,193096,1,2,0:0:0:0:
168,232,193192,1,2,0:0:0:0:
184,216,193289,1,2,0:0:0:0:
200,232,193386,1,2,0:0:0:0:
208,256,193483,1,2,0:0:0:0:
208,280,193580,1,2,0:0:0:0:
208,312,193676,6,12,L|336:312,1,85
296,72,193870,2,8,L|168:72,1,85
208,240,194063,2,8,L|344:240,1,85
296,144,194257,2,8,L|168:144,1,85
440,240,194450,6,8,L|440:112,1,85
72,152,194644,2,8,L|72:280,1,85
328,240,194837,2,8,L|328:104,1,85
184,152,195031,2,8,L|184:280,1,85
256,192,195224,5,0,0:0:0:0:
256,192,195321,1,0,0:0:0:0:
256,192,195418,1,0,0:0:0:0:
256,192,195515,1,0,0:0:0:0:
256,128,195612,5,2,0:0:0:0:
256,128,195709,1,0,0:0:0:0:
256,128,195806,1,0,0:0:0:0:
256,128,195903,1,0,0:0:0:0:
256,64,195999,5,2,0:0:0:0:
296,64,196095,1,0,0:0:0:0:
296,112,196192,1,0,0:0:0:0:
256,112,196289,1,0,0:0:0:0:
208,112,196386,1,2,0:0:0:0:
208,160,196482,1,0,0:0:0:0:
256,160,196579,1,0,0:0:0:0:
296,160,196676,1,0,0:0:0:0:
296,200,196821,6,8,P|136:208|136:200,1,255
136,136,197160,2,8,B|208:152|288:160|352:176|341:250|424:216|360:336|344:448|147:238|213:189|496:136,1,680
480,192,197740,1,0,0:0:0:0:
448,344,197934,1,0,0:0:0:0:
416,192,198127,1,0,0:0:0:0:
350,153,198321,1,10,0:0:0:0:
217,97,198514,5,0,0:0:0:0:
161,230,198708,1,0,0:0:0:0:
294,286,198901,1,0,0:0:0:0:
89,107,199095,1,10,0:0:0:0:
171,358,199288,1,0,0:0:0:0:
422,276,199482,1,0,0:0:0:0:
340,25,199676,5,0,0:0:0:0:
312,56,199772,1,0,0:0:0:0:
272,56,199869,1,2,0:0:0:0:
256,56,199966,1,0,0:0:0:0:
240,56,200063,1,0,0:0:0:0:
224,56,200159,1,0,0:0:0:0:
208,56,200256,1,2,0:0:0:0:
192,56,200353,1,0,0:0:0:0:
176,56,200450,1,0,0:0:0:0:
160,56,200546,1,0,0:0:0:0:
120,72,200643,5,2,0:0:0:0:
160,96,200740,1,0,0:0:0:0:
204,113,200837,1,0,0:0:0:0:
254,123,200933,1,0,0:0:0:0:
304,123,201030,1,2,0:0:0:0:
354,112,201127,1,0,0:0:0:0:
406,94,201224,1,0,0:0:0:0:
448,72,201320,1,0,0:0:0:0:
440,128,201417,6,8,L|368:200,2,85
336,232,201611,2,8,L|264:304,2,85
232,240,201804,2,8,L|304:168,2,85
328,144,201998,2,8,L|400:72,2,85
256,56,202191,2,8,B|168:80|168:80|80:56,1,170
80,128,202385,2,8,B|168:152|168:152|256:128,1,170
256,200,202578,2,8,B|168:224|168:224|80:200,1,170
80,272,202772,2,8,B|168:296|168:296|256:272,1,170
280,272,202965,5,2,0:0:0:0:
320,288,203062,1,0,0:0:0:0:
360,272,203159,1,0,0:0:0:0:
400,288,203256,1,0,0:0:0:0:
440,264,203352,1,2,0:0:0:0:
400,240,203449,1,0,0:0:0:0:
360,216,203546,1,0,0:0:0:0:
312,216,203643,1,0,0:0:0:0:
224,216,203740,1,2,0:0:0:0:
160,216,203836,1,0,0:0:0:0:
112,176,203933,1,0,0:0:0:0:
112,112,204030,1,0,0:0:0:0:
200,112,204127,1,2,0:0:0:0:
256,112,204223,1,0,0:0:0:0:
256,168,204320,1,0,0:0:0:0:
200,168,204417,1,0,0:0:0:0:
144,168,204514,6,4,B|80:168|80:168|80:56,1,170
144,64,204707,2,4,L|352:64,1,170
368,64,204901,2,4,L|368:280,1,170
312,232,205094,2,4,B|224:232|224:232|224:320,1,170
280,312,205288,5,2,0:0:0:0:
299,318,205384,1,0,0:0:0:0:
319,321,205481,1,0,0:0:0:0:
338,321,205578,1,0,0:0:0:0:
359,318,205675,1,2,0:0:0:0:
379,312,205771,1,0,0:0:0:0:
394,302,205868,1,0,0:0:0:0:
368,216,205965,1,0,0:0:0:0:
280,216,206062,6,4,B|224:256|224:256|104:256,1,170
88,256,206255,1,0,0:0:0:0:
56,256,206352,1,0,0:0:0:0:
56,224,206449,1,4,0:0:0:0:
56,192,206546,6,0,B|56:128|56:128|168:128,1,170
192,128,206739,1,0,0:0:0:0:
224,128,206836,1,4,0:0:0:0:
256,128,206933,1,0,0:0:0:0:
288,128,207029,1,0,0:0:0:0:
312,136,207126,1,0,0:0:0:0:
336,144,207223,1,4,0:0:0:0:
360,152,207320,1,0,0:0:0:0:
384,160,207416,1,0,0:0:0:0:
360,176,207513,1,0,0:0:0:0:
336,192,207610,1,4,0:0:0:0:
312,208,207707,1,0,0:0:0:0:
288,224,207803,6,8,L|288:320,1,85
224,224,207997,2,8,L|128:224,1,85
224,160,208191,2,8,L|224:72,1,85
328,160,208384,5,4,0:0:0:0:
352,120,208481,1,0,0:0:0:0:
328,88,208578,1,0,0:0:0:0:
304,56,208674,1,0,0:0:0:0:
272,56,208771,1,4,0:0:0:0:
240,56,208868,1,0,0:0:0:0:
208,56,208965,1,0,0:0:0:0:
176,56,209061,1,0,0:0:0:0:
144,56,209158,1,4,0:0:0:0:
112,56,209255,1,0,0:0:0:0:
80,56,209352,6,8,L|80:240,1,170
112,224,209546,1,0,0:0:0:0:
136,224,209643,1,0,0:0:0:0:
160,224,209739,1,0,0:0:0:0:
184,224,209932,6,4,L|184:48,1,170
232,56,210126,1,0,0:0:0:0:
280,56,210223,1,0,0:0:0:0:
256,88,210319,1,4,0:0:0:0:
232,120,210416,1,0,0:0:0:0:
280,120,210513,1,0,0:0:0:0:
256,160,210610,1,0,0:0:0:0:
288,192,210706,6,8,L|408:192,1,85
256,160,210900,2,8,L|256:40,1,85
224,192,211093,2,8,L|104:192,1,85
256,224,211287,2,8,L|256:344,1,85
368,304,211480,6,8,L|272:208,1,85
368,80,211674,2,8,L|272:176,1,85
144,80,211867,2,8,L|240:176,1,85
144,304,212061,2,8,L|240:208,1,85
224,320,212255,5,0,0:0:0:0:
256,320,212351,1,0,0:0:0:0:
288,320,212448,1,8,0:0:0:0:
200,256,212545,5,0,0:0:0:0:
256,256,212642,1,2,0:0:0:0:
313,256,212835,1,0,0:0:0:0:
224,192,213029,5,0,0:0:0:0:
256,192,213077,1,0,0:0:0:0:
288,192,213125,1,2,0:0:0:0:
176,128,213415,5,0,0:0:0:0:
256,128,213512,1,0,0:0:0:0:
336,128,213609,1,2,0:0:0:0:
376,64,213705,5,0,0:0:0:0:
256,64,213802,1,0,0:0:0:0:
136,64,213899,1,8,0:0:0:0:
440,112,214190,1,0,0:0:0:0:
376,152,214383,1,0,0:0:0:0:
392,152,214432,1,4,0:0:0:0:
472,328,214771,5,0,0:0:0:0:
400,328,214867,1,0,0:0:0:0:
328,328,214964,1,0,0:0:0:0:
256,328,215061,1,0,0:0:0:0:
184,328,215158,1,0,0:0:0:0:
112,328,215255,1,0,0:0:0:0:
40,328,215351,1,0,0:0:0:0:
40,248,215544,6,8,L|40:160,1,85
160,64,215738,1,0,0:0:0:0:
352,64,215980,1,0,0:0:0:0:
472,160,216125,2,8,L|472:248,1,85
472,336,216319,1,0,0:0:0:0:
256,336,216512,1,0,0:0:0:0:
256,224,216706,1,0,0:0:0:0:
256,192,216899,1,0,0:0:0:0:
256,136,217093,5,0,0:0:0:0:
320,136,217286,1,0,0:0:0:0:
384,136,217480,1,0,0:0:0:0:
384,192,217673,1,0,0:0:0:0:
384,248,217915,1,0,0:0:0:0:
320,248,218012,1,4,0:0:0:0:
256,248,218205,2,8,B|24:248|24:248|24:200|24:200|304:200,1,510
320,200,218641,5,0,0:0:0:0:
352,200,218834,1,0,0:0:0:0:
392,200,219028,1,0,0:0:0:0:
424,200,219221,1,0,0:0:0:0:
464,256,219415,1,0,0:0:0:0:
464,336,219608,2,0,B|296:64|264:-56|128:184|16:360,1,680
88,328,220044,6,0,L|88:184,1,85
144,328,220189,2,0,L|144:184,1,85
200,328,220383,2,0,L|200:184,1,85
256,328,220576,2,0,L|256:184,1,85
312,328,220770,2,0,L|312:232,1,85
312,40,220963,2,0,L|312:136,1,85
312,328,221060,2,0,L|312:232,1,85
392,192,221544,6,0,L|232:192,1,85
352,280,221737,2,0,L|256:200,1,85
256,320,221931,2,0,L|256:176,1,85
120,192,222124,2,0,L|264:192,1,85
160,104,222317,2,0,L|256:184,1,85
256,56,222511,2,0,L|256:200,1,85
352,96,222608,2,0,L|264:184,1,85
320,192,222705,1,0,0:0:0:0:
286,227,222802,1,0,0:0:0:0:
237,239,222898,1,0,0:0:0:0:
186,226,222995,5,0,0:0:0:0:
150,191,223091,1,0,0:0:0:0:
136,143,223188,1,0,0:0:0:0:
149,96,223285,1,0,0:0:0:0:
186,61,223382,1,0,0:0:0:0:
238,42,223479,1,0,0:0:0:0:
290,43,223576,1,0,0:0:0:0:
336,65,223672,1,0,0:0:0:0:
367,104,223769,1,0,0:0:0:0:
375,153,223866,1,0,0:0:0:0:
358,200,223963,1,0,0:0:0:0:
401,199,224059,5,0,0:0:0:0:
376,136,224156,1,0,0:0:0:0:
336,88,224253,1,0,0:0:0:0:
288,48,224350,1,0,0:0:0:0:
224,32,224446,1,0,0:0:0:0:
144,32,224543,1,0,0:0:0:0:
64,32,224640,1,0,0:0:0:0:
256,192,224688,12,0,226188,0:0:0:0:
256,144,226962,5,0,0:0:0:0:
256,168,227156,1,0,0:0:0:0:
256,192,227349,1,0,0:0:0:0:
256,216,227543,1,0,0:0:0:0:
256,240,227736,1,0,0:0:0:0:
104,192,228123,2,0,B|120:192|120:192|152:192|152:192|272:192,1,148.75
280,192,228510,2,0,L|384:192,1,85
424,192,228898,1,4,0:0:0:0:
