osu file format v14

[General]
AudioFilename: audio.mp3
AudioLeadIn: 0
PreviewTime: 43735
Countdown: 0
SampleSet: Normal
StackLeniency: 1
Mode: 1
LetterboxInBreaks: 0
WidescreenStoryboard: 0

[Editor]
DistanceSpacing: 1.4
BeatDivisor: 4
GridSize: 32
TimelineZoom: 2.2

[Metadata]
Title:Cold Green Eyes feat. Roos Denayer
TitleUnicode:Cold Green Eyes feat. Roos Denayer
Artist:Station Earth
ArtistUnicode:Station Earth
Creator:Zedther
Version:Muzukashii
Source:
Tags:Greenshell dnb drum and bass
BeatmapID:1821838
BeatmapSetID:871837

[Difficulty]
HPDrainRate:6
CircleSize:5
OverallDifficulty:5
ApproachRate:5
SliderMultiplier:1.4
SliderTickRate:1

[Events]
//Background and Video events
0,0,"cold green eyes.jpg",0,0
//Break Periods
//Storyboard Layer 0 (Background)
//Storyboard Layer 1 (Fail)
//Storyboard Layer 2 (Pass)
//Storyboard Layer 3 (Foreground)
//Storyboard Sound Samples

[TimingPoints]
115,344.827586206897,4,1,0,60,1,0
115,-100,4,1,0,60,0,0
22183,-100,4,1,0,70,0,0
44252,-100,4,1,0,80,0,1
64942,-100,4,1,0,80,0,0
66321,-100,4,1,0,80,0,1
88390,-100,4,1,0,75,0,0
107701,-100,4,1,0,70,0,0
110459,-111.111111111111,4,1,0,60,0,0
128692,355.029585798817,4,1,0,60,1,8
128692,-107.52688172043,4,1,0,60,0,0
129770,375,4,1,0,60,1,0
129770,-102.040816326531,4,1,0,60,0,0

[HitObjects]
256,192,11149,12,0,15287,0:0:0:0:
256,192,16666,12,0,20804,0:0:0:0:
256,192,22183,5,8,0:0:0:0:
256,192,22701,5,8,0:0:0:0:
256,192,23218,5,0,0:0:0:0:
256,192,23908,1,8,0:0:0:0:
256,192,24770,1,0,0:0:0:0:
256,192,24942,5,8,0:0:0:0:
256,192,25459,5,0,0:0:0:0:
256,192,25977,5,8,0:0:0:0:
256,192,26666,1,8,0:0:0:0:
256,192,27528,5,0,0:0:0:0:
256,192,27701,5,8,0:0:0:0:
256,192,28218,5,8,0:0:0:0:
256,192,28735,5,0,0:0:0:0:
256,192,29425,1,8,0:0:0:0:
256,192,29770,5,8,0:0:0:0:
256,192,29942,5,0,0:0:0:0:
256,192,30287,5,8,0:0:0:0:
256,192,31839,5,8,0:0:0:0:
256,192,32873,5,8,0:0:0:0:
256,192,33218,1,0,0:0:0:0:
256,192,33908,5,8,0:0:0:0:
256,192,34080,5,0,0:0:0:0:
256,192,34252,5,8,0:0:0:0:
256,192,34597,5,8,0:0:0:0:
256,192,34856,5,8,0:0:0:0:
256,192,35115,1,8,0:0:0:0:
256,192,35459,1,0,0:0:0:0:
256,192,35804,1,8,0:0:0:0:
256,192,36666,1,0,0:0:0:0:
256,192,36839,1,8,0:0:0:0:
256,192,37011,1,0,0:0:0:0:
256,192,37356,1,8,0:0:0:0:
256,192,37701,5,0,0:0:0:0:
256,192,37959,1,8,0:0:0:0:
256,192,38218,1,8,0:0:0:0:
256,192,38563,1,8,0:0:0:0:
256,192,38735,1,0,0:0:0:0:
256,192,39425,1,0,0:0:0:0:
256,192,40115,1,0,0:0:0:0:
256,192,40459,5,8,0:0:0:0:
256,192,40804,5,0,0:0:0:0:
256,192,40977,5,8,0:0:0:0:
256,192,41149,5,0,0:0:0:0:
256,192,41494,5,8,0:0:0:0:
256,192,42011,1,0,0:0:0:0:
256,192,42528,5,8,0:0:0:0:
256,192,42873,12,0,43908,0:0:0:0:
256,192,44252,5,4,0:0:0:0:
256,192,44597,1,8,0:0:0:0:
256,192,45115,1,0,0:0:0:0:
256,192,45287,1,8,0:0:0:0:
256,192,45632,1,0,0:0:0:0:
256,192,45977,1,8,0:0:0:0:
256,192,46149,1,0,0:0:0:0:
256,192,46494,1,0,0:0:0:0:
256,192,46666,1,8,0:0:0:0:
256,192,47011,1,0,0:0:0:0:
256,192,47356,1,8,0:0:0:0:
256,192,47873,1,0,0:0:0:0:
256,192,48046,1,8,0:0:0:0:
256,192,48390,1,0,0:0:0:0:
256,192,48735,1,8,0:0:0:0:
256,192,48908,1,0,0:0:0:0:
256,192,49252,1,0,0:0:0:0:
256,192,49425,1,8,0:0:0:0:
256,192,49511,1,8,0:0:0:0:
256,192,49597,1,8,0:0:0:0:
256,192,49770,1,4,0:0:0:0:
256,192,50115,1,8,0:0:0:0:
256,192,50632,1,0,0:0:0:0:
256,192,50804,1,8,0:0:0:0:
256,192,51149,1,0,0:0:0:0:
256,192,51321,1,0,0:0:0:0:
256,192,51494,1,8,0:0:0:0:
256,192,51666,1,0,0:0:0:0:
256,192,52011,1,0,0:0:0:0:
256,192,52183,1,8,0:0:0:0:
256,192,52528,1,0,0:0:0:0:
256,192,52873,1,8,0:0:0:0:
256,192,53390,1,0,0:0:0:0:
256,192,53563,1,8,0:0:0:0:
256,192,53908,1,0,0:0:0:0:
256,192,54166,1,0,0:0:0:0:
256,192,54252,1,8,0:0:0:0:
256,192,54425,1,0,0:0:0:0:
256,192,54597,1,8,0:0:0:0:
256,192,54770,1,0,0:0:0:0:
256,192,54942,1,8,0:0:0:0:
256,192,55115,1,0,0:0:0:0:
256,192,55287,1,4,0:0:0:0:
256,192,55632,1,8,0:0:0:0:
256,192,56149,1,0,0:0:0:0:
256,192,56321,1,8,0:0:0:0:
256,192,56666,1,0,0:0:0:0:
256,192,56839,1,0,0:0:0:0:
256,192,57011,1,8,0:0:0:0:
256,192,57183,1,0,0:0:0:0:
256,192,57528,1,0,0:0:0:0:
256,192,57701,1,8,0:0:0:0:
256,192,58046,1,0,0:0:0:0:
256,192,58390,1,8,0:0:0:0:
256,192,58908,5,0,0:0:0:0:
256,192,59080,1,8,0:0:0:0:
256,192,59252,1,0,0:0:0:0:
256,192,59425,1,0,0:0:0:0:
256,192,59597,1,8,0:0:0:0:
256,192,59683,1,8,0:0:0:0:
256,192,59770,1,8,0:0:0:0:
256,192,59942,1,0,0:0:0:0:
256,192,60287,1,0,0:0:0:0:
256,192,60459,1,8,0:0:0:0:
256,192,60632,1,8,0:0:0:0:
256,192,60804,1,4,0:0:0:0:
256,192,61149,1,8,0:0:0:0:
256,192,61666,5,0,0:0:0:0:
256,192,61839,1,8,0:0:0:0:
256,192,62183,1,0,0:0:0:0:
256,192,62356,1,0,0:0:0:0:
256,192,62528,1,8,0:0:0:0:
256,192,62701,1,0,0:0:0:0:
256,192,63046,1,0,0:0:0:0:
256,192,63218,5,8,0:0:0:0:
256,192,63563,5,0,0:0:0:0:
256,192,63908,5,8,0:0:0:0:
256,192,64425,5,0,0:0:0:0:
256,192,64597,1,8,0:0:0:0:
256,192,64942,1,0,0:0:0:0:
256,192,65115,1,8,0:0:0:0:
256,192,65201,1,8,0:0:0:0:
256,192,65287,1,8,0:0:0:0:
256,192,65459,1,0,0:0:0:0:
256,192,65632,1,8,0:0:0:0:
256,192,65804,1,0,0:0:0:0:
256,192,65977,1,8,0:0:0:0:
256,192,66321,1,12,0:0:0:0:
256,192,66666,1,8,0:0:0:0:
256,192,66839,1,0,0:0:0:0:
256,192,67183,1,0,0:0:0:0:
256,192,67356,1,8,0:0:0:0:
256,192,67701,1,0,0:0:0:0:
256,192,67959,1,0,0:0:0:0:
256,192,68046,1,8,0:0:0:0:
256,192,68218,1,0,0:0:0:0:
256,192,68735,5,8,0:0:0:0:
256,192,69080,1,0,0:0:0:0:
256,192,69425,1,8,0:0:0:0:
256,192,69597,1,0,0:0:0:0:
256,192,69942,1,0,0:0:0:0:
256,192,70115,1,8,0:0:0:0:
256,192,70459,1,0,0:0:0:0:
256,192,70718,1,0,0:0:0:0:
256,192,70804,1,8,0:0:0:0:
256,192,70977,1,0,0:0:0:0:
256,192,71494,5,8,0:0:0:0:
256,192,71839,1,0,0:0:0:0:
256,192,72183,1,8,0:0:0:0:
256,192,72356,1,0,0:0:0:0:
256,192,72701,1,0,0:0:0:0:
256,192,72873,1,8,0:0:0:0:
256,192,73218,1,0,0:0:0:0:
256,192,73477,1,0,0:0:0:0:
256,192,73563,1,8,0:0:0:0:
256,192,73735,1,0,0:0:0:0:
256,192,73908,1,8,0:0:0:0:
256,192,74080,1,8,0:0:0:0:
256,192,74425,1,8,0:0:0:0:
256,192,74597,1,0,0:0:0:0:
256,192,74942,1,8,0:0:0:0:
256,192,75459,5,0,0:0:0:0:
256,192,75632,1,8,0:0:0:0:
256,192,75977,1,0,0:0:0:0:
256,192,76235,1,0,0:0:0:0:
256,192,76321,1,8,0:0:0:0:
256,192,76494,1,0,0:0:0:0:
256,192,76666,1,8,0:0:0:0:
256,192,76839,1,0,0:0:0:0:
256,192,77011,1,8,0:0:0:0:
256,192,77183,1,0,0:0:0:0:
256,192,77356,1,4,0:0:0:0:
256,192,77701,1,8,0:0:0:0:
256,192,78046,1,0,0:0:0:0:
256,192,78218,1,0,0:0:0:0:
256,192,78390,1,8,0:0:0:0:
256,192,78735,1,8,0:0:0:0:
256,192,78994,1,8,0:0:0:0:
256,192,79252,1,8,0:0:0:0:
256,192,79597,1,0,0:0:0:0:
256,192,79942,5,8,0:0:0:0:
256,192,80115,1,4,0:0:0:0:
256,192,80804,1,0,0:0:0:0:
256,192,81063,1,0,0:0:0:0:
256,192,81149,1,8,0:0:0:0:
256,192,81321,1,0,0:0:0:0:
256,192,81494,1,8,0:0:0:0:
256,192,81839,1,0,0:0:0:0:
256,192,82011,1,8,0:0:0:0:
256,192,82356,1,8,0:0:0:0:
256,192,82701,1,8,0:0:0:0:
256,192,82873,1,4,0:0:0:0:
256,192,83218,1,8,0:0:0:0:
256,192,83735,5,0,0:0:0:0:
256,192,83908,1,8,0:0:0:0:
256,192,84252,1,0,0:0:0:0:
256,192,84511,1,0,0:0:0:0:
256,192,84597,1,8,0:0:0:0:
256,192,84770,1,0,0:0:0:0:
256,192,84942,1,8,0:0:0:0:
256,192,85115,1,0,0:0:0:0:
256,192,85287,1,8,0:0:0:0:
256,192,85459,1,8,0:0:0:0:
256,192,85632,1,4,0:0:0:0:
256,192,86149,5,0,0:0:0:0:
256,192,86494,1,0,0:0:0:0:
256,192,86666,1,8,0:0:0:0:
256,192,87011,1,0,0:0:0:0:
256,192,87183,1,8,0:0:0:0:
256,192,87270,1,8,0:0:0:0:
256,192,87356,1,8,0:0:0:0:
256,192,87528,1,0,0:0:0:0:
256,192,87701,1,8,0:0:0:0:
256,192,87873,1,0,0:0:0:0:
256,192,88046,1,8,0:0:0:0:
256,192,88390,1,4,0:0:0:0:
256,192,88735,5,8,0:0:0:0:
256,192,89252,1,0,0:0:0:0:
256,192,89425,5,8,0:0:0:0:
256,192,89770,5,0,0:0:0:0:
256,192,89942,1,0,0:0:0:0:
256,192,90115,1,8,0:0:0:0:
256,192,90287,1,0,0:0:0:0:
256,192,90632,1,0,0:0:0:0:
256,192,90804,1,8,0:0:0:0:
256,192,91149,1,0,0:0:0:0:
256,192,91494,1,8,0:0:0:0:
256,192,92011,1,0,0:0:0:0:
256,192,92183,1,8,0:0:0:0:
256,192,92528,1,0,0:0:0:0:
256,192,92787,1,0,0:0:0:0:
256,192,92873,1,8,0:0:0:0:
256,192,93046,1,0,0:0:0:0:
256,192,93390,1,0,0:0:0:0:
256,192,93563,1,8,0:0:0:0:
256,192,93908,1,0,0:0:0:0:
256,192,94252,1,8,0:0:0:0:
256,192,94770,5,0,0:0:0:0:
256,192,94942,1,8,0:0:0:0:
256,192,95287,1,0,0:0:0:0:
256,192,95459,1,0,0:0:0:0:
256,192,95632,1,8,0:0:0:0:
256,192,95804,1,0,0:0:0:0:
256,192,96149,1,0,0:0:0:0:
256,192,96321,1,8,0:0:0:0:
256,192,96494,1,0,0:0:0:0:
256,192,96666,1,0,0:0:0:0:
256,192,97011,1,8,0:0:0:0:
256,192,97528,5,0,0:0:0:0:
256,192,97701,1,8,0:0:0:0:
256,192,98046,1,0,0:0:0:0:
256,192,98304,1,0,0:0:0:0:
256,192,98390,1,8,0:0:0:0:
256,192,98563,1,0,0:0:0:0:
256,192,98735,1,8,0:0:0:0:
256,192,98908,1,0,0:0:0:0:
256,192,99080,1,8,0:0:0:0:
256,192,99425,1,0,0:0:0:0:
256,192,99770,1,8,0:0:0:0:
256,192,100287,5,0,0:0:0:0:
256,192,100459,1,8,0:0:0:0:
256,192,100804,1,0,0:0:0:0:
256,192,100977,1,0,0:0:0:0:
256,192,101149,1,8,0:0:0:0:
256,192,101321,1,0,0:0:0:0:
256,192,101666,1,0,0:0:0:0:
256,192,101839,1,8,0:0:0:0:
256,192,102183,1,0,0:0:0:0:
256,192,102528,1,8,0:0:0:0:
256,192,103046,5,0,0:0:0:0:
256,192,103218,1,8,0:0:0:0:
256,192,103390,1,0,0:0:0:0:
256,192,103563,1,0,0:0:0:0:
256,192,103821,1,0,0:0:0:0:
256,192,103908,1,8,0:0:0:0:
256,192,104080,1,0,0:0:0:0:
256,192,104425,1,0,0:0:0:0:
256,192,104597,1,8,0:0:0:0:
256,192,104942,1,0,0:0:0:0:
256,192,105287,1,8,0:0:0:0:
256,192,105804,5,0,0:0:0:0:
256,192,105977,1,8,0:0:0:0:
256,192,106321,1,0,0:0:0:0:
256,192,106580,1,0,0:0:0:0:
256,192,106666,1,8,0:0:0:0:
256,192,106839,1,0,0:0:0:0:
256,192,107011,1,8,0:0:0:0:
256,192,107183,1,0,0:0:0:0:
256,192,107356,1,8,0:0:0:0:
256,192,107701,12,0,110115,0:0:0:0:
256,192,110459,5,8,0:0:0:0:
256,192,110977,5,8,0:0:0:0:
256,192,111494,5,0,0:0:0:0:
256,192,112183,1,8,0:0:0:0:
256,192,113046,1,0,0:0:0:0:
256,192,113218,5,8,0:0:0:0:
256,192,113735,5,0,0:0:0:0:
256,192,114252,5,8,0:0:0:0:
256,192,114942,1,8,0:0:0:0:
256,192,115804,5,0,0:0:0:0:
256,192,115977,5,8,0:0:0:0:
256,192,116494,5,8,0:0:0:0:
256,192,117011,5,0,0:0:0:0:
256,192,117701,1,8,0:0:0:0:
256,192,118046,5,8,0:0:0:0:
256,192,118304,5,0,0:0:0:0:
256,192,118563,5,8,0:0:0:0:
256,192,121149,1,8,0:0:0:0:
256,192,121494,5,0,0:0:0:0:
256,192,122183,5,8,0:0:0:0:
256,192,122356,5,0,0:0:0:0:
256,192,122528,5,8,0:0:0:0:
256,192,122873,5,8,0:0:0:0:
256,192,123132,5,8,0:0:0:0:
256,192,123390,1,8,0:0:0:0:
256,192,123735,1,0,0:0:0:0:
256,192,124080,1,8,0:0:0:0:
256,192,124942,5,0,0:0:0:0:
256,192,125115,5,8,0:0:0:0:
256,192,125287,5,0,0:0:0:0:
256,192,125632,5,8,0:0:0:0:
256,192,125977,5,0,0:0:0:0:
256,192,126235,1,8,0:0:0:0:
256,192,126494,1,8,0:0:0:0:
256,192,127011,1,0,0:0:0:0:
256,192,128692,5,8,0:0:0:0:
256,192,128869,5,0,0:0:0:0:
256,192,129047,5,0,0:0:0:0:
256,192,129224,5,8,0:0:0:0:
256,192,129402,5,0,0:0:0:0:
256,192,129579,5,8,0:0:0:0:
256,192,129770,5,8,0:0:0:0:
256,192,130332,5,0,0:0:0:0:
256,192,130895,5,8,0:0:0:0:
256,192,131270,12,0,132207,0:0:0:0:
