osu file format v14

[General]
AudioFilename: audio.mp3
AudioLeadIn: 0
PreviewTime: 43735
Countdown: 0
SampleSet: Normal
StackLeniency: 1
Mode: 1
LetterboxInBreaks: 0
WidescreenStoryboard: 0

[Editor]
DistanceSpacing: 1.4
BeatDivisor: 4
GridSize: 32
TimelineZoom: 1.1

[Metadata]
Title:Cold Green Eyes feat. Roos Denayer
TitleUnicode:Cold Green Eyes feat. Roos Denayer
Artist:Station Earth
ArtistUnicode:Station Earth
Creator:Zedther
Version:Futsuu
Source:
Tags:Greenshell dnb drum and bass
BeatmapID:1822765
BeatmapSetID:871837

[Difficulty]
HPDrainRate:7
CircleSize:5
OverallDifficulty:4
ApproachRate:5
SliderMultiplier:1.4
SliderTickRate:1

[Events]
//Background and Video events
0,0,"cold green eyes.jpg",0,0
//Break Periods
//Storyboard Layer 0 (Background)
//Storyboard Layer 1 (Fail)
//Storyboard Layer 2 (Pass)
//Storyboard Layer 3 (Foreground)
//Storyboard Sound Samples

[TimingPoints]
115,344.827586206897,4,1,0,60,1,0
115,-100,4,1,0,60,0,0
22183,-100,4,1,0,70,0,0
44252,-100,4,1,0,80,0,1
64942,-100,4,1,0,80,0,0
66321,-100,4,1,0,80,0,1
88390,-100,4,1,0,75,0,0
107701,-100,4,1,0,70,0,0
110459,-111.111111111111,4,1,0,60,0,0
128692,355.029585798817,4,1,0,60,1,8
128692,-107.52688172043,4,1,0,60,0,0
129770,375,4,1,0,60,1,0
129770,-102.040816326531,4,1,0,60,0,0

[HitObjects]
256,192,11149,12,0,15287,0:0:0:0:
256,192,16666,12,0,20804,0:0:0:0:
256,192,22183,5,8,0:0:0:0:
256,192,23218,5,0,0:0:0:0:
256,192,23908,5,8,0:0:0:0:
256,192,24942,5,8,0:0:0:0:
256,192,25459,5,0,0:0:0:0:
256,192,25977,5,0,0:0:0:0:
256,192,26666,5,8,0:0:0:0:
256,192,27528,5,0,0:0:0:0:
256,192,27701,1,8,0:0:0:0:
256,192,28218,1,8,0:0:0:0:
256,192,28735,5,0,0:0:0:0:
256,192,29425,1,8,0:0:0:0:
256,192,29770,1,0,0:0:0:0:
256,192,29942,1,0,0:0:0:0:
256,192,30287,5,8,0:0:0:0:
256,192,31839,5,8,0:0:0:0:
256,192,33218,1,0,0:0:0:0:
256,192,33908,5,8,0:0:0:0:
256,192,34252,5,0,0:0:0:0:
256,192,34597,5,8,0:0:0:0:
256,192,34770,5,8,0:0:0:0:
256,192,35115,5,8,0:0:0:0:
256,192,35459,1,0,0:0:0:0:
256,192,35804,1,8,0:0:0:0:
256,192,36666,1,8,0:0:0:0:
256,192,37011,1,0,0:0:0:0:
256,192,37356,1,8,0:0:0:0:
256,192,37701,1,8,0:0:0:0:
256,192,37873,5,0,0:0:0:0:
256,192,38218,1,0,0:0:0:0:
256,192,38563,1,0,0:0:0:0:
256,192,40459,5,8,0:0:0:0:
256,192,40804,1,8,0:0:0:0:
256,192,41149,5,0,0:0:0:0:
256,192,41494,5,8,0:0:0:0:
256,192,42011,5,0,0:0:0:0:
256,192,42528,5,8,0:0:0:0:
256,192,42873,12,0,43908,0:0:0:0:
256,192,44252,5,4,0:0:0:0:
256,192,44597,1,8,0:0:0:0:
256,192,45287,1,8,0:0:0:0:
256,192,45632,1,0,0:0:0:0:
256,192,45977,1,8,0:0:0:0:
256,192,46494,1,0,0:0:0:0:
256,192,46666,1,8,0:0:0:0:
256,192,47011,1,0,0:0:0:0:
256,192,47356,1,8,0:0:0:0:
256,192,48046,1,8,0:0:0:0:
256,192,48390,1,0,0:0:0:0:
256,192,48735,1,8,0:0:0:0:
256,192,49252,1,8,0:0:0:0:
256,192,49425,1,8,0:0:0:0:
256,192,49770,1,4,0:0:0:0:
256,192,50115,1,8,0:0:0:0:
256,192,50632,1,0,0:0:0:0:
256,192,50805,1,8,0:0:0:0:
256,192,51149,1,0,0:0:0:0:
256,192,51494,1,8,0:0:0:0:
256,192,52183,1,8,0:0:0:0:
256,192,52528,1,0,0:0:0:0:
256,192,52873,1,8,0:0:0:0:
256,192,53390,1,0,0:0:0:0:
256,192,53563,1,8,0:0:0:0:
256,192,53908,1,0,0:0:0:0:
256,192,54252,1,8,0:0:0:0:
256,192,54770,1,8,0:0:0:0:
256,192,54942,1,8,0:0:0:0:
256,192,55287,1,4,0:0:0:0:
256,192,55632,1,8,0:0:0:0:
256,192,56149,1,0,0:0:0:0:
256,192,56321,1,8,0:0:0:0:
256,192,56666,1,0,0:0:0:0:
256,192,57011,1,8,0:0:0:0:
256,192,57701,1,8,0:0:0:0:
256,192,58046,1,0,0:0:0:0:
256,192,58390,1,8,0:0:0:0:
256,192,58908,1,0,0:0:0:0:
256,192,59080,1,8,0:0:0:0:
256,192,59425,1,0,0:0:0:0:
256,192,59770,1,8,0:0:0:0:
256,192,60287,1,8,0:0:0:0:
256,192,60459,1,8,0:0:0:0:
256,192,60804,1,4,0:0:0:0:
256,192,61149,1,8,0:0:0:0:
256,192,61838,1,8,0:0:0:0:
256,192,62183,1,0,0:0:0:0:
256,192,62528,1,8,0:0:0:0:
256,192,63046,5,0,0:0:0:0:
256,192,63218,5,8,0:0:0:0:
256,192,63563,5,0,0:0:0:0:
256,192,63908,1,8,0:0:0:0:
256,192,64425,5,0,0:0:0:0:
256,192,64597,1,8,0:0:0:0:
256,192,64942,12,0,65977,0:0:0:0:
256,192,66321,5,12,0:0:0:0:
256,192,66666,1,8,0:0:0:0:
256,192,66839,1,0,0:0:0:0:
256,192,67183,1,0,0:0:0:0:
256,192,67356,1,0,0:0:0:0:
256,192,67701,1,0,0:0:0:0:
256,192,68046,1,8,0:0:0:0:
256,192,68735,1,0,0:0:0:0:
256,192,69080,1,8,0:0:0:0:
256,192,69425,1,0,0:0:0:0:
256,192,69597,1,8,0:0:0:0:
256,192,69942,1,0,0:0:0:0:
256,192,70115,1,8,0:0:0:0:
256,192,70459,1,0,0:0:0:0:
256,192,70804,5,8,0:0:0:0:
256,192,71494,1,0,0:0:0:0:
256,192,71839,5,8,0:0:0:0:
256,192,72183,5,0,0:0:0:0:
256,192,72356,5,8,0:0:0:0:
256,192,72701,1,0,0:0:0:0:
256,192,72873,1,8,0:0:0:0:
256,192,73563,1,0,0:0:0:0:
256,192,73908,1,8,0:0:0:0:
256,192,74080,1,0,0:0:0:0:
256,192,74425,5,8,0:0:0:0:
256,192,74597,1,0,0:0:0:0:
256,192,74942,5,8,0:0:0:0:
256,192,75632,1,0,0:0:0:0:
256,192,75977,5,8,0:0:0:0:
256,192,76494,5,8,0:0:0:0:
256,192,76839,5,8,0:0:0:0:
256,192,77011,5,0,0:0:0:0:
256,192,77356,5,4,0:0:0:0:
256,192,78046,5,8,0:0:0:0:
256,192,78390,5,0,0:0:0:0:
256,192,78735,1,8,0:0:0:0:
256,192,79252,5,0,0:0:0:0:
256,192,79597,5,0,0:0:0:0:
256,192,79770,5,8,0:0:0:0:
256,192,80115,5,4,0:0:0:0:
256,192,80804,5,8,0:0:0:0:
256,192,81149,5,0,0:0:0:0:
256,192,81321,5,0,0:0:0:0:
256,192,81494,5,8,0:0:0:0:
256,192,82011,5,0,0:0:0:0:
256,192,82356,5,8,0:0:0:0:
256,192,82528,5,0,0:0:0:0:
256,192,82873,5,4,0:0:0:0:
256,192,83218,1,8,0:0:0:0:
256,192,83908,1,8,0:0:0:0:
256,192,84597,5,8,0:0:0:0:
256,192,84942,5,0,0:0:0:0:
256,192,85287,5,0,0:0:0:0:
256,192,85459,5,0,0:0:0:0:
256,192,85632,5,12,0:0:0:0:
256,192,86149,5,0,0:0:0:0:
256,192,86494,1,0,0:0:0:0:
256,192,86666,5,8,0:0:0:0:
256,192,87356,5,8,0:0:0:0:
256,192,87873,1,0,0:0:0:0:
256,192,88046,1,8,0:0:0:0:
256,192,88390,1,4,0:0:0:0:
256,192,88735,1,8,0:0:0:0:
256,192,89425,5,8,0:0:0:0:
256,192,89770,5,0,0:0:0:0:
256,192,90115,1,8,0:0:0:0:
256,192,90632,5,0,0:0:0:0:
256,192,90804,1,8,0:0:0:0:
256,192,91149,1,0,0:0:0:0:
256,192,91494,1,8,0:0:0:0:
256,192,92183,1,8,0:0:0:0:
256,192,92528,1,0,0:0:0:0:
256,192,92873,5,8,0:0:0:0:
256,192,93390,5,8,0:0:0:0:
256,192,93563,5,8,0:0:0:0:
256,192,93908,5,0,0:0:0:0:
256,192,94252,5,8,0:0:0:0:
256,192,94770,1,0,0:0:0:0:
256,192,94942,5,8,0:0:0:0:
256,192,95287,5,0,0:0:0:0:
256,192,95632,5,8,0:0:0:0:
256,192,96149,5,0,0:0:0:0:
256,192,96321,5,8,0:0:0:0:
256,192,96666,5,0,0:0:0:0:
256,192,97011,5,8,0:0:0:0:
256,192,97701,1,8,0:0:0:0:
256,192,98046,5,0,0:0:0:0:
256,192,98390,1,8,0:0:0:0:
256,192,98908,5,8,0:0:0:0:
256,192,99080,5,8,0:0:0:0:
256,192,99425,5,0,0:0:0:0:
256,192,99770,5,8,0:0:0:0:
256,192,100459,5,8,0:0:0:0:
256,192,100804,5,0,0:0:0:0:
256,192,101149,5,8,0:0:0:0:
256,192,101666,5,0,0:0:0:0:
256,192,101839,5,8,0:0:0:0:
256,192,102183,5,0,0:0:0:0:
256,192,102528,5,8,0:0:0:0:
256,192,103218,5,8,0:0:0:0:
256,192,103563,5,0,0:0:0:0:
256,192,103908,5,8,0:0:0:0:
256,192,104425,5,8,0:0:0:0:
256,192,104597,5,8,0:0:0:0:
256,192,104942,5,0,0:0:0:0:
256,192,105287,5,8,0:0:0:0:
256,192,105977,1,8,0:0:0:0:
256,192,106321,5,0,0:0:0:0:
256,192,106666,5,8,0:0:0:0:
256,192,107183,5,0,0:0:0:0:
256,192,107356,5,8,0:0:0:0:
256,192,107701,12,0,110115,0:0:0:0:
256,192,110459,5,8,0:0:0:0:
256,192,111494,1,0,0:0:0:0:
256,192,112183,1,8,0:0:0:0:
256,192,113218,5,8,0:0:0:0:
256,192,113735,5,8,0:0:0:0:
256,192,114252,5,0,0:0:0:0:
256,192,114942,5,8,0:0:0:0:
256,192,115804,1,0,0:0:0:0:
256,192,115977,5,8,0:0:0:0:
256,192,116494,5,8,0:0:0:0:
256,192,117011,5,0,0:0:0:0:
256,192,117701,1,8,0:0:0:0:
256,192,118046,5,0,0:0:0:0:
256,192,118218,5,0,0:0:0:0:
256,192,118563,5,8,0:0:0:0:
256,192,121149,5,8,0:0:0:0:
256,192,121494,5,0,0:0:0:0:
256,192,122183,5,8,0:0:0:0:
256,192,122528,5,0,0:0:0:0:
256,192,122873,5,8,0:0:0:0:
256,192,123046,5,8,0:0:0:0:
256,192,123390,1,8,0:0:0:0:
256,192,123735,1,0,0:0:0:0:
256,192,124080,1,8,0:0:0:0:
256,192,124942,5,8,0:0:0:0:
256,192,125287,5,0,0:0:0:0:
256,192,125632,5,8,0:0:0:0:
256,192,125977,5,8,0:0:0:0:
256,192,126149,1,0,0:0:0:0:
256,192,126494,1,0,0:0:0:0:
256,192,126839,1,0,0:0:0:0:
256,192,128692,5,8,0:0:0:0:
256,192,129047,5,8,0:0:0:0:
256,192,129402,5,0,0:0:0:0:
256,192,129770,5,8,0:0:0:0:
256,192,130332,5,0,0:0:0:0:
256,192,130895,5,8,0:0:0:0:
256,192,131270,12,0,132207,0:0:0:0:
