osu file format v14

[General]
AudioFilename: audio.mp3
AudioLeadIn: 0
PreviewTime: 176856
Countdown: 0
SampleSet: Soft
StackLeniency: 0.7
Mode: 2
LetterboxInBreaks: 0
WidescreenStoryboard: 1

[Editor]
DistanceSpacing: 1
BeatDivisor: 4
GridSize: 4
TimelineZoom: 2.6

[Metadata]
Title:Cold Green Eyes feat. Roos Denayer
TitleUnicode:Cold Green Eyes feat. Roos Denayer
Artist:Station Earth
ArtistUnicode:Station Earth
Creator:Secre
Version:Everlasting Darkness
Source:osu!
Tags:chickenbible chatie Kuroame english drum and bass dnb liquicity galaxy of dream blue marble fa featured artist mg mpg mappers' guild electronic
BeatmapID:3073098
BeatmapSetID:1499536

[Difficulty]
HPDrainRate:5
CircleSize:4.1
OverallDifficulty:9.1
ApproachRate:9.1
SliderMultiplier:2.05
SliderTickRate:2

[Events]
//Background and Video events
0,0,"she got them cold green eyes tho.jpg",0,0
//Break Periods
2,113608,118341
//Storyboard Layer 0 (Background)
//Storyboard Layer 1 (Fail)
//Storyboard Layer 2 (Pass)
//Storyboard Layer 3 (Foreground)
//Storyboard Layer 4 (Overlay)
//Storyboard Sound Samples

[TimingPoints]
305,344.827586206897,4,2,1,50,1,0
22373,-100,4,2,2,50,0,0
43063,-100,4,2,1,50,0,0
44442,-100,4,2,1,70,0,0
66684,-100,4,2,2,70,0,1
88580,-100,4,2,1,60,0,0
88753,-100,4,2,2,60,0,0
99615,-100,4,2,1,60,0,0
99787,-100,4,2,2,60,0,0
107891,-100,4,2,2,40,0,0
132718,-100,4,2,2,50,0,0
154787,-100,4,2,1,70,0,0
177029,-100,4,2,2,70,0,1
198925,-100,4,2,1,60,0,0
199098,-100,4,2,2,60,0,0
209960,-100,4,2,1,60,0,0
210132,-100,4,2,2,60,0,0
218236,-100,4,2,1,40,0,0
220994,-100,4,2,2,50,0,0
243063,-100,4,2,1,5,0,0

[Colours]
Combo1 : 159,207,221
Combo2 : 197,255,145
Combo3 : 26,255,146
Combo4 : 202,255,239

[HitObjects]
256,192,19615,12,0,22029,0:0:0:0:
381,266,22373,6,0,L|151:250,1,205,6|0,0:2|0:2,0:2:0:0:
279,211,22891,2,0,P|351:187|260:130,1,205,2|0,0:2|0:2,0:2:0:0:
192,144,23408,2,0,L|187:27,1,102.5,2|0,0:2|0:2,0:2:0:0:
352,32,23753,6,0,L|362:263,1,205,0|2,0:2|0:2,0:0:0:0:
171,288,24442,2,0,L|158:50,1,205,0|0,0:2|0:2,0:2:0:0:
259,57,24960,1,2,0:2:0:0:
91,224,25132,6,0,P|26:197|106:132,1,205,2|0,0:2|0:2,0:2:0:0:
200,143,25649,2,0,P|268:112|190:43,1,205,2|0,0:2|0:2,0:2:0:0:
109,140,26167,2,0,L|100:31,1,102.5,2|0,0:2|0:2,0:2:0:0:
201,134,26511,6,0,L|201:27,1,102.5,0|0,0:2|0:0,0:0:0:0:
301,135,26856,2,0,L|305:12,1,102.5,2|0,0:2|0:2,0:2:0:0:
406,140,27201,2,0,L|411:13,1,102.5,0|0,0:2|0:2,0:2:0:0:
307,39,27546,2,0,L|416:37,1,102.5,0|0,0:2|0:2,0:2:0:0:
235,260,27891,6,0,P|176:234|252:155,1,205,2|0,0:2|0:2,0:2:0:0:
336,159,28408,2,0,L|106:157,1,205,2|0,0:2|0:2,0:2:0:0:
228,211,28925,2,0,L|233:103,1,102.5,2|0,0:2|0:0,0:2:0:0:
139,114,29270,6,0,L|134:-8,1,102.5,0|0,0:2|0:0,0:0:0:0:
299,119,29615,2,0,L|302:13,1,102.5,2|2,0:2|0:2,0:2:0:0:
211,16,29960,1,2,0:2:0:0:
296,16,30132,2,0,L|302:125,1,102.5,2|0,0:2|0:0,0:2:0:0:
210,143,30477,1,2,0:2:0:0:
376,158,30649,6,0,L|384:37,1,102.5,2|0,0:2|0:2,0:2:0:0:
281,53,30994,2,0,L|167:60,1,102.5,0|0,0:2|0:2,0:2:0:0:
281,53,31339,2,0,L|399:46,1,102.5,0|0,0:2|0:2,0:2:0:0:
281,53,31684,2,0,L|165:55,1,102.5,0|0,0:2|0:2,0:2:0:0:
349,152,32029,6,0,L|354:32,1,102.5,2|0,0:2|0:2,0:2:0:0:
251,54,32373,2,0,L|369:49,1,102.5,0|0,0:2|0:2,0:2:0:0:
176,251,32718,1,0,0:2:0:0:
84,222,32890,1,0,0:2:0:0:
85,127,33062,1,0,0:2:0:0:
176,100,33235,1,0,0:2:0:0:
441,86,33408,6,0,L|451:337,1,205,6|0,0:2|0:0,0:2:0:0:
246,271,34098,2,0,L|369:268,1,102.5,2|2,0:2|0:2,0:2:0:0:
246,271,34442,2,0,L|145:322,1,102.5,2|2,0:2|0:2,0:2:0:0:
307,209,34787,6,0,P|367:186|278:104,1,205,2|0,0:2|0:0,0:2:0:0:
218,88,35305,1,2,0:2:0:0:
315,70,35477,2,0,L|321:192,1,102.5,0|2,0:2|0:2,0:0:0:0:
228,186,35822,2,0,L|98:184,1,102.5,0|2,0:2|0:2,0:0:0:0:
387,256,36167,6,0,L|388:36,1,205,2|0,0:2|0:0,0:2:0:0:
193,88,36856,2,0,L|329:82,1,102.5,2|2,0:2|0:2,0:2:0:0:
193,88,37201,2,0,L|81:91,1,102.5,2|2,0:2|0:2,0:2:0:0:
267,192,37546,6,0,L|482:187,1,205,2|2,0:2|0:2,0:2:0:0:
369,129,38063,1,2,0:2:0:0:
271,111,38236,2,0,L|270:-10,1,102.5,0|2,0:0|0:2,0:0:0:0:
364,47,38580,2,0,L|365:-60,1,102.5,2|2,0:2|0:2,0:2:0:0:
122,224,38925,6,0,L|121:91,1,102.5,2|0,3:2|0:0,0:0:0:0:
219,115,39270,2,0,L|351:117,1,102.5,0|0,3:0|0:0,0:0:0:0:
219,115,39615,2,0,L|219:10,1,102.5,0|0,3:2|0:0,0:0:0:0:
315,27,39960,2,0,L|428:31,1,102.5,0|0,3:2|0:0,0:0:0:0:
307,191,40305,6,0,L|189:193,1,102.5,0|0,3:2|0:2,0:2:0:0:
357,79,40649,2,0,L|360:212,1,102.5,2|2,3:2|0:2,0:0:0:0:
190,171,40994,2,0,L|181:60,1,102.5,2|2,3:2|0:2,0:2:0:0:
335,58,41339,2,0,L|455:57,1,102.5,2|2,3:2|0:2,0:0:0:0:
164,245,41684,6,0,P|101:221|186:151,1,205,2|0,3:2|3:2,0:2:0:0:
327,197,42201,2,0,L|112:197,1,205,2|0,0:2|0:2,0:2:0:0:
298,103,42718,2,0,L|415:100,1,102.5,2|0,3:2|0:2,0:2:0:0:
298,103,43063,6,0,L|293:-8,1,102.5
389,75,43408,2,0,L|391:-35,1,102.5
490,102,43753,2,0,L|490:-24,1,102.5
390,3,44098,2,0,L|502:-1,1,102.5
156,243,44442,6,0,L|151:114,1,102.5,6|0,1:2|0:2,0:2:0:0:
398,141,44787,1,8,0:2:0:0:
246,149,44960,2,0,L|246:21,1,102.5,0|0,0:2|0:2,0:0:0:0:
484,66,45305,1,0,1:2:0:0:
224,194,45477,2,0,L|92:192,1,102.5,8|0,0:2|0:2,0:2:0:0:
369,103,45822,5,2,1:1:0:0:
216,99,45994,1,0,0:2:0:0:
369,103,46167,1,8,0:2:0:0:
216,99,46339,1,0,0:2:0:0:
455,94,46511,2,0,L|460:219,1,102.5,0|0,0:2|1:2,0:0:0:0:
217,211,46856,2,0,L|78:216,1,102.5,8|0,0:2|0:2,0:0:0:0:
434,179,47201,5,2,1:3:0:0:
271,115,47373,1,0,0:2:0:0:
106,114,47546,1,8,0:2:0:0:
271,115,47718,1,0,0:2:0:0:
434,179,47891,1,0,0:2:0:0:
271,115,48063,1,0,1:2:0:0:
33,201,48236,2,0,L|26:72,1,102.5,8|0,0:2|0:2,0:2:0:0:
271,115,48580,6,0,L|150:115,1,102.5,0|0,1:2|0:2,0:0:0:0:
322,221,48925,2,0,L|446:222,1,102.5,8|0,0:2|0:2,0:0:0:0:
265,280,49270,2,0,L|131:280,1,102.5,0|0,0:2|1:2,0:0:0:0:
406,149,49615,2,0,L|509:149,1,102.5,8|0,0:2|0:2,0:0:0:0:
236,162,49960,6,0,L|232:41,1,102.5,2|0,1:2|0:2,0:2:0:0:
86,90,50305,2,0,L|83:-21,1,102.5,8|0,0:2|0:2,0:2:0:0:
244,64,50649,2,0,L|243:-44,1,102.5,0|0,0:2|1:2,0:0:0:0:
481,104,50994,2,0,L|481:-15,1,102.5,8|0,0:2|0:2,0:2:0:0:
221,166,51339,6,0,L|362:158,1,102.5,2|0,1:1|0:0,0:2:0:0:
163,106,51684,2,0,L|156:-9,1,102.5,8|0,0:2|0:2,0:0:0:0:
311,37,52029,2,0,L|426:36,1,102.5,0|0,0:2|1:2,0:2:0:0:
169,157,52373,2,0,L|56:153,1,102.5,8|0,0:2|0:2,0:2:0:0:
360,186,52718,6,0,L|366:76,1,102.5,2|0,1:3|0:2,0:2:0:0:
206,83,53063,2,0,L|341:82,1,102.5,8|0,0:2|0:2,0:2:0:0:
469,111,53408,2,0,L|474:226,1,102.5,0|0,0:2|1:2,0:2:0:0:
194,235,53753,2,0,L|74:235,1,102.5,8|0,0:2|0:2,0:2:0:0:
381,206,54098,6,0,L|495:204,1,102.5,0|0,1:2|0:2,0:0:0:0:
325,281,54442,2,0,L|437:281,1,102.5,8|0,0:2|0:2,0:0:0:0:
262,297,54787,2,0,L|143:296,1,102.5,0|0,0:2|1:2,0:0:0:0:
401,152,55132,1,8,0:2:0:0:
239,148,55305,1,0,1:2:0:0:
484,151,55477,6,0,L|490:273,1,102.5,6|0,1:2|0:2,0:2:0:0:
321,252,55822,2,0,L|212:252,1,102.5,8|0,0:2|0:2,0:2:0:0:
379,197,56167,2,0,L|389:80,1,102.5,0|0,0:2|1:2,0:0:0:0:
142,86,56511,2,0,L|22:84,1,102.5,8|0,0:2|0:2,0:0:0:0:
294,205,56856,5,2,1:1:0:0:
464,202,57029,1,0,0:2:0:0:
294,205,57201,1,8,0:2:0:0:
124,204,57373,1,0,0:2:0:0:
294,205,57546,1,0,0:2:0:0:
464,202,57718,1,0,1:2:0:0:
124,204,57891,2,0,L|121:69,1,102.5,8|0,0:2|0:2,0:0:0:0:
410,135,58236,6,0,L|289:138,1,102.5,2|0,1:3|0:2,0:2:0:0:
157,224,58580,2,0,L|305:223,1,102.5,8|0,0:2|0:2,0:2:0:0:
101,169,58925,2,0,L|95:26,1,102.5,0|0,0:2|1:2,0:2:0:0:
358,58,59270,2,0,L|487:60,1,102.5,8|0,0:2|0:2,0:2:0:0:
182,202,59615,6,0,L|178:73,1,102.5,0|0,1:2|0:2,0:0:0:0:
329,108,59960,2,0,L|336:-7,1,102.5,8|0,0:2|0:2,0:0:0:0:
171,65,60305,2,0,L|163:-46,1,102.5,0|0,0:2|1:2,0:0:0:0:
409,39,60649,2,0,L|511:39,1,102.5,8|0,0:2|0:2,0:0:0:0:
220,228,60994,6,0,L|86:227,1,102.5,2|0,1:2|0:2,0:2:0:0:
273,157,61339,2,0,L|386:147,1,102.5,8|0,0:2|0:2,0:2:0:0:
211,76,61684,2,0,L|108:76,1,102.5,0|0,0:2|1:2,0:0:0:0:
373,61,62029,2,0,L|387:180,1,102.5,8|0,0:2|0:2,0:2:0:0:
26,235,62373,6,0,L|155:227,1,102.5,2|0,1:1|0:2,0:2:0:0:
294,207,62718,2,0,L|296:324,1,102.5,8|0,0:2|0:2,0:0:0:0:
131,323,63063,2,0,L|239:319,1,102.5,0|0,0:2|1:2,0:0:0:0:
490,289,63408,2,0,L|362:288,1,102.5,8|0,0:2|0:2,0:2:0:0:
78,157,63753,5,2,1:3:0:0:
240,157,63925,1,0,0:2:0:0:
78,157,64098,1,8,0:2:0:0:
240,157,64270,1,0,0:2:0:0:
78,157,64442,1,0,0:2:0:0:
240,157,64615,1,0,1:2:0:0:
479,159,64787,2,0,L|480:301,1,102.5,8|0,0:2|0:2,0:2:0:0:
181,231,65132,6,0,L|310:229,1,102.5,0|0,1:0|0:0,0:0:0:0:
38,176,65477,2,0,L|29:54,1,102.5,8|0,0:0|0:0,0:0:0:0:
271,96,65822,2,0,L|148:96,1,102.5,0|0,0:0|1:0,0:0:0:0:
406,236,66167,1,8,0:0:0:0:
137,236,66339,1,0,1:0:0:0:
423,176,66511,6,0,P|484:151|408:73,1,205,6|8,1:2|0:2,0:2:0:0:
180,198,67029,2,0,L|417:190,1,205,2|0,0:2|1:2,0:2:0:0:
123,146,67546,2,0,L|116:21,1,102.5,10|0,0:2|0:2,0:2:0:0:
372,127,67891,6,0,L|254:131,1,102.5,0|0,1:2|0:0,0:2:0:0:
438,239,68236,2,0,L|330:242,1,102.5,10|0,0:2|0:0,0:0:0:0:
500,328,68580,2,0,L|381:328,1,102.5,0|0,0:2|1:0,0:0:0:0:
151,169,68925,1,8,0:0:0:0:
311,153,69098,1,2,0:0:0:0:
75,299,69270,6,0,P|14:273|94:198,1,205,2|8,1:2|0:2,0:2:0:0:
331,205,69787,2,0,L|82:207,1,205,2|0,0:2|1:2,0:2:0:0:
411,106,70305,2,0,L|421:243,1,102.5,10|0,0:2|0:2,0:2:0:0:
153,254,70649,6,0,L|299:248,1,102.5,0|0,1:2|0:0,0:2:0:0:
423,185,70994,2,0,L|295:185,1,102.5,10|0,0:2|0:0,0:0:0:0:
159,131,71339,2,0,L|304:126,1,102.5,0|0,0:2|1:0,0:0:0:0:
26,217,71684,2,0,L|20:67,1,102.5,8|2,0:0|0:0,0:0:0:0:
343,121,72029,6,0,L|118:117,1,205,2|8,1:2|0:2,0:2:0:0:
383,243,72546,2,0,P|446:218|373:131,1,205,2|0,0:2|1:2,0:2:0:0:
135,162,73063,2,0,L|128:25,1,102.5,10|0,0:2|0:2,0:2:0:0:
369,103,73408,6,0,L|240:103,1,102.5,0|0,1:2|0:2,0:2:0:0:
111,189,73753,1,10,0:2:0:0:
267,101,73925,1,2,0:2:0:0:
111,189,74098,1,2,0:2:0:0:
368,188,74270,2,0,L|373:62,1,102.5,2|8,1:2|0:2,0:2:0:0:
211,75,74615,1,2,0:2:0:0:
472,99,74787,6,0,L|479:233,1,102.5,0|0,1:2|0:2,0:0:0:0:
312,229,75132,2,0,L|202:233,1,102.5,8|0,0:0|0:0,0:0:0:0:
380,158,75477,2,0,L|382:48,1,102.5,0|0,0:0|1:0,0:0:0:0:
212,58,75822,2,0,L|77:58,1,102.5,8|0,0:0|0:0,0:0:0:0:
380,213,76167,5,2,1:2:0:0:
225,217,76339,1,0,0:2:0:0:
380,213,76511,1,8,0:2:0:0:
225,217,76684,1,0,0:2:0:0:
380,213,76856,1,0,0:2:0:0:
225,217,77029,1,0,1:2:0:0:
485,141,77201,2,0,L|493:273,1,102.5,8|0,0:2|1:2,0:0:0:0:
146,260,77546,6,0,L|133:14,1,205,6|8,1:2|0:2,0:2:0:0:
237,30,78063,1,0,0:2:0:0:
485,202,78236,2,0,L|350:202,1,102.5,2|2,0:2|1:2,0:0:0:0:
209,212,78580,2,0,L|336:212,1,102.5,10|2,0:2|0:2,0:0:0:0:
48,255,78925,5,2,1:2:0:0:
311,212,79098,2,0,L|312:92,1,102.5,2|8,0:2|0:2,0:2:0:0:
151,84,79442,2,0,L|23:83,1,102.5,2|0,0:2|0:2,0:2:0:0:
306,161,79787,2,0,L|308:36,1,102.5,2|8,1:2|0:2,0:0:0:0:
145,50,80132,1,2,0:2:0:0:
384,260,80305,6,0,L|179:265,1,205,0|8,1:2|0:2,0:2:0:0:
276,193,80822,1,0,0:2:0:0:
429,138,80994,2,0,L|433:284,1,102.5,2|2,0:2|1:2,0:0:0:0:
255,275,81339,2,0,L|105:269,1,102.5,10|2,0:2|0:2,0:2:0:0:
416,305,81684,6,0,P|486:275|405:210,1,205,2|10,1:2|0:2,0:2:0:0:
245,222,82201,2,0,L|241:86,1,102.5,2|0,0:2|0:2,0:2:0:0:
406,132,82546,2,0,L|409:3,1,102.5,2|8,1:2|0:2,0:2:0:0:
248,38,82891,1,2,0:2:0:0:
490,204,83063,6,0,L|370:203,1,102.5,0|0,1:2|0:2,0:2:0:0:
221,213,83408,2,0,L|215:79,1,102.5,8|0,0:2|0:2,0:2:0:0:
376,101,83753,2,0,L|250:96,1,102.5,0|0,0:2|1:2,0:2:0:0:
29,156,84098,2,0,L|21:21,1,102.5,8|0,0:0|0:0,0:0:0:0:
258,115,84442,6,0,L|126:116,1,102.5,0|0,1:2|0:2,0:2:0:0:
314,210,84787,2,0,L|441:212,1,102.5,10|2,0:2|0:2,0:0:0:0:
255,287,85132,1,2,0:2:0:0:
418,290,85305,1,2,1:2:0:0:
255,287,85477,1,10,0:2:0:0:
418,290,85649,1,2,0:2:0:0:
115,258,85822,6,0,P|48:231|130:160,1,205,2|8,1:2|0:2,0:2:0:0:
354,192,86339,2,0,L|100:193,1,205,2|0,0:2|1:2,0:2:0:0:
440,198,86856,2,0,L|447:69,1,102.5,10|0,0:2|0:2,0:2:0:0:
176,102,87201,5,0,1:2:0:0:
334,95,87373,1,0,0:2:0:0:
176,102,87546,1,8,0:0:0:0:
334,95,87718,1,0,0:0:0:0:
66,200,87891,2,0,L|57:55,1,102.5,0|2,0:0|1:2,0:0:0:0:
305,93,88236,1,8,0:0:0:0:
53,93,88408,1,0,1:0:0:0:
344,195,88580,6,0,P|406:165|327:73,1,205,6|8,1:2|0:2,0:2:0:0:
161,194,89270,2,0,L|156:71,1,102.5,0|2,0:2|1:2,0:2:0:0:
322,69,89615,1,8,0:2:0:0:
29,248,89960,6,0,L|268:246,1,205,0|8,1:2|0:2,0:2:0:0:
132,182,90477,1,2,0:2:0:0:
236,170,90649,2,0,L|236:41,1,102.5,0|0,0:2|0:0,0:2:0:0:
68,80,90994,1,8,0:2:0:0:
346,199,91339,6,0,L|101:199,1,205,0|8,1:2|0:2,0:2:0:0:
244,143,91856,1,2,0:2:0:0:
345,130,92029,2,0,L|348:263,1,102.5,0|2,0:2|1:2,0:0:0:0:
181,241,92373,2,0,L|173:97,1,102.5,8|2,0:2|0:2,0:2:0:0:
336,111,92718,6,0,L|201:115,1,102.5,0|2,1:2|0:2,0:2:0:0:
400,98,93063,2,0,L|410:233,1,102.5,8|2,0:2|0:2,0:0:0:0:
243,245,93408,2,0,L|138:247,1,102.5,0|2,0:2|1:2,0:0:0:0:
308,150,93753,2,0,L|423:145,1,102.5,8|0,0:2|0:0,0:0:0:0:
133,270,94098,6,0,P|73:240|156:162,1,205,0|8,1:2|0:2,0:2:0:0:
233,150,94615,1,2,0:2:0:0:
340,164,94787,2,0,L|346:52,1,102.5,0|2,0:2|1:2,0:0:0:0:
172,87,95132,2,0,L|164:-30,1,102.5,8|0,0:2|0:2,0:2:0:0:
339,74,95477,6,0,L|226:73,1,102.5,0|0,1:2|0:0,0:2:0:0:
71,129,95822,2,0,L|69:236,1,102.5,8|2,0:2|0:2,0:0:0:0:
237,229,96167,2,0,L|375:227,1,102.5,0|2,0:2|1:2,0:2:0:0:
174,128,96511,2,0,L|60:127,1,102.5,8|2,0:2|0:2,0:2:0:0:
370,134,96856,6,0,L|379:388,1,205,0|8,1:2|0:2,0:2:0:0:
276,338,97373,1,2,0:2:0:0:
372,308,97546,2,0,L|375:182,1,102.5,0|2,0:2|1:2,0:2:0:0:
214,152,97891,2,0,L|84:153,1,102.5,8|2,0:2|0:2,0:2:0:0:
371,112,98236,6,0,L|482:112,1,102.5,0|2,1:2|0:2,0:2:0:0:
204,90,98580,2,0,L|87:89,1,102.5,8|2,0:2|0:2,0:0:0:0:
384,57,98925,2,0,L|489:57,1,102.5,0|2,0:2|1:2,0:0:0:0:
163,176,99270,1,8,0:2:0:0:
406,177,99442,1,2,1:2:0:0:
150,291,99615,6,0,L|145:61,1,205,6|8,1:2|0:2,0:2:0:0:
249,133,100132,1,2,0:2:0:0:
351,194,100305,2,0,L|356:71,1,102.5,0|2,0:2|1:2,0:2:0:0:
190,69,100650,1,8,0:2:0:0:
483,248,100995,6,0,L|244:246,1,205,0|8,1:2|0:2,0:2:0:0:
380,182,101512,1,2,0:2:0:0:
276,170,101684,2,0,L|276:41,1,102.5,0|0,0:2|0:0,0:2:0:0:
444,80,102029,1,8,0:2:0:0:
166,199,102374,6,0,L|411:199,1,205,0|8,1:2|0:2,0:2:0:0:
268,143,102891,1,2,0:2:0:0:
167,130,103064,2,0,L|164:263,1,102.5,0|2,0:2|1:2,0:0:0:0:
331,241,103408,2,0,L|339:97,1,102.5,8|2,0:2|0:2,0:2:0:0:
176,111,103753,6,0,L|311:115,1,102.5,0|2,1:2|0:2,0:2:0:0:
112,98,104098,2,0,L|102:233,1,102.5,8|2,0:2|0:2,0:0:0:0:
269,245,104443,2,0,L|374:247,1,102.5,0|2,0:2|1:2,0:0:0:0:
204,150,104788,2,0,L|89:145,1,102.5,8|0,0:2|0:0,0:0:0:0:
379,270,105133,6,0,P|439:240|356:162,1,205,0|8,1:2|0:2,0:2:0:0:
279,150,105650,1,2,0:2:0:0:
172,164,105822,2,0,L|166:52,1,102.5,0|2,0:2|1:2,0:0:0:0:
340,87,106167,2,0,L|348:-30,1,102.5,8|2,0:2|0:2,0:2:0:0:
173,74,106512,6,0,L|286:73,1,102.5,0|0,1:2|0:0,0:2:0:0:
441,129,106857,2,0,L|443:236,1,102.5,8|2,0:2|0:2,0:0:0:0:
275,229,107202,2,0,L|137:227,1,102.5,0|2,0:2|1:2,0:2:0:0:
338,128,107546,2,0,L|452:127,1,102.5,8|2,0:2|0:2,0:2:0:0:
177,211,107891,6,0,L|177:85,1,102.5
177,211,108236,2,0,L|177:85,1,102.5
177,211,108580,2,0,L|177:85,1,102.5
177,211,108925,2,0,L|177:85,1,102.5
279,210,109270,6,0,L|158:211,1,102.5,2|0,0:0|0:0,0:0:0:0:
176,210,109615,2,0,L|61:211,1,102.5,2|0,0:0|0:0,0:0:0:0:
74,210,109960,2,0,L|196:211,1,102.5,2|0,0:0|0:0,0:0:0:0:
176,210,110305,2,0,L|301:211,1,102.5,2|0,0:0|0:0,0:0:0:0:
176,210,110649,5,2,0:0:0:0:
256,192,110822,12,2,113408,0:0:0:0:
254,196,118925,5,2,0:0:0:0:
256,192,119098,12,2,121339,0:0:0:0:
246,200,121684,6,0,L|254:85,1,102.5,2|0,0:0|0:0,0:0:0:0:
154,116,122029,2,0,L|151:-24,1,102.5
255,111,122373,1,0,0:0:0:0:
154,116,122546,1,0,0:0:0:0:
154,116,122891,1,0,0:0:0:0:
255,111,123063,6,0,L|257:-12,1,102.5
153,41,123408,2,0,L|154:151,1,102.5
251,146,123753,1,0,0:0:0:0:
350,150,123925,1,0,0:0:0:0:
350,150,124270,1,0,0:0:0:0:
251,146,124442,6,0,L|252:18,1,102.5,2|0,0:0|0:0,0:0:0:0:
351,32,124787,2,0,L|352:143,1,102.5
251,145,125132,1,0,0:0:0:0:
154,147,125305,1,0,0:0:0:0:
154,147,125649,1,0,0:0:0:0:
251,145,125822,5,0,0:0:0:0:
348,147,125994,1,0,0:0:0:0:
251,145,126167,2,0,L|251:38,1,102.5
341,32,126511,1,0,0:0:0:0:
436,34,126684,1,0,0:0:0:0:
436,34,127029,1,0,0:0:0:0:
341,150,127201,6,0,L|336:6,1,102.5,2|0,0:0|0:0,0:0:0:0:
243,83,127546,2,0,L|238:-39,1,102.5
338,11,127891,1,0,0:0:0:0:
242,82,128063,1,0,0:0:0:0:
242,82,128408,1,0,0:0:0:0:
341,77,128580,6,0,L|342:199,1,102.5
245,206,128925,2,0,L|240:92,1,102.5
145,110,129270,1,0,0:0:0:0:
238,96,129442,1,0,0:0:0:0:
238,96,129787,1,0,0:0:0:0:
145,110,129960,6,0,L|145:-7,1,102.5,2|0,0:0|0:0,0:0:0:0:
238,96,130305,2,0,L|239:-12,1,102.5
336,100,130649,1,0,0:0:0:0:
238,96,130822,1,0,0:0:0:0:
238,96,131167,1,0,0:0:0:0:
336,100,131339,6,0,L|336:-15,1,102.5
186,241,131684,2,0,L|78:279,1,102.5
244,168,132029,2,0,L|349:210,1,102.5
176,248,132373,2,0,L|65:302,1,102.5,2|0,0:0|0:0,0:0:0:0:
349,264,132718,6,0,P|419:229|335:176,1,205,6|0,0:2|0:2,0:2:0:0:
249,171,133236,2,0,L|487:169,1,205,2|0,0:2|0:2,0:2:0:0:
348,251,133753,2,0,L|233:283,1,102.5,2|0,0:2|0:2,0:2:0:0:
425,303,134098,6,0,L|429:50,1,205,0|2,0:2|0:2,0:0:0:0:
246,86,134787,2,0,L|459:160,1,205,0|0,0:2|0:2,0:2:0:0:
339,197,135305,1,2,0:2:0:0:
168,250,135477,6,0,P|111:222|187:144,1,205,2|0,0:2|0:2,0:2:0:0:
279,152,135994,2,0,L|41:204,1,205,2|0,0:2|0:2,0:2:0:0:
179,255,136511,6,0,P|284:234|181:39,1,410,2|2,0:2|0:2,0:2:0:0:
364,88,137546,2,0,L|369:329,1,205,0|0,0:2|0:2,0:2:0:0:
274,306,138063,1,2,0:2:0:0:
109,237,138236,6,0,P|51:215|138:138,1,205,2|0,0:2|0:2,0:2:0:0:
206,131,138753,2,0,L|401:231,1,205,2|0,0:2|0:2,0:2:0:0:
212,258,139270,6,0,P|175:195|325:75,1,307.5,2|0,0:2|0:0,0:2:0:0:
410,85,139960,2,0,L|415:220,1,102.5,2|2,0:2|0:2,0:2:0:0:
311,187,140305,2,0,L|481:163,2,153.75,2|0|2,0:2|0:0|0:2,0:0:0:0:
138,252,140994,6,0,L|137:139,1,102.5,2|0,0:2|0:0,0:2:0:0:
236,151,141339,2,0,L|240:24,1,102.5
141,39,141684,1,0,0:0:0:0:
239,37,141856,1,0,0:0:0:0:
239,37,142201,1,0,0:0:0:0:
141,39,142373,6,0,L|144:156,1,102.5
240,133,142718,2,0,L|238:17,1,102.5
336,130,143063,2,0,L|338:6,1,102.5
175,216,143408,2,0,L|170:64,1,102.5,2|0,0:2|0:0,0:0:0:0:
456,74,143753,6,0,L|461:288,1,205,6|0,0:2|0:0,0:2:0:0:
271,285,144442,2,0,L|378:252,1,102.5,2|2,0:2|0:2,0:2:0:0:
271,285,144787,2,0,L|158:255,1,102.5,2|2,0:2|0:2,0:2:0:0:
356,232,145132,6,0,P|425:183|346:108,1,205,2|0,0:2|0:0,0:2:0:0:
270,108,145649,1,2,0:2:0:0:
177,157,145822,2,0,L|174:21,1,102.5,0|2,0:2|0:2,0:0:0:0:
270,62,146167,2,0,L|270:-54,1,102.5,0|2,0:2|0:2,0:0:0:0:
33,243,146511,6,0,L|31:21,1,205,0|0,0:2|0:0,0:2:0:0:
213,92,147201,2,0,L|107:142,1,102.5,2|2,0:2|0:2,0:2:0:0:
213,92,147546,2,0,L|316:134,1,102.5,2|2,0:2|0:2,0:2:0:0:
146,268,147891,6,0,P|82:243|167:167,1,205,2|2,0:2|0:2,0:2:0:0:
295,162,148408,2,0,L|299:46,1,102.5,2|0,0:2|0:0,0:2:0:0:
199,52,148753,1,2,0:2:0:0:
350,84,148925,2,0,L|467:123,1,102.5,0|0,0:2|0:2,0:2:0:0:
164,261,149270,6,0,L|156:111,1,102.5,2|0,3:2|0:0,0:0:0:0:
321,104,149615,2,0,L|438:157,1,102.5,0|0,3:2|0:0,0:0:0:0:
253,171,149960,2,0,L|132:204,1,102.5,0|0,3:2|0:0,0:0:0:0:
316,164,150305,2,0,L|431:207,1,102.5,0|0,3:2|0:0,0:0:0:0:
155,270,150649,6,0,L|151:138,1,102.5,0|0,3:2|0:2,0:2:0:0:
309,130,150994,2,0,L|420:127,1,102.5,2|2,3:2|0:2,0:0:0:0:
250,212,151339,1,0,3:2:0:0:
404,214,151511,1,2,0:2:0:0:
250,212,151684,1,2,3:2:0:0:
404,214,151856,1,2,0:2:0:0:
108,264,152029,6,0,P|47:233|131:150,1,205,2|0,3:2|3:2,0:2:0:0:
372,154,152546,2,0,L|145:155,1,205,2|0,0:2|0:2,0:2:0:0:
447,245,153063,5,2,3:2:0:0:
256,192,153236,12,0,154098,0:0:0:0:
161,246,154442,6,0,P|108:221|181:183,1,153.75
356,243,154787,6,0,L|361:114,1,102.5,6|0,1:2|0:2,0:2:0:0:
114,141,155132,1,8,0:2:0:0:
266,149,155305,2,0,L|266:21,1,102.5,0|0,0:2|0:2,0:0:0:0:
28,66,155650,1,0,1:2:0:0:
288,194,155822,2,0,L|420:192,1,102.5,8|0,0:2|0:2,0:2:0:0:
143,103,156167,5,2,1:1:0:0:
296,99,156339,1,0,0:2:0:0:
143,103,156512,1,8,0:2:0:0:
296,99,156684,1,0,0:2:0:0:
57,94,156856,2,0,L|52:219,1,102.5,0|0,0:2|1:2,0:0:0:0:
295,211,157201,2,0,L|434:216,1,102.5,8|0,0:2|0:2,0:0:0:0:
78,179,157546,5,2,1:3:0:0:
241,115,157718,1,0,0:2:0:0:
406,114,157891,1,8,0:2:0:0:
241,115,158063,1,0,0:2:0:0:
78,179,158236,1,0,0:2:0:0:
241,115,158408,1,0,1:2:0:0:
479,201,158581,2,0,L|486:72,1,102.5,8|0,0:2|0:2,0:2:0:0:
241,115,158925,6,0,L|362:115,1,102.5,0|0,1:2|0:2,0:0:0:0:
71,341,159270,2,0,L|70:215,1,102.5,8|0,0:2|0:2,0:0:0:0:
328,263,159615,2,0,L|462:263,1,102.5,0|0,0:2|1:2,0:0:0:0:
119,151,159960,2,0,L|16:151,1,102.5,8|0,0:2|0:2,0:0:0:0:
276,162,160305,6,0,L|280:41,1,102.5,2|0,1:2|0:0,0:0:0:0:
426,90,160650,2,0,L|429:-21,1,102.5,8|0,0:0|0:0,0:0:0:0:
268,64,160994,2,0,L|269:-44,1,102.5,0|0,0:0|1:0,0:0:0:0:
31,104,161339,2,0,L|31:-15,1,102.5,8|0,0:0|0:0,0:0:0:0:
291,166,161684,6,0,L|150:158,1,102.5,2|0,1:0|0:0,0:0:0:0:
445,159,162029,2,0,L|452:44,1,102.5,8|0,0:0|0:0,0:0:0:0:
201,37,162374,2,0,L|86:36,1,102.5,0|0,0:0|1:0,0:0:0:0:
343,157,162718,2,0,L|456:153,1,102.5,8|0,0:0|0:0,0:0:0:0:
152,186,163063,6,0,L|146:76,1,102.5,2|0,1:3|0:0,0:0:0:0:
306,83,163408,2,0,L|171:82,1,102.5,8|0,0:0|0:0,0:0:0:0:
43,111,163753,2,0,L|38:226,1,102.5,0|0,0:0|1:0,0:0:0:0:
318,235,164098,2,0,L|438:235,1,102.5,8|0,0:0|0:0,0:0:0:0:
131,206,164443,6,0,L|17:204,1,102.5,0|0,1:0|0:0,0:0:0:0:
187,281,164787,2,0,L|75:281,1,102.5,8|0,0:0|0:0,0:0:0:0:
250,297,165132,2,0,L|369:296,1,102.5,0|0,0:0|1:0,0:0:0:0:
111,152,165477,1,8,0:0:0:0:
273,148,165650,1,0,1:0:0:0:
28,151,165822,6,0,L|22:273,1,102.5,6|0,1:2|0:0,0:0:0:0:
301,261,166167,2,0,L|410:261,1,102.5,8|0,0:0|0:0,0:0:0:0:
133,197,166512,2,0,L|123:80,1,102.5,0|0,0:0|1:0,0:0:0:0:
370,86,166856,2,0,L|490:84,1,102.5,8|0,0:0|0:0,0:0:0:0:
218,205,167201,5,2,1:0:0:0:
48,202,167374,1,0,0:0:0:0:
218,205,167546,1,8,0:0:0:0:
388,204,167718,1,0,0:0:0:0:
218,205,167891,1,0,0:0:0:0:
48,202,168063,1,0,1:0:0:0:
388,204,168236,2,0,L|391:69,1,102.5,8|0,0:0|0:0,0:0:0:0:
102,135,168581,6,0,L|223:138,1,102.5,2|0,1:3|0:0,0:0:0:0:
355,224,168925,2,0,L|207:223,1,102.5,8|0,0:0|0:0,0:0:0:0:
411,169,169270,2,0,L|417:26,1,102.5,0|0,0:0|1:0,0:0:0:0:
154,58,169615,2,0,L|25:60,1,102.5,8|0,0:0|0:0,0:0:0:0:
330,202,169960,6,0,L|334:73,1,102.5,0|0,1:0|0:0,0:0:0:0:
58,199,170305,2,0,L|51:84,1,102.5,8|0,0:0|0:0,0:0:0:0:
341,65,170650,2,0,L|349:-46,1,102.5,0|0,0:0|1:0,0:0:0:0:
103,39,170994,2,0,L|1:39,1,102.5,8|0,0:0|0:0,0:0:0:0:
292,228,171339,6,0,L|426:227,1,102.5,2|0,1:2|0:0,0:0:0:0:
239,157,171684,2,0,L|126:147,1,102.5,8|0,0:0|0:0,0:0:0:0:
301,76,172029,2,0,L|404:76,1,102.5,0|0,0:0|1:0,0:0:0:0:
139,61,172374,2,0,L|125:180,1,102.5,8|0,0:0|0:0,0:0:0:0:
486,235,172718,6,0,L|357:227,1,102.5,2|0,1:0|0:0,0:0:0:0:
218,207,173063,2,0,L|216:324,1,102.5,8|0,0:0|0:0,0:0:0:0:
381,323,173408,2,0,L|273:319,1,102.5,0|0,0:0|1:0,0:0:0:0:
22,289,173753,2,0,L|150:288,1,102.5,8|0,0:0|0:0,0:0:0:0:
434,157,174098,5,2,1:3:0:0:
272,157,174270,1,0,0:0:0:0:
434,157,174443,1,8,0:0:0:0:
272,157,174615,1,0,0:0:0:0:
434,157,174787,1,0,0:0:0:0:
272,157,174960,1,0,1:0:0:0:
33,159,175132,2,0,L|32:301,1,102.5,8|0,0:0|0:0,0:0:0:0:
331,231,175477,6,0,L|202:229,1,102.5,0|0,1:0|0:0,0:0:0:0:
474,176,175822,2,0,L|483:54,1,102.5,8|0,0:0|0:0,0:0:0:0:
241,96,176167,2,0,L|364:96,1,102.5,0|0,0:0|1:0,0:0:0:0:
106,236,176512,1,8,0:0:0:0:
375,236,176684,1,0,1:0:0:0:
89,176,176856,6,0,P|28:151|104:73,1,205,6|8,1:2|0:2,0:2:0:0:
332,198,177374,2,0,L|95:190,1,205,2|0,0:2|1:2,0:2:0:0:
389,146,177891,2,0,L|396:21,1,102.5,10|0,0:2|0:2,0:2:0:0:
140,127,178236,6,0,L|258:131,1,102.5,0|0,1:0|0:0,0:0:0:0:
74,239,178581,2,0,L|182:242,1,102.5,10|0,0:0|0:0,0:0:0:0:
12,328,178925,2,0,L|131:328,1,102.5,0|0,0:0|1:2,0:0:0:0:
361,169,179270,1,8,0:2:0:0:
201,153,179443,1,2,0:0:0:0:
437,299,179615,6,0,P|498:273|418:198,1,205,2|8,1:2|0:2,0:2:0:0:
181,205,180132,2,0,L|430:207,1,205,2|0,0:2|1:2,0:2:0:0:
101,106,180650,2,0,L|91:243,1,102.5,10|0,0:2|0:2,0:2:0:0:
359,254,180994,6,0,L|213:248,1,102.5,0|0,1:2|0:0,0:2:0:0:
89,185,181339,2,0,L|217:185,1,102.5,10|0,0:2|0:0,0:0:0:0:
353,131,181684,2,0,L|208:126,1,102.5,0|0,0:2|1:0,0:0:0:0:
486,217,182029,2,0,L|492:67,1,102.5,8|2,0:0|0:0,0:0:0:0:
169,121,182374,6,0,L|394:117,1,205,2|8,1:2|0:2,0:2:0:0:
129,243,182891,2,0,P|66:218|139:131,1,205,2|0,0:2|1:2,0:2:0:0:
377,162,183408,2,0,L|384:25,1,102.5,10|0,0:2|0:2,0:2:0:0:
143,103,183753,6,0,L|272:103,1,102.5,0|0,1:2|0:2,0:2:0:0:
401,189,184098,1,10,0:2:0:0:
245,101,184270,1,2,0:2:0:0:
401,189,184443,1,2,0:2:0:0:
144,188,184615,2,0,L|139:62,1,102.5,2|8,1:2|0:2,0:2:0:0:
301,75,184960,1,2,0:2:0:0:
40,99,185132,6,0,L|33:233,1,102.5,2|0,1:2|0:2,0:0:0:0:
200,229,185477,2,0,L|310:233,1,102.5,8|0,0:2|0:2,0:2:0:0:
132,158,185822,2,0,L|130:48,1,102.5,0|0,0:2|1:2,0:0:0:0:
300,58,186167,2,0,L|435:58,1,102.5,8|0,0:2|0:2,0:2:0:0:
132,213,186512,5,2,1:2:0:0:
287,217,186684,1,0,0:2:0:0:
132,213,186856,1,8,0:2:0:0:
287,217,187029,1,0,0:2:0:0:
132,213,187201,1,0,0:2:0:0:
287,217,187374,1,0,1:2:0:0:
27,141,187546,2,0,L|19:273,1,102.5,8|0,0:2|1:2,0:0:0:0:
366,260,187891,6,0,L|379:14,1,205,6|8,1:2|0:2,0:2:0:0:
275,30,188408,1,0,0:2:0:0:
27,202,188581,2,0,L|162:202,1,102.5,2|2,0:2|1:2,0:0:0:0:
303,212,188925,2,0,L|176:212,1,102.5,10|2,0:2|0:2,0:0:0:0:
464,255,189270,5,2,1:2:0:0:
201,212,189443,2,0,L|200:92,1,102.5,2|8,0:2|0:2,0:2:0:0:
361,84,189787,2,0,L|489:83,1,102.5,2|0,0:2|0:2,0:2:0:0:
206,161,190132,2,0,L|204:36,1,102.5,2|8,1:2|0:2,0:0:0:0:
379,47,190477,1,2,0:2:0:0:
144,259,190650,6,0,L|349:265,1,205,0|8,1:2|0:2,0:2:0:0:
249,196,191167,1,0,0:2:0:0:
13,123,191339,2,0,L|9:269,1,102.5,2|2,0:2|1:2,0:0:0:0:
259,273,191684,2,0,L|409:267,1,102.5,10|2,0:2|0:2,0:2:0:0:
96,305,192029,6,0,P|26:275|107:210,1,205,2|10,1:2|0:2,0:2:0:0:
354,247,192546,2,0,L|358:111,1,102.5,2|0,0:2|0:2,0:2:0:0:
106,132,192891,2,0,L|103:3,1,102.5,2|8,1:2|0:2,0:2:0:0:
264,38,193236,1,2,0:2:0:0:
22,204,193408,6,0,L|142:203,1,102.5,0|0,1:2|0:2,0:2:0:0:
291,213,193753,2,0,L|297:79,1,102.5,8|0,0:2|0:2,0:2:0:0:
136,101,194098,2,0,L|262:96,1,102.5,0|0,0:2|1:2,0:2:0:0:
483,156,194443,2,0,L|491:21,1,102.5,8|0,0:2|0:2,0:2:0:0:
254,115,194787,6,0,L|386:116,1,102.5,0|0,1:2|0:2,0:2:0:0:
94,290,195132,2,0,L|88:172,1,102.5,10|2,0:2|0:2,0:0:0:0:
257,287,195477,1,2,0:2:0:0:
94,290,195650,1,2,1:2:0:0:
257,287,195822,1,10,0:2:0:0:
94,290,195994,1,2,0:2:0:0:
397,258,196167,6,0,P|464:231|382:160,1,205,2|8,1:2|0:2,0:2:0:0:
158,192,196684,2,0,L|412:193,1,205,2|0,0:2|1:2,0:2:0:0:
72,198,197201,2,0,L|65:69,1,102.5,10|0,0:2|0:2,0:2:0:0:
336,102,197546,5,0,1:2:0:0:
178,95,197718,1,0,0:2:0:0:
336,102,197891,1,8,0:2:0:0:
178,95,198063,1,0,0:2:0:0:
446,200,198236,2,0,L|455:55,1,102.5,0|0,0:2|1:2,0:0:0:0:
207,93,198581,1,8,0:2:0:0:
459,93,198753,1,0,1:2:0:0:
168,195,198925,6,0,P|106:165|185:73,1,205,6|8,1:2|0:2,0:2:0:0:
336,147,199615,2,0,L|206:142,1,102.5,0|2,0:2|1:2,0:2:0:0:
66,122,199960,1,8,0:2:0:0:
346,252,200305,6,0,L|349:5,1,205,0|8,1:2|0:2,0:2:0:0:
142,136,200994,2,0,L|275:131,1,102.5,0|0,0:2|0:0,0:2:0:0:
411,193,201339,1,8,0:2:0:0:
147,251,201684,6,0,P|86:228|170:150,1,205,0|8,1:2|0:2,0:2:0:0:
339,159,202373,2,0,L|342:19,1,102.5,0|2,0:2|1:2,0:0:0:0:
174,60,202718,1,8,0:2:0:0:
376,202,203063,6,0,L|381:77,1,102.5,0|2,1:2|0:2,0:2:0:0:
222,112,203408,2,0,L|211:-15,1,102.5,8|2,0:2|0:2,0:0:0:0:
364,26,203753,2,0,L|460:74,1,102.5,0|2,0:2|1:2,0:0:0:0:
298,143,204098,2,0,L|166:176,1,102.5,8|0,0:2|0:0,0:0:0:0:
448,271,204442,6,0,L|449:28,1,205,0|8,1:2|0:2,0:2:0:0:
161,194,205132,2,0,L|156:71,1,102.5,0|2,0:2|1:2,0:0:0:0:
322,69,205477,1,8,0:2:0:0:
29,248,205822,6,0,L|268:246,1,205,0|8,1:2|0:2,0:2:0:0:
132,182,206339,1,2,0:2:0:0:
236,170,206511,2,0,L|236:41,1,102.5,0|2,0:2|1:2,0:2:0:0:
68,80,206856,1,8,0:2:0:0:
346,199,207201,6,0,L|101:199,1,205,0|8,1:2|0:2,0:2:0:0:
244,143,207718,1,2,0:2:0:0:
345,130,207891,2,0,L|348:263,1,102.5,0|2,0:2|1:2,0:2:0:0:
181,241,208235,2,0,L|173:97,1,102.5,8|2,0:2|0:2,0:2:0:0:
336,111,208580,6,0,L|201:115,1,102.5,0|2,1:2|0:2,0:2:0:0:
400,98,208925,2,0,L|410:233,1,102.5,8|2,0:2|0:2,0:0:0:0:
243,245,209270,2,0,L|138:247,1,102.5,0|2,0:2|1:2,0:0:0:0:
308,150,209615,2,0,L|423:145,1,102.5,8|2,0:2|1:2,0:0:0:0:
127,288,209960,6,0,L|122:51,1,205,6|8,1:2|0:2,0:2:0:0:
221,60,210477,1,2,0:2:0:0:
371,99,210649,2,0,L|372:222,1,102.5,0|2,0:2|1:2,0:2:0:0:
203,219,210994,2,0,L|65:213,1,102.5,8|2,0:2|0:2,0:2:0:0:
380,285,211339,6,0,P|441:249|367:159,1,205,0|8,1:2|0:2,0:2:0:0:
281,149,211856,1,2,0:2:0:0:
122,180,212029,2,0,L|113:41,1,102.5,0|0,0:2|0:0,0:2:0:0:
287,62,212373,2,0,L|402:63,1,102.5,8|2,0:2|0:2,0:0:0:0:
81,290,212718,6,0,L|79:38,1,205,0|8,1:2|0:2,0:2:0:0:
182,70,213236,1,2,0:2:0:0:
343,101,213408,2,0,L|345:243,1,102.5,0|2,0:2|1:2,0:0:0:0:
189,276,213753,2,0,L|182:147,1,102.5,8|2,0:2|0:2,0:2:0:0:
461,191,214098,6,0,L|239:188,1,205,0|8,1:2|0:2,0:2:0:0:
357,261,214615,1,2,0:2:0:0:
203,167,214787,2,0,L|89:200,1,102.5,0|2,0:2|1:2,0:0:0:0:
265,98,215132,2,0,L|379:68,1,102.5,8|0,0:2|0:0,0:0:0:0:
60,279,215477,6,0,L|58:37,1,205,0|8,1:2|0:2,0:2:0:0:
158,56,215994,1,2,0:2:0:0:
321,134,216167,2,0,L|441:131,1,102.5,0|2,0:2|1:2,0:0:0:0:
166,190,216511,1,8,0:2:0:0:
436,81,216856,6,0,L|447:326,1,205,0|8,1:2|0:2,0:2:0:0:
355,290,217373,1,2,0:2:0:0:
199,176,217546,2,0,L|78:177,1,102.5,0|2,0:2|1:2,0:2:0:0:
367,115,217891,1,8,0:2:0:0:
212,135,218236,5,0,0:0:0:0:
256,192,218408,12,0,220649,0:0:0:0:
271,216,220994,6,0,P|336:186|247:107,1,205,6|0,0:2|0:2,0:2:0:0:
184,151,221511,2,0,P|129:126|213:47,1,205,2|0,0:2|0:2,0:2:0:0:
289,50,222029,2,0,L|293:187,1,102.5,2|0,0:0|0:0,0:0:0:0:
126,279,222373,6,0,L|116:34,1,205,0|2,0:0|0:0,0:0:0:0:
331,192,223580,1,2,0:0:0:0:
155,235,223753,6,0,P|91:200|176:136,1,205,2|0,0:2|0:2,0:2:0:0:
254,169,224270,2,0,P|309:142|236:57,1,205,2|0,0:2|0:2,0:2:0:0:
81,75,224787,6,0,P|69:172|313:234,1,410,2|2,0:0|0:0,0:0:0:0:
232,30,226339,1,2,0:0:0:0:
395,202,226511,6,0,P|451:186|379:100,1,205,2|0,0:0|0:0,0:0:0:0:
302,108,227029,2,0,P|249:127|322:225,1,205,2|0,0:0|0:0,0:0:0:0:
468,294,227546,6,0,P|502:242|362:96,1,307.5,2|0,0:0|0:0,0:0:0:0:
283,154,228236,2,0,L|281:22,1,102.5,2|2,0:0|0:0,0:0:0:0:
378,121,228580,2,0,L|229:185,2,153.75,2|2|2,0:0|0:0|0:2,0:0:0:0:
116,258,229270,6,0,P|61:217|325:122,1,615,2|0,0:2|0:0,0:2:0:0:
161,93,230649,6,0,L|148:317,1,205
307,251,231339,2,0,L|311:134,1,102.5
134,166,231684,2,0,L|133:52,1,102.5,2|0,0:2|0:0,0:0:0:0:
408,232,232029,6,0,L|414:2,1,205,6|0,0:2|0:0,0:2:0:0:
250,66,232718,2,0,L|363:97,1,102.5,2|2,0:2|0:2,0:2:0:0:
250,66,233063,2,0,L|141:99,1,102.5,2|2,0:2|0:2,0:2:0:0:
330,250,233408,6,0,P|391:222|311:146,1,205,2|0,0:0|0:0,0:0:0:0:
241,0,233925,2,0,L|240:55,1,102.5,2|0,0:2|0:2,0:2:0:0:
338,26,234269,2,0,L|339:128,1,102.5,2|0,0:2|0:2,0:2:0:0:
239,134,234614,1,2,0:0:0:0:
71,37,234787,6,0,L|66:258,1,205,2|0,0:0|0:0,0:0:0:0:
247,245,235477,2,0,L|139:273,1,102.5,2|2,0:0|0:0,0:0:0:0:
247,245,235822,2,0,L|355:284,1,102.5,2|2,0:0|0:0,0:0:0:0:
182,294,236167,6,0,P|127:264|201:165,1,205,2|2,0:0|0:0,0:0:0:0:
285,222,236684,2,0,L|295:90,1,102.5,2|0,0:0|0:0,0:0:0:0:
206,116,237029,2,0,L|209:3,1,102.5,2|0,0:0|0:0,0:0:0:0:
300,24,237373,1,2,0:0:0:0:
51,83,237546,6,0,P|43:261|277:288,1,410,2|0,0:0|0:0,0:0:0:0:
373,177,239270,6,0,L|374:44,1,102.5,2|2,0:2|0:2,0:2:0:0:
218,80,239615,2,0,L|104:142,1,102.5,2|2,0:2|0:2,0:2:0:0:
285,115,239960,2,0,L|413:170,1,102.5,2|2,0:2|0:2,0:2:0:0:
125,254,240305,6,0,P|58:226|137:146,1,205,2|0,0:2|0:0,0:2:0:0:
315,232,240908,2,0,P|371:207|289:87,1,256.25,2|0,0:0|0:0,0:0:0:0:
237,285,241425,6,0,P|199:240|407:298,1,768.75,2|0,0:0|0:0,0:0:0:0:
256,192,243063,12,0,245822,0:0:0:0:
