osu file format v14

[General]
AudioFilename: audio.mp3
AudioLeadIn: 0
PreviewTime: 154255
Countdown: 0
SampleSet: Soft
StackLeniency: 0.7
Mode: 0
LetterboxInBreaks: 0
WidescreenStoryboard: 1

[Editor]
DistanceSpacing: 1.4
BeatDivisor: 4
GridSize: 4
TimelineZoom: 1

[Metadata]
Title:Cold Green Eyes feat. Roos Denayer
TitleUnicode:Cold Green Eyes feat. Roos Denayer
Artist:Station Earth
ArtistUnicode:Station Earth
Creator:Kuroame
Version:Kurowari's Insane
Source:osu!
Tags:english drum and bass dnb liquid liquicity galaxy of dreams 2 blue marble fa featured artist Matthias De Herdt DJ Jelle Maeyer kowari - ex - -_ex_- electronic enerugi
BeatmapID:2380060
BeatmapSetID:1129303

[Difficulty]
HPDrainRate:4.5
CircleSize:4
OverallDifficulty:8
ApproachRate:9
SliderMultiplier:1.7
SliderTickRate:1

[Events]
//Background and Video events
0,0,"bg.jpg",0,0
//Break Periods
2,110849,121084
//Storyboard Layer 0 (Background)
//Storyboard Layer 1 (Fail)
//Storyboard Layer 2 (Pass)
//Storyboard Layer 3 (Foreground)
//Storyboard Layer 4 (Overlay)
//Storyboard Sound Samples

[TimingPoints]
305,344.827586206897,4,2,1,50,1,0
22373,-200,4,2,2,50,0,0
29615,-133.333333333333,4,2,2,50,0,0
30132,-200,4,2,2,50,0,0
30649,-133.333333333333,4,2,2,50,0,0
33408,-200,4,2,2,50,0,0
34098,-133.333333333333,4,2,2,50,0,0
36167,-200,4,2,2,50,0,0
36856,-133.333333333333,4,2,2,50,0,0
44442,-100,4,2,1,70,0,1
66511,-100,4,2,1,70,0,0
66684,-100,4,2,2,70,0,0
88580,-100,4,2,1,60,0,0
88753,-100,4,2,2,60,0,0
99615,-100,4,2,1,60,0,0
99787,-100,4,2,2,60,0,0
121684,-500,4,2,2,40,0,0
132718,-200,4,2,2,50,0,0
139960,-133.333333333333,4,2,2,50,0,0
140477,-200,4,2,2,50,0,0
140994,-285.714285714284,4,2,2,50,0,0
143753,-200,4,2,2,50,0,0
144442,-133.333333333333,4,2,2,50,0,0
146511,-200,4,2,2,50,0,0
147201,-133.333333333333,4,2,2,50,0,0
154787,-100,4,2,1,70,0,1
176856,-100,4,2,1,70,0,0
177029,-100,4,2,2,70,0,0
198925,-100,4,2,1,60,0,0
199098,-100,4,2,2,60,0,0
209960,-100,4,2,1,60,0,0
210132,-100,4,2,2,60,0,0
218236,-200,4,2,1,40,0,0
220994,-200,4,2,2,50,0,0
228236,-133.333333333333,4,2,2,50,0,0
228753,-200,4,2,2,50,0,0
229270,-285.714285714286,4,2,2,50,0,0
232029,-200,4,2,2,50,0,0
232718,-133.333333333333,4,2,2,50,0,0
234787,-200,4,2,2,50,0,0
235477,-133.333333333333,4,2,2,50,0,0
237546,-400,4,2,2,50,0,0
238925,-133.333333333333,4,2,2,50,0,0
240305,-166.666666666667,4,2,2,50,0,0
243063,-142.857142857143,4,2,1,5,0,0

[Colours]
Combo1 : 140,217,184
Combo2 : 227,220,132
Combo3 : 228,118,146
Combo4 : 181,154,203
Combo5 : 115,148,208

[HitObjects]
340,83,22373,6,0,P|302:56|251:49,1,85,6|0,0:2|0:2,0:0:0:0:
340,185,22891,2,0,P|398:165|429:160,1,85,2|0,0:2|0:2,0:0:0:0:
270,134,23408,2,0,P|253:205|291:259,1,127.5,2|0,0:2|0:0,0:0:0:0:
348,365,24098,2,0,P|281:346|173:331,1,170,2|0,0:2|0:2,0:0:0:0:
198,246,24960,1,2,0:2:0:0:
103,371,25132,6,0,P|91:307|83:281,1,85,2|0,0:2|0:2,0:0:0:0:
215,144,25649,2,0,P|204:185|197:226,1,85,2|0,0:2|0:2,0:0:0:0:
151,76,26167,2,0,P|205:46|266:61,1,127.5,2|0,0:2|0:0,0:0:0:0:
60,40,26856,2,0,P|77:108|99:214,1,170,2|0,0:2|0:2,0:0:0:0:
215,144,27718,1,2,0:2:0:0:
192,260,27891,6,0,P|236:243|289:231,1,85,2|0,0:2|0:2,0:0:0:0:
313,116,28408,2,0,P|352:131|393:142,1,85,2|0,0:2|0:2,0:0:0:0:
485,144,28925,2,0,P|434:164|413:232,1,127.5,2|0,0:2|0:0,0:0:0:0:
435,321,29615,6,0,P|397:306|355:296,1,63.7500024318696,2|2,0:2|0:2,0:0:0:0:
320,219,29960,1,2,0:2:0:0:
320,219,30132,6,0,P|280:234|239:245,1,85,2|2,0:2|0:2,0:0:0:0:
188,353,30649,6,0,P|219:355|250:364,1,63.7500024318696,2|0,0:0|0:0,0:0:0:0:
101,308,30994,2,0,P|94:350|85:388,1,63.7500024318696
161,213,31339,2,0,P|165:244|172:275,1,63.7500024318696
80,190,31684,2,0,P|97:158|117:140,1,63.7500024318696
216,146,32029,1,2,0:0:0:0:
216,146,32201,2,0,L|224:72,2,63.7500024318696
117,139,32718,1,0,0:0:0:0:
117,139,32891,2,0,L|109:65,2,63.7500024318696
14,64,33408,6,0,P|57:65|101:-5,1,127.5,6|0,0:2|0:2,0:0:0:0:
213,33,34098,6,0,P|242:45|272:54,1,63.7500024318696,2|2,0:2|0:2,0:0:0:0:
285,145,34442,2,0,P|323:130|365:120,1,63.7500024318696,2|2,0:2|0:2,0:0:0:0:
382,34,34787,2,0,P|428:48|456:132,1,127.500004863739,2|2,0:0|0:0,0:0:0:0:
418,205,35305,2,0,P|445:287|458:336,2,127.500004863739,2|2|2,0:0|0:0|0:0,0:0:0:0:
333,292,36167,6,0,P|298:249|227:251,1,127.5,2|2,0:2|0:2,0:0:0:0:
125,324,36856,6,0,P|116:293|103:263,1,63.7500024318696,2|2,0:2|0:2,0:0:0:0:
175,191,37201,2,0,P|183:160|196:130,1,63.7500024318696,2|2,0:2|0:2,0:0:0:0:
41,63,37546,2,0,P|60:123|77:185,1,127.500004863739,2|2,0:0|0:0,0:0:0:0:
132,64,38063,2,0,P|166:33|242:41,2,127.500004863739,2|2|2,0:0|0:0|0:0,0:0:0:0:
195,130,38925,5,2,3:2:0:0:
369,149,39270,1,0,3:2:0:0:
248,263,39615,1,0,3:2:0:0:
355,298,39960,1,0,3:2:0:0:
355,298,40305,6,0,P|386:290|418:282,1,63.7500024318696,0|0,3:2|0:2,0:2:0:0:
334,206,40649,2,0,P|302:197|271:189,1,63.7500024318696,2|2,3:2|0:2,0:2:0:0:
406,129,40994,2,0,P|420:161|429:189,1,63.7500024318696,2|2,3:2|0:2,0:2:0:0:
337,58,41339,2,0,P|323:90|314:118,1,63.7500024318696,2|2,3:2|0:2,0:2:0:0:
147,135,41684,6,0,P|199:123|225:59,1,127.500004863739,2|0,3:2|3:2,0:2:0:0:
47,67,42201,2,0,P|58:109|77:199,1,127.500004863739,2|0,0:2|0:2,0:2:0:0:
144,55,42718,1,2,3:2:0:0:
256,192,42891,12,0,44098,0:0:0:0:
488,123,44442,6,0,P|429:124|373:29,1,170,6|8,1:2|0:2,0:0:0:0:
206,132,44960,1,0,0:2:0:0:
275,5,45132,2,0,P|287:42|301:90,1,85,0|0,0:2|1:2,0:0:0:0:
109,108,45477,2,0,P|119:71|134:26,1,85,8|0,0:2|0:2,0:0:0:0:
359,204,45822,6,0,P|285:182|190:168,1,170,2|8,1:1|0:2,0:0:0:0:
299,86,46339,1,0,0:2:0:0:
425,278,46511,2,0,P|451:242|455:199,1,85,0|0,0:2|1:2,0:0:0:0:
261,278,46856,2,0,P|277:330|286:362,1,85,8|0,0:2|0:2,0:0:0:0:
193,168,47201,5,2,1:3:0:0:
359,204,47373,1,0,0:2:0:0:
194,342,47546,2,0,P|142:326|110:318,1,85,8|0,0:2|0:2,0:0:0:0:
45,197,47891,1,0,0:2:0:0:
214,174,48063,1,0,1:2:0:0:
75,54,48236,2,0,P|122:42|157:30,1,85,8|0,0:2|0:2,0:0:0:0:
367,86,48580,6,0,P|302:87|255:0,1,170,0|8,1:2|0:2,0:0:0:0:
214,174,49098,1,0,0:2:0:0:
440,168,49270,1,0,0:2:0:0:
336,7,49442,1,0,1:2:0:0:
332,220,49615,1,8,0:2:0:0:
461,38,49787,1,0,0:2:0:0:
475,261,49960,6,0,P|410:250|305:241,1,170,2|8,1:2|0:2,0:0:0:0:
440,168,50477,1,0,0:2:0:0:
295,67,50649,2,0,P|307:117|316:156,1,85,0|0,0:2|1:2,0:0:0:0:
159,207,50994,2,0,P|165:170|177:118,1,85,8|0,0:2|0:2,0:0:0:0:
172,358,51339,6,0,P|136:307|29:296,1,170,2|8,1:1|0:2,0:0:0:0:
176,230,51856,1,0,0:2:0:0:
303,343,52029,2,0,P|358:331|387:327,1,85,0|0,0:2|1:2,0:0:0:0:
465,218,52373,2,0,P|414:205|381:201,1,85,8|0,0:2|0:2,0:0:0:0:
296,42,52718,5,2,1:3:0:0:
425,96,52891,1,0,0:2:0:0:
295,253,53063,2,0,P|281:202|273:169,1,85,8|0,0:2|0:2,0:0:0:0:
104,126,53408,1,0,0:2:0:0:
183,228,53580,1,0,1:2:0:0:
228,84,53753,2,0,P|279:71|312:66,1,85,8|0,0:2|0:2,0:0:0:0:
97,38,54098,6,0,P|50:51|36:175,1,170,0|8,1:2|0:2,0:0:0:0:
183,228,54615,1,0,0:2:0:0:
104,126,54787,1,0,0:2:0:0:
113,317,54960,1,0,1:2:0:0:
282,213,55132,1,8,0:2:0:0:
110,164,55305,1,0,1:2:0:0:
275,302,55477,6,0,P|325:299|371:200,1,170,6|8,1:2|0:2,0:0:0:0:
336,82,55994,1,0,0:2:0:0:
459,140,56167,2,0,P|472:180|483:221,1,85,0|0,0:2|1:2,0:0:0:0:
503,12,56511,2,0,P|461:21|421:33,1,85,8|0,0:2|0:2,0:0:0:0:
189,63,56856,6,0,P|272:83|352:113,1,170,2|8,1:1|0:2,0:0:0:0:
236,254,57373,1,0,0:2:0:0:
123,157,57546,2,0,P|114:198|107:240,1,85,0|0,0:2|1:2,0:0:0:0:
264,84,57891,2,0,P|271:125|277:167,1,85,8|0,0:2|0:2,0:0:0:0:
145,325,58236,5,2,1:3:0:0:
123,157,58408,1,0,0:2:0:0:
175,345,58580,2,0,P|214:334|270:322,1,85,8|0,0:2|0:2,0:0:0:0:
380,184,58925,1,0,0:2:0:0:
218,243,59098,1,0,1:2:0:0:
361,376,59270,2,0,P|370:334|381:293,1,85,8|0,0:2|0:2,0:0:0:0:
485,110,59615,6,0,B|425:114|386:149|386:149|366:124|326:110,1,170,0|8,1:2|0:2,0:0:0:0:
147,63,60132,1,0,0:2:0:0:
336,30,60305,1,0,0:2:0:0:
149,205,60477,1,0,1:2:0:0:
304,204,60649,1,8,0:2:0:0:
234,21,60822,1,0,0:2:0:0:
149,205,60994,6,0,P|69:194|36:119,1,170,2|8,1:2|0:2,0:0:0:0:
215,129,61511,1,0,0:2:0:0:
122,331,61684,2,0,P|162:318|204:308,1,85,0|0,0:2|1:2,0:0:0:0:
336,236,62029,2,0,P|295:223|254:215,1,85,8|0,0:2|0:2,0:0:0:0:
420,341,62373,6,0,P|409:281|489:215,1,170,2|8,1:1|0:2,0:0:0:0:
287,141,62891,1,0,0:2:0:0:
352,20,63063,2,0,P|366:65|376:101,1,85,0|0,0:2|1:2,0:0:0:0:
484,215,63408,2,0,P|492:177|504:132,1,85,8|0,0:2|0:2,0:0:0:0:
357,120,63753,5,2,1:3:0:0:
456,29,63925,1,0,0:0:0:0:
389,209,64098,2,0,P|345:199|304:193,1,85,8|0,0:0|0:0,0:0:0:0:
194,247,64442,1,0,0:0:0:0:
260,91,64615,1,0,1:0:0:0:
313,275,64787,2,0,P|306:316|296:358,1,85,8|0,0:0|0:0,0:0:0:0:
108,198,65132,5,0,1:2:0:0:
305,193,65305,1,0,0:2:0:0:
111,309,65477,1,8,0:2:0:0:
295,358,65649,1,0,0:2:0:0:
184,149,65822,1,0,0:2:0:0:
87,340,65994,1,0,1:2:0:0:
292,225,66167,1,8,0:2:0:0:
68,169,66339,1,0,1:2:0:0:
211,337,66511,6,0,P|278:312|378:284,1,170,6|8,1:2|0:2,0:0:0:0:
465,378,67029,2,0,P|392:365|359:363,1,85,2|0,0:2|0:2,0:0:0:0:
502,247,67373,1,0,1:2:0:0:
357,201,67546,2,0,P|368:268|376:301,1,85,10|0,0:2|0:2,0:0:0:0:
477,124,67891,5,0,1:2:0:0:
477,124,68236,2,0,P|404:111|371:109,1,85,10|0,0:2|0:2,0:0:0:0:
273,214,68580,2,0,P|346:201|379:199,1,85,0|0,0:2|1:2,0:0:0:0:
319,26,68925,2,0,P|307:68|297:113,1,85,8|2,0:2|0:2,0:0:0:0:
101,118,69270,6,0,P|168:113|213:25,1,170,2|8,1:2|0:2,0:0:0:0:
116,217,69787,2,0,P|74:208|32:203,1,85,2|0,0:2|0:2,0:0:0:0:
125,36,70132,1,0,1:2:0:0:
198,187,70305,2,0,P|210:229|220:274,1,85,10|0,0:2|0:2,0:0:0:0:
318,112,70649,5,0,1:2:0:0:
318,112,70994,2,0,P|358:99|400:92,1,85,10|0,0:2|0:2,0:0:0:0:
281,207,71339,2,0,P|240:194|198:187,1,85,0|0,0:2|1:2,0:0:0:0:
372,195,71684,2,0,P|383:235|391:277,1,85,8|2,0:2|0:2,0:0:0:0:
227,359,72029,6,0,B|265:329|315:338|315:338|338:368|382:372,1,170,2|8,1:2|0:2,0:0:0:0:
495,278,72546,2,0,P|483:338|478:375,1,85,2|0,0:2|0:2,0:0:0:0:
440,176,72891,1,0,1:2:0:0:
307,264,73063,2,0,P|349:268|392:278,1,85,10|0,0:2|0:2,0:0:0:0:
345,65,73408,6,0,P|337:136|232:159,1,170,0|10,1:2|0:2,0:0:0:0:
133,39,73925,1,2,0:2:0:0:
266,91,74098,1,2,0:2:0:0:
68,186,74270,2,0,P|53:102|31:20,1,170,2|2,1:2|0:2,0:0:0:0:
178,189,74787,5,2,1:2:0:0:
140,64,74960,1,0,0:2:0:0:
102,287,75132,2,0,P|42:275|3:272,1,85,8|0,0:0|0:0,0:0:0:0:
202,269,75477,1,0,0:0:0:0:
68,186,75649,1,0,1:0:0:0:
147,371,75822,2,0,P|207:359|246:356,1,85,8|0,0:0|0:0,0:0:0:0:
412,215,76167,6,0,P|335:229|302:311,1,170,2|8,1:2|0:2,0:0:0:0:
228,173,76684,1,0,0:2:0:0:
383,296,76856,1,0,0:2:0:0:
343,109,77029,1,0,1:2:0:0:
229,266,77201,1,8,0:2:0:0:
319,81,77373,1,0,1:2:0:0:
508,187,77546,6,0,B|470:157|420:166|420:166|397:196|353:200,1,170,6|8,1:2|0:2,0:0:0:0:
229,266,78063,1,0,0:2:0:0:
343,109,78236,2,0,P|287:97|251:92,1,85,2|2,0:2|1:2,0:0:0:0:
382,292,78580,2,0,P|422:276|465:281,1,85,10|2,0:2|0:2,0:0:0:0:
315,223,78925,5,2,1:2:0:0:
431,358,79098,2,0,P|348:336|265:322,1,170,2|2,0:2|0:2,0:0:0:0:
315,223,79615,1,0,0:2:0:0:
164,369,79787,2,0,P|149:316|137:281,1,85,2|8,1:2|0:2,0:0:0:0:
173,105,80132,1,2,0:2:0:0:
23,228,80305,6,0,P|105:206|188:192,1,170,0|8,1:2|0:2,0:0:0:0:
332,27,80822,1,0,0:2:0:0:
173,105,80994,2,0,P|160:55|146:9,1,85,2|2,0:2|1:2,0:0:0:0:
287,199,81339,2,0,P|275:239|264:280,1,85,10|2,0:2|0:2,0:0:0:0:
396,94,81684,6,0,P|316:114|250:60,1,170,2|10,1:2|0:2,0:0:0:0:
421,245,82201,2,0,P|477:235|504:232,1,85,2|0,0:2|0:2,0:0:0:0:
332,368,82546,2,0,P|289:363|248:354,1,85,2|8,1:2|0:2,0:0:0:0:
320,221,82891,1,2,0:2:0:0:
141,372,83063,6,0,P|129:296|107:198,1,170,0|8,1:2|0:2,0:0:0:0:
248,354,83580,1,0,0:2:0:0:
319,221,83753,2,0,P|276:225|236:233,1,85,0|0,0:2|1:2,0:0:0:0:
60,87,84098,2,0,P|102:90|144:97,1,85,8|0,0:2|0:2,0:0:0:0:
357,41,84442,6,0,P|279:50|253:130,1,170,0|10,1:2|0:2,0:0:0:0:
379,205,84960,1,2,0:2:0:0:
219,252,85132,1,2,0:2:0:0:
341,123,85305,1,2,1:2:0:0:
228,286,85477,2,0,P|270:277|312:271,1,85,10|2,0:2|0:2,0:0:0:0:
512,174,85822,6,0,P|493:256|479:340,1,170,2|8,1:2|0:2,0:0:0:0:
379,205,86339,2,0,P|387:246|393:288,1,85,2|0,0:2|0:2,0:0:0:0:
423,127,86684,1,0,1:2:0:0:
287,261,86856,2,0,P|245:255|204:247,1,85,10|0,0:2|0:2,0:0:0:0:
57,159,87201,6,0,P|122:138|151:44,1,170,0|8,1:2|0:0,0:0:0:0:
216,157,87718,1,0,0:0:0:0:
49,65,87891,1,0,0:0:0:0:
259,61,88063,1,2,1:2:0:0:
136,218,88236,1,8,0:0:0:0:
71,47,88408,1,0,1:0:0:0:
238,177,88580,6,0,P|222:245|212:352,1,170,6|8,1:2|0:2,0:0:0:0:
321,222,89098,1,2,0:2:0:0:
379,368,89270,2,0,P|338:360|296:354,1,85,0|2,0:2|1:2,0:0:0:0:
456,214,89615,2,0,P|450:256|441:297,1,85,8|2,0:2|0:2,0:0:0:0:
508,135,89960,6,0,P|439:179|363:149,1,170,0|8,1:2|0:2,0:0:0:0:
435,49,90477,1,2,0:2:0:0:
343,236,90649,2,0,P|324:153|299:72,1,170,0|8,0:0|0:0,0:0:0:0:
233,221,91167,1,2,0:2:0:0:
146,83,91339,6,0,P|136:41|130:-1,1,85,0|2,1:2|0:0,0:0:0:0:
53,119,91684,2,0,P|43:160|37:202,1,85,8|2,0:2|0:2,0:0:0:0:
213,193,92029,2,0,P|171:183|129:177,1,85,0|2,0:2|1:2,0:0:0:0:
282,132,92373,2,0,P|304:183|300:232,1,85,8|2,0:0|0:0,0:0:0:0:
380,341,92718,6,0,P|391:275|485:238,1,170,0|8,1:2|0:2,0:0:0:0:
404,72,93236,2,0,P|410:114|419:155,1,85,2|0,0:2|0:2,0:0:0:0:
311,31,93580,1,2,1:2:0:0:
304,211,93753,1,8,0:2:0:0:
304,211,94098,6,0,B|209:185|209:185|138:218,1,170,0|8,1:2|0:2,0:0:0:0:
140,63,94615,1,2,0:2:0:0:
26,161,94787,2,0,P|67:151|109:144,1,85,0|2,0:2|1:2,0:0:0:0:
172,309,95132,2,0,P|130:299|88:292,1,85,8|2,0:2|0:2,0:0:0:0:
259,384,95477,6,0,B|286:332|286:332|264:220,1,170,0|8,1:2|0:2,0:0:0:0:
386,143,95994,1,2,0:2:0:0:
262,130,96167,1,0,0:2:0:0:
347,244,96339,1,2,1:2:0:0:
477,121,96511,2,0,P|469:167|465:210,1,85,8|2,0:2|0:2,0:0:0:0:
384,50,96856,6,0,P|301:31|216:24,1,170,0|8,1:2|0:2,0:0:0:0:
103,110,97373,1,2,0:2:0:0:
216,202,97546,2,0,P|223:160|234:119,1,85,0|2,0:2|1:2,0:0:0:0:
35,218,97891,2,0,P|77:229|119:236,1,85,8|2,0:2|0:2,0:0:0:0:
316,226,98236,5,0,1:2:0:0:
234,119,98408,1,2,0:2:0:0:
193,295,98580,2,0,P|207:334|219:375,1,85,8|2,0:2|0:2,0:0:0:0:
216,202,98925,1,0,0:2:0:0:
315,355,99098,1,2,1:2:0:0:
344,192,99270,1,8,0:2:0:0:
290,325,99442,1,2,1:2:0:0:
507,266,99615,6,0,B|469:236|419:245|419:245|396:275|352:279,1,170,6|8,1:2|0:2,0:0:0:0:
366,102,100132,1,2,0:2:0:0:
247,219,100305,2,0,P|288:209|330:202,1,85,0|2,0:2|1:2,0:0:0:0:
238,79,100649,2,0,P|197:69|155:62,1,85,8|2,0:2|0:2,0:0:0:0:
129,256,100994,6,0,P|121:198|26:150,1,170,0|8,1:2|0:2,0:0:0:0:
211,186,101511,1,2,0:2:0:0:
60,310,101684,2,0,P|143:291|228:284,1,170,0|8,0:2|0:2,0:0:0:0:
211,186,102201,1,2,0:2:0:0:
341,355,102373,6,0,P|299:365|257:372,1,85,0|2,1:2|0:0,0:0:0:0:
395,284,102718,2,0,P|436:290|478:301,1,85,8|2,0:2|0:2,0:0:0:0:
330,188,103063,2,0,P|319:229|312:271,1,85,0|2,0:2|1:2,0:0:0:0:
459,185,103408,2,0,P|452:143|441:101,1,85,8|2,0:2|0:2,0:0:0:0:
249,31,103753,6,0,B|308:25|352:54|352:54|368:26|406:6,1,170,0|8,1:2|0:2,0:0:0:0:
295,198,104270,2,0,P|284:156|277:114,1,85,2|0,0:2|0:2,0:0:0:0:
160,39,104615,1,2,1:2:0:0:
115,219,104787,1,8,0:2:0:0:
115,219,105132,6,0,P|182:227|219:330,1,170,0|8,1:2|0:2,0:0:0:0:
175,113,105649,1,2,0:2:0:0:
331,157,105822,2,0,P|289:163|247:174,1,85,0|2,0:2|1:2,0:0:0:0:
361,59,106167,2,0,P|402:65|444:76,1,85,8|2,0:2|0:2,0:0:0:0:
496,246,106511,6,0,B|401:220|401:220|330:253,1,170,0|8,1:2|0:2,0:0:0:0:
331,157,107029,1,2,0:2:0:0:
360,319,107201,1,0,0:2:0:0:
412,172,107373,1,2,1:2:0:0:
334,343,107546,2,0,P|292:332|250:325,1,85,8|2,0:2|0:2,0:0:0:0:
146,234,107891,1,0,0:0:0:0:
256,192,107977,12,2,110649,0:0:0:0:
169,290,121684,6,0,P|73:286|134:212,1,238,2|0,0:0|0:0,0:0:0:0:
90,124,124442,2,0,B|136:108|178:125|178:125|201:106|236:95|236:95|274:120|315:113,1,238,2|0,0:0|0:0,0:0:0:0:
403,292,127201,2,0,B|448:211|413:142|413:142|394:185|358:202,1,238,2|0,0:0|0:0,0:0:0:0:
296,328,129960,2,0,B|243:361|165:339|198:301|132:267|69:298,1,238,2|2,0:0|0:0,0:0:0:0:
75,294,132718,6,0,P|88:230|97:200,1,85,6|0,0:2|0:2,0:0:0:0:
0,85,133236,2,0,P|10:126|18:167,1,85,2|0,0:2|0:2,0:0:0:0:
104,88,133753,2,0,P|143:77|228:164,2,170,2|2|0,0:2|0:2|0:2,0:0:0:0:
102,191,135305,1,2,0:2:0:0:
183,254,135477,6,0,P|242:235|283:226,1,85,2|0,0:2|0:2,0:0:0:0:
345,151,135994,2,0,P|404:170|445:179,1,85,2|0,0:2|0:2,0:0:0:0:
504,256,136511,2,0,P|470:263|420:377,2,170,2|2|0,0:2|0:2|0:2,0:0:0:0:
437,174,138063,1,2,0:2:0:0:
437,70,138236,6,0,P|478:60|522:47,1,85,2|0,0:2|0:2,0:0:0:0:
357,127,138753,2,0,P|316:115|274:104,1,85,2|0,0:2|0:2,0:0:0:0:
171,37,139270,2,0,P|190:115|201:175,1,127.5,2|0,0:2|0:0,0:0:0:0:
138,242,139960,6,0,P|127:267|113:308,1,63.7500024318696,2|2,0:2|0:2,0:0:0:0:
205,363,140305,1,2,0:2:0:0:
205,363,140477,6,0,P|241:351|301:340,1,85,2|2,0:2|0:2,0:0:0:0:
354,276,140994,6,0,B|322:250|327:190|327:190|289:244|185:318|98:194|155:107|203:111|228:150,1,416.499987289429,2|2,0:2|0:2,0:0:0:0:
225,145,143753,6,0,P|175:150|116:97,1,127.5,6|0,0:2|0:2,0:0:0:0:
214,0,144442,6,0,P|206:46|196:80,1,63.7500024318696,2|2,0:2|0:2,0:0:0:0:
305,114,144787,2,0,P|297:83|292:51,1,63.7500024318696,2|2,0:2|0:2,0:0:0:0:
314,203,145132,2,0,P|373:218|442:244,1,127.500004863739,2|0,0:2|0:2,0:0:0:0:
471,352,145649,2,0,P|426:357|363:294,2,127.500004863739,2|2|2,0:2|0:2|0:2,0:0:0:0:
512,261,146511,6,0,P|502:190|494:117,1,127.5,2|0,0:2|0:2,0:0:0:0:
422,58,147201,6,0,P|383:73|344:83,1,63.7500024318696,2|2,0:2|0:2,0:0:0:0:
273,146,147546,2,0,P|303:155|333:166,1,63.7500024318696,2|2,0:2|0:2,0:0:0:0:
241,235,147891,2,0,P|193:248|125:193,1,127.500004863739,2|2,0:2|0:2,0:0:0:0:
172,43,148408,2,0,P|188:101|198:178,2,127.500004863739,2|2|0,0:2|0:2|0:2,0:0:0:0:
77,30,149270,5,2,3:2:0:0:
271,97,149615,1,0,3:2:0:0:
123,201,149960,1,0,3:2:0:0:
253,247,150305,1,0,3:2:0:0:
167,313,150649,6,0,P|125:328|91:339,1,63.7500024318696,0|0,3:2|0:2,0:0:0:0:
3,243,150994,2,0,P|24:287|33:318,1,63.7500024318696,2|2,3:2|0:2,0:0:0:0:
126,152,151339,2,0,P|111:179|99:209,1,63.7500024318696,2|2,3:2|0:2,0:0:0:0:
62,83,151684,2,0,P|27:67|-16:60,1,63.7500024318696,2|2,3:2|0:2,0:0:0:0:
195,210,152029,6,0,P|238:216|303:154,1,127.500004863739,2|0,3:2|3:2,0:0:0:0:
386,47,152546,2,0,P|334:37|282:87,1,127.500004863739,2|0,0:2|0:2,0:0:0:0:
419,147,153063,1,2,3:2:0:0:
256,192,153236,12,0,154442,0:0:0:0:
500,364,154787,6,0,P|471:310|353:321,1,170,6|8,1:2|0:2,0:0:0:0:
204,384,155305,1,0,0:2:0:0:
249,214,155477,2,0,P|263:262|272:303,1,85,0|0,0:2|1:2,0:0:0:0:
100,377,155822,2,0,P|109:335|121:294,1,85,8|0,0:2|0:2,0:0:0:0:
178,124,156167,6,0,P|120:172|18:135,1,170,2|8,1:1|0:2,0:0:0:0:
202,29,156684,1,0,0:2:0:0:
68,2,156856,2,0,P|84:52|96:99,1,85,0|0,0:2|1:2,0:0:0:0:
251,169,157201,2,0,P|262:127|275:87,1,85,8|0,0:2|0:2,0:0:0:0:
445,26,157546,5,2,1:3:0:0:
495,229,157718,1,0,0:2:0:0:
365,117,157891,2,0,P|427:130|469:136,1,85,8|0,0:2|0:2,0:0:0:0:
297,274,158236,1,0,0:2:0:0:
235,124,158408,1,0,1:2:0:0:
397,242,158580,2,0,P|382:308|377:339,1,85,8|0,0:2|0:2,0:0:0:0:
209,371,158925,6,0,P|169:315|60:328,1,170,0|8,1:2|0:2,0:0:0:0:
222,206,159442,1,0,0:2:0:0:
59,142,159615,1,0,0:2:0:0:
169,293,159787,1,0,1:2:0:0:
240,103,159960,1,8,0:2:0:0:
56,173,160132,1,0,0:2:0:0:
294,271,160305,6,0,P|384:246|469:230,1,170,2|8,1:2|0:0,0:0:0:0:
280,145,160822,1,0,0:0:0:0:
409,62,160994,2,0,P|394:118|386:159,1,85,0|0,0:0|1:0,0:0:0:0:
193,230,161339,2,0,P|183:188|172:147,1,85,8|0,0:0|0:0,0:0:0:0:
1,92,161684,6,0,P|2:166|94:185,1,170,2|8,1:0|0:0,0:0:0:0:
190,37,162201,2,0,P|131:54|94:74,1,85
209,218,162546,1,0,1:0:0:0:
320,74,162718,2,0,P|367:96|412:104,1,85,8|0,0:0|0:0,0:0:0:0:
463,292,163063,5,2,1:3:0:0:
323,179,163236,1,0,0:0:0:0:
497,94,163408,2,0,P|473:171|466:201,1,85,8|0,0:0|0:0,0:0:0:0:
350,294,163753,1,0,0:0:0:0:
244,151,163925,1,0,1:0:0:0:
376,20,164098,2,0,P|391:71|401:111,1,85,8|0,0:0|0:0,0:0:0:0:
268,240,164442,6,0,P|174:216|86:201,1,170,0|8,1:0|0:0,0:0:0:0:
287,146,164960,1,0,0:0:0:0:
137,300,165132,1,0,0:0:0:0:
341,313,165305,1,0,1:0:0:0:
182,179,165477,1,8,0:0:0:0:
329,342,165649,1,0,1:0:0:0:
380,113,165822,6,0,P|464:102|502:198,1,170,6|8,1:2|0:0,0:0:0:0:
322,262,166339,1,0,0:0:0:0:
452,341,166511,2,0,P|441:288|431:241,1,85,0|0,0:0|1:0,0:0:0:0:
236,183,166856,2,0,P|227:224|218:266,1,85,8|0,0:0|0:0,0:0:0:0:
149,94,167201,6,0,P|106:74|22:155,1,170,2|8,1:0|0:0,0:0:0:0:
177,283,167718,1,0,0:0:0:0:
0,263,167891,1,0,0:0:0:0:
103,160,168063,1,0,1:0:0:0:
101,332,168236,2,0,P|88:282|75:238,1,85,8|0,0:0|0:0,0:0:0:0:
243,152,168580,6,0,P|315:180|415:207,1,170,2|8,1:3|0:0,0:0:0:0:
484,35,169098,1,0,0:0:0:0:
329,96,169270,1,0,0:0:0:0:
512,155,169442,1,0,1:0:0:0:
400,8,169615,2,0,P|406:67|412:104,1,85,8|0,0:0|0:0,0:0:0:0:
225,198,169960,5,0,1:0:0:0:
310,30,170132,1,0,0:0:0:0:
415,192,170305,2,0,P|361:180|316:171,1,85,8|0,0:0|0:0,0:0:0:0:
132,122,170649,1,0,0:0:0:0:
296,44,170822,1,0,1:0:0:0:
212,234,170994,2,0,P|201:284|187:339,1,85,8|0,0:0|0:0,0:0:0:0:
355,378,171339,6,0,P|440:368|470:286,1,170,2|8,1:2|0:0,0:0:0:0:
351,209,171856,2,0,P|377:273|387:304,1,85
488,154,172201,1,0,1:0:0:0:
364,68,172373,2,0,P|315:62|256:57,1,85,8|0,0:0|0:0,0:0:0:0:
134,149,172718,6,0,P|211:155|235:255,1,170,2|8,1:0|0:0,0:0:0:0:
37,229,173236,2,0,P|24:179|19:136,1,85
176,278,173580,1,0,1:0:0:0:
136,74,173753,2,0,P|123:124|118:167,1,85,8|0,0:0|0:0,0:0:0:0:
303,310,174098,5,2,1:3:0:0:
269,103,174270,1,0,0:0:0:0:
163,253,174442,2,0,P|211:237|251:226,1,85,8|0,0:0|0:0,0:0:0:0:
448,162,174787,1,0,0:0:0:0:
274,84,174960,1,0,1:0:0:0:
333,287,175132,2,0,P|350:227|359:197,1,85,8|0,0:0|0:0,0:0:0:0:
211,305,175477,5,0,1:0:0:0:
400,381,175649,1,0,0:0:0:0:
226,214,175822,1,8,0:0:0:0:
438,161,175994,1,0,0:0:0:0:
309,358,176167,1,0,0:0:0:0:
224,187,176339,1,0,1:0:0:0:
431,269,176511,1,8,0:0:0:0:
199,327,176684,1,0,1:0:0:0:
323,151,176856,6,0,P|291:100|171:113,1,170,6|8,1:2|0:2,0:0:0:0:
60,62,177373,2,0,P|74:125|86:160,1,85,2|0,0:2|0:2,0:0:0:0:
166,0,177718,1,0,1:2:0:0:
238,164,177891,2,0,P|225:204|217:246,1,85,10|0,0:2|0:2,0:0:0:0:
309,354,178236,5,0,1:2:0:0:
309,354,178580,2,0,P|363:341|404:333,1,85,10|0,0:2|0:2,0:0:0:0:
512,258,178925,2,0,P|470:249|429:239,1,85,0|0,0:2|1:2,0:0:0:0:
312,157,179270,2,0,P|333:225|343:265,1,85,8|2,0:2|0:2,0:0:0:0:
365,59,179615,6,0,P|402:9|517:16,1,170,2|8,1:2|0:2,0:0:0:0:
487,167,180132,2,0,P|463:107|452:70,1,85,2|0,0:2|0:2,0:0:0:0:
339,232,180477,1,0,1:2:0:0:
264,87,180649,2,0,P|338:105|368:116,1,85,10|0,0:2|0:2,0:0:0:0:
157,196,180994,5,0,1:2:0:0:
157,196,181339,2,0,P|142:138|131:101,1,85,10|0,0:2|0:2,0:0:0:0:
246,285,181684,2,0,P|234:325|223:367,1,85,0|0,0:2|1:2,0:0:0:0:
52,309,182029,2,0,P|99:297|139:289,1,85,8|2,0:2|0:2,0:0:0:0:
354,227,182373,6,0,P|297:219|269:107,1,170,2|8,1:2|0:2,0:0:0:0:
73,18,182891,2,0,P|126:52|128:164,1,170,2|0,0:2|1:2,0:0:0:0:
234,24,183408,2,0,P|287:11|329:5,1,85,10|0,0:2|0:2,0:0:0:0:
446,111,183753,5,0,1:2:0:0:
446,111,184098,2,0,P|431:62|423:24,1,85,10|2,0:2|0:2,0:0:0:0:
283,205,184442,1,2,0:2:0:0:
320,95,184615,1,2,1:2:0:0:
404,228,184787,2,0,P|455:245|494:253,1,85,8|2,0:2|0:2,0:0:0:0:
304,323,185132,6,0,P|245:313|166:383,1,170,2|8,1:2|0:2,0:0:0:0:
18,260,185649,1,0,0:2:0:0:
143,190,185822,2,0,P|135:240|123:283,1,85,0|0,0:2|1:2,0:0:0:0:
11,121,186167,1,8,0:2:0:0:
166,71,186339,1,0,0:2:0:0:
250,214,186511,6,0,P|296:225|346:246,1,85,2|0,1:2|0:2,0:0:0:0:
483,116,186856,2,0,P|443:131|401:140,1,85,8|0,0:2|0:2,0:0:0:0:
219,34,187201,1,0,0:2:0:0:
421,53,187373,1,0,1:2:0:0:
255,190,187546,1,8,0:2:0:0:
323,3,187718,1,0,1:2:0:0:
443,230,187891,6,0,P|393:232|324:322,1,170,6|8,1:2|0:2,0:0:0:0:
159,202,188408,1,0,0:2:0:0:
205,364,188580,2,0,P|222:309|231:265,1,85,2|2,0:2|1:2,0:0:0:0:
56,188,188925,2,0,P|65:229|78:269,1,85,10|2,0:2|0:2,0:0:0:0:
193,80,189270,6,0,P|124:64|18:42,1,170,2|8,1:2|0:2,0:0:0:0:
188,187,189787,2,0,P|257:163|280:157,1,85,2|0,0:2|0:2,0:0:0:0:
111,37,190132,1,2,1:2:0:0:
251,1,190305,2,0,P|230:53|219:88,1,85,8|2,0:2|0:2,0:0:0:0:
307,258,190649,6,0,P|362:269|439:178,1,170,0|8,1:2|0:2,0:0:0:0:
336,25,191167,1,0,0:2:0:0:
495,107,191339,2,0,P|450:98|411:87,1,85,2|2,0:2|1:2,0:0:0:0:
251,188,191684,2,0,P|291:176|333:168,1,85,10|2,0:2|0:2,0:0:0:0:
162,312,192029,6,0,P|123:208|96:142,1,170,2|10,1:2|0:2,0:0:0:0:
212,25,192546,2,0,P|195:88|185:131,1,85,2|0,0:2|0:2,0:0:0:0:
117,13,192891,1,2,1:2:0:0:
307,172,193063,2,0,P|295:131|285:89,1,85,8|2,0:2|0:2,0:0:0:0:
397,244,193408,6,0,P|452:246|497:144,1,170,0|8,1:2|0:2,0:0:0:0:
323,179,193925,1,0,0:2:0:0:
383,349,194098,2,0,B|444:358|476:369,1,85,0|0,0:2|1:2,0:0:0:0:
292,279,194442,2,0,B|269:286|208:295,1,85,8|0,0:2|0:2,0:0:0:0:
72,153,194787,6,0,P|91:207|104:250,1,85,0|0,1:2|0:2,0:0:0:0:
183,63,195132,1,10,0:2:0:0:
33,25,195305,1,2,0:2:0:0:
182,161,195477,2,0,P|233:139|264:129,1,85,2|2,0:2|1:2,0:0:0:0:
416,53,195822,2,0,P|375:39|337:21,1,85,10|2,0:2|0:2,0:0:0:0:
387,217,196167,6,0,P|460:223|519:136,1,170,2|8,1:2|0:2,0:0:0:0:
313,149,196684,2,0,P|233:171|138:203,1,170,2|0,0:2|1:2,0:0:0:0:
273,341,197201,2,0,P|286:272|293:245,1,85,10|0,0:2|0:2,0:0:0:0:
146,82,197546,5,0,1:2:0:0:
317,142,197718,1,0,0:2:0:0:
201,279,197891,2,0,P|128:261|95:254,1,85,8|0,0:2|0:2,0:0:0:0:
243,77,198236,1,0,0:2:0:0:
57,155,198408,1,0,1:2:0:0:
275,214,198580,1,8,0:2:0:0:
136,62,198753,1,0,1:2:0:0:
189,321,198925,6,0,P|242:264|344:282,1,170,6|8,1:2|0:2,0:0:0:0:
440,217,199442,2,0,P|450:269|452:310,1,85,2|0,0:2|0:2,0:0:0:0:
319,177,199787,1,2,1:2:0:0:
403,90,199960,2,0,P|460:73|501:68,1,85,8|2,0:2|0:2,0:0:0:0:
313,185,200305,6,0,P|258:173|152:129,1,170,0|8,1:2|0:2,0:0:0:0:
24,300,200822,2,0,P|81:246|186:273,1,170,2|2,0:2|1:2,0:0:0:0:
258,358,201339,2,0,P|276:299|286:275,1,85,8|2,0:2|0:2,0:0:0:0:
431,173,201684,6,0,P|375:168|334:57,1,170,0|8,1:2|0:2,0:0:0:0:
442,0,202201,2,0,P|429:40|416:80,1,85,2|0,0:2|0:2,0:0:0:0:
285,194,202546,1,2,1:2:0:0:
429,269,202718,2,0,P|495:248|521:245,1,85,8|2,0:2|0:2,0:0:0:0:
348,363,203063,6,0,P|271:359|234:258,1,170,0|8,1:2|0:2,0:0:0:0:
309,184,203580,2,0,P|325:241|325:273,1,85,2|0,0:2|0:2,0:0:0:0:
186,132,203925,1,2,1:2:0:0:
147,279,204098,2,0,P|200:267|240:251,1,85,8|2,0:2|0:2,0:0:0:0:
52,183,204442,6,0,P|37:104|15:8,1,170,0|8,1:2|0:2,0:0:0:0:
196,126,204960,2,0,P|180:186|173:225,1,85,2|0,0:2|0:2,0:0:0:0:
125,34,205305,1,2,1:2:0:0:
286,179,205477,2,0,P|340:170|380:164,1,85,8|2,0:2|0:2,0:0:0:0:
512,83,205822,6,0,P|431:79|387:-18,1,170,0|8,1:2|0:2,0:0:0:0:
217,110,206339,2,0,P|279:92|323:83,1,85,2|0,0:2|0:2,0:0:0:0:
182,247,206684,1,2,1:2:0:0:
323,280,206856,2,0,P|313:238|300:198,1,85,8|2,0:2|0:2,0:0:0:0:
444,25,207201,6,0,P|429:94|411:207,1,170,0|8,1:2|0:2,0:0:0:0:
501,365,207718,2,0,P|434:345|394:338,1,85,2|0,0:2|0:2,0:0:0:0:
508,191,208063,1,2,1:2:0:0:
283,299,208236,2,0,P|324:289|364:276,1,85,8|2,0:2|0:2,0:0:0:0:
164,183,208580,6,0,P|90:182|42:270,1,170,0|8,1:2|0:2,0:0:0:0:
256,293,209098,2,0,P|280:190|299:101,1,170,2|2,0:2|1:2,0:0:0:0:
176,0,209615,1,8,0:2:0:0:
343,46,209787,1,2,1:2:0:0:
187,144,209960,6,0,P|122:129|100:32,1,170,6|8,1:2|0:2,0:0:0:0:
2,225,210477,2,0,P|71:209|106:202,1,85,2|0,0:2|0:2,0:0:0:0:
231,306,210822,1,2,1:2:0:0:
87,373,210994,2,0,P|101:314|119:268,1,85,8|2,0:2|0:2,0:0:0:0:
253,195,211339,6,0,P|326:204|370:308,1,170,0|8,1:2|0:2,0:0:0:0:
512,90,211856,2,0,P|454:106|341:121,1,170,2|2,0:2|1:2,0:0:0:0:
200,91,212373,2,0,P|207:42|219:-6,1,85,8|2,0:2|0:2,0:0:0:0:
353,136,212718,6,0,P|355:201|260:259,1,170,0|8,1:2|0:2,0:0:0:0:
87,180,213236,2,0,P|106:237|116:280,1,85,2|0,0:2|0:2,0:0:0:0:
252,128,213580,1,2,1:2:0:0:
188,305,213753,2,0,P|198:263|213:223,1,85,8|2,0:2|0:2,0:0:0:0:
306,366,214098,6,0,P|407:382|489:385,1,170,0|8,1:2|0:2,0:0:0:0:
411,194,214615,2,0,P|388:261|383:285,1,85,2|0,0:2|0:2,0:0:0:0:
512,146,214960,1,2,1:2:0:0:
399,62,215132,2,0,P|343:54|305:52,1,85,8|2,0:2|0:2,0:0:0:0:
164,190,215477,6,0,P|249:176|338:148,1,170,0|8,1:2|0:2,0:0:0:0:
187,13,215994,2,0,P|206:64|218:112,1,85,2|0,0:2|0:2,0:0:0:0:
60,22,216339,1,2,1:2:0:0:
78,187,216511,2,0,P|90:146|107:104,1,85,8|2,0:2|0:2,0:0:0:0:
207,287,216856,6,0,P|130:277|78:353,1,170,0|8,1:2|0:2,0:0:0:0:
274,367,217373,2,0,P|368:356|450:321,1,170,2|2,0:2|1:2,0:0:0:0:
366,160,217891,1,8,0:2:0:0:
509,256,218063,1,2,0:2:0:0:
310,259,218236,1,0,0:0:0:0:
256,192,218322,12,0,220649,0:0:0:0:
429,7,220994,6,0,P|403:53|386:89,1,85,6|0,0:2|0:2,0:0:0:0:
315,154,221511,2,0,P|341:200|358:236,1,85,2|0,0:2|0:2,0:0:0:0:
306,319,222029,2,0,P|272:308|172:381,2,170,2|2|0,0:2|0:2|0:2,0:0:0:0:
394,374,223580,1,2,0:2:0:0:
479,315,223753,6,0,P|491:251|501:222,1,85,2|0,0:2|0:2,0:0:0:0:
430,159,224270,2,0,P|390:173|343:206,1,85,2|0,0:2|0:2,0:0:0:0:
259,163,224787,2,0,P|241:95|311:37,2,170,2|2|0,0:2|0:2|0:2,0:0:0:0:
210,249,226339,1,2,0:2:0:0:
119,192,226511,6,0,P|76:179|32:168,1,85,2|0,0:2|0:2,0:0:0:0:
3,81,227029,2,0,P|46:68|90:57,1,85,2|0,0:2|0:2,0:0:0:0:
190,2,227546,2,0,P|177:52|161:133,1,127.5,2|0,0:2|0:0,0:0:0:0:
228,197,228236,6,0,P|262:187|301:178,1,63.7500024318696,2|2,0:2|0:2,0:0:0:0:
361,121,228580,1,2,0:2:0:0:
361,121,228753,6,0,P|397:133|456:148,1,85,2|2,0:2|0:2,0:0:0:0:
512,222,229270,6,0,B|512:288|431:347|337:323|334:250|334:250|414:265|393:360|379:377,1,416.499987289429,2|2,0:2|0:2,0:0:0:0:
381,373,232029,6,0,P|334:379|271:323,1,127.5,6|0,0:2|0:2,0:0:0:0:
207,265,232718,6,0,P|220:217|227:191,1,63.7500024318696,2|2,0:2|0:2,0:0:0:0:
302,152,233063,2,0,P|289:104|282:78,1,63.7500024318696,2|2,0:2|0:2,0:0:0:0:
216,20,233408,2,0,P|136:47|85:59,1,127.500004863739,2|0,0:2|0:2,0:0:0:0:
14,140,233925,2,0,P|60:148|100:227,2,127.500004863739,2|2|2,0:2|0:2|0:2,0:0:0:0:
8,245,234787,6,0,P|21:298|36:374,1,127.500004863739,2|0,0:2|0:2,0:0:0:0:
134,372,235477,6,0,P|171:363|204:358,1,63.7500024318696,2|2,0:2|0:2,0:0:0:0:
280,289,235822,2,0,P|248:283|217:275,1,63.7500024318696,2|2,0:2|0:2,0:0:0:0:
170,192,236167,2,0,P|203:152|278:149,1,127.500004863739,2|2,0:2|0:2,0:0:0:0:
396,93,236684,2,0,P|382:156|369:232,2,127.500004863739,2|2|2,0:2|0:2|0:2,0:0:0:0:
332,14,237546,6,0,P|301:0|208:74,1,170,2|0,0:2|0:2,0:0:0:0:
207,74,239270,6,0,P|220:105|232:152,1,63.7500024318696,2|2,0:2|0:2,0:0:0:0:
112,201,239615,2,0,P|120:170|133:141,1,63.7500024318696,2|2,0:2|0:2,0:0:0:0:
212,251,239960,2,0,P|261:235|283:232,1,63.7500024318696,2|2,0:2|0:2,0:0:0:0:
378,269,240305,6,0,P|360:209|319:98,2,169.999994812012,2|2|2,0:2|0:2|0:2,0:0:0:0:
256,192,241511,12,0,243063,0:0:0:0:
