osu file format v14

[General]
AudioFilename: audio.mp3
AudioLeadIn: 0
PreviewTime: 44402
Countdown: 0
SampleSet: Soft
StackLeniency: 0.7
Mode: 0
LetterboxInBreaks: 0
WidescreenStoryboard: 0

[Editor]
Bookmarks: 66315,88384,110453
DistanceSpacing: 1.4
BeatDivisor: 6
GridSize: 4
TimelineZoom: 1.6

[Metadata]
Title:Cold Green Eyes feat. Roos Denayer
TitleUnicode:Cold Green Eyes feat. Roos Denayer
Artist:Station Earth
ArtistUnicode:Station Earth
Creator:Hey lululu
Version:Turquoise
Source:osu!
Tags:galaxy of dreams 2 Blue Marble Mappers' Guild Featured Artist English Electronic dnb drum and bass cut edit short version lu^3 Flask Chaoslitz
BeatmapID:2307744
BeatmapSetID:1104312

[Difficulty]
HPDrainRate:6
CircleSize:4
OverallDifficulty:9
ApproachRate:9.2
SliderMultiplier:1.7
SliderTickRate:1

[Events]
//Background and Video events
0,0,"BG.jpg",0,0
//Break Periods
//Storyboard Layer 0 (Background)
//Storyboard Layer 1 (Fail)
//Storyboard Layer 2 (Pass)
//Storyboard Layer 3 (Foreground)
//Storyboard Layer 4 (Overlay)
//Storyboard Sound Samples

[TimingPoints]
351,344.827586206897,4,2,1,50,1,0
11385,-500,4,2,1,50,0,0
22333,-500,4,2,1,5,0,0
22419,-125,4,2,1,60,0,0
44402,-125,4,2,1,5,0,0
44488,-100,4,2,1,70,0,0
66557,-90.9090909090909,4,2,1,70,0,1
88626,-125,4,2,1,60,0,0
110609,-125,4,2,1,5,0,0
110695,-166.666666666667,4,2,1,60,0,0
132333,-166.666666666667,4,2,1,5,0,0
132419,-166.666666666667,4,2,1,70,0,0
132592,-166.666666666667,4,2,1,60,0,0

[Colours]
Combo1 : 0,170,170
Combo2 : 0,170,0
Combo3 : 64,128,128
Combo4 : 0,191,0

[HitObjects]
211,285,11385,6,0,P|150:313|85:295,3,136,2|2|2|2,0:0|0:0|0:0|0:0,0:0:0:0:
73,202,16902,2,0,P|134:174|199:192,3,136,2|2|2|2,0:0|0:0|0:0|0:0,0:0:0:0:
256,192,21126,12,0,22333,0:0:0:0:
282,0,22419,6,0,P|259:51|298:140,1,136,2|0,0:0|0:0,0:0:0:0:
201,167,22937,2,0,P|242:204|339:195,1,136,2|0,0:0|0:0,0:0:0:0:
453,132,23454,2,0,L|378:141,1,68,2|0,0:0|0:0,0:0:0:0:
309,288,23799,5,2,0:0:0:0:
323,305,24144,2,0,B|330:291|330:291|385:280,1,68,2|0,0:0|0:0,0:0:0:0:
490,384,24488,2,0,B|438:373|438:373|431:359,1,68,0|0,0:0|0:0,0:0:0:0:
309,288,24833,2,0,B|316:274|316:274|371:263,1,68,0|0,0:0|0:0,0:0:0:0:
186,375,25178,6,0,P|225:329|210:248,1,136,2|0,0:0|0:0,0:0:0:0:
113,90,25695,2,0,P|74:136|89:217,1,136,2|0,0:0|0:0,0:0:0:0:
54,307,26213,2,0,L|146:295,1,68,2|0,0:0|0:0,0:0:0:0:
224,153,26557,6,0,L|156:161,1,68,0|0,0:0|0:0,0:0:0:0:
236,162,26902,2,0,L|168:170,1,68,2|0,0:0|0:0,0:0:0:0:
318,57,27247,2,0,L|250:65,1,68,0|0,0:0|0:0,0:0:0:0:
330,66,27592,2,0,L|262:74,1,68,0|0,0:0|0:0,0:0:0:0:
461,165,27937,6,0,P|488:149|504:109,1,68,2|0,0:0|0:0,0:0:0:0:
457,51,28282,1,0,0:0:0:0:
358,142,28454,2,0,L|381:228,1,68,2|0,0:0|0:0,0:0:0:0:
314,301,28799,1,0,0:0:0:0:
430,366,28971,2,0,P|374:332|285:343,1,136,2|0,0:0|0:0,0:0:0:0:
35,231,29661,5,2,0:0:0:0:
146,193,29833,1,0,0:0:0:0:
123,303,30006,1,2,0:0:0:0:
223,254,30178,2,0,P|256:259|286:274,1,68,0|0,0:0|0:0,0:0:0:0:
353,337,30523,6,0,P|315:282|308:205,1,136,0|0,0:0|0:0,0:0:0:0:
440,120,31040,2,0,P|401:128|375:146,1,68,0|0,0:0|0:0,0:0:0:0:
238,39,31385,2,0,P|271:45|300:62,1,68,0|0,0:0|0:0,0:0:0:0:
436,108,31730,2,0,P|397:116|371:134,1,68,0|0,0:0|0:0,0:0:0:0:
200,237,32075,5,2,0:0:0:0:
339,195,32247,1,0,0:0:0:0:
193,160,32419,1,0,0:0:0:0:
348,199,32592,1,0,0:0:0:0:
193,241,32764,1,0,0:0:0:0:
283,126,32937,1,0,0:0:0:0:
312,271,33109,1,0,0:0:0:0:
281,115,33282,1,0,0:0:0:0:
139,152,33454,6,0,L|292:190,1,136,2|0,0:0|0:0,0:0:0:0:
472,117,34144,1,2,0:0:0:0:
505,35,34316,1,0,0:0:0:0:
423,1,34488,1,2,0:0:0:0:
390,83,34661,1,0,0:0:0:0:
311,12,34833,5,2,0:0:0:0:
179,34,35006,2,0,P|203:68|211:114,1,68,0|0,0:0|0:0,0:0:0:0:
44,120,35351,2,0,P|76:107|110:106,1,68,2|0,0:0|0:0,0:0:0:0:
287,223,35695,2,0,P|255:235|221:236,1,68,2|0,0:0|0:0,0:0:0:0:
62,259,36040,6,0,P|122:277|170:354,1,136,2|0,0:0|0:0,0:0:0:0:
88,375,36557,1,0,0:0:0:0:
88,375,36730,1,0,0:0:0:0:
264,384,36902,2,0,P|257:350|258:316,1,68,2|0,0:0|0:0,0:0:0:0:
321,213,37247,1,2,0:0:0:0:
250,108,37419,1,0,0:0:0:0:
355,24,37592,6,0,P|380:51|470:88,1,136,2|0,0:0|0:0,0:0:0:0:
508,184,38109,2,0,P|472:199|431:225,1,68,2|0,0:0|0:0,0:0:0:0:
359,300,38454,2,0,P|323:285|282:259,1,68,2|0,0:0|0:0,0:0:0:0:
268,165,38799,1,2,0:0:0:0:
338,83,38971,6,0,L|323:11,1,68,2|0,0:0|0:0,0:0:0:0:
419,0,39316,2,0,L|432:66,1,68,2|0,0:0|0:0,0:0:0:0:
157,149,39661,2,0,L|172:77,1,68,2|0,0:0|0:0,0:0:0:0:
76,66,40006,2,0,L|62:132,1,68,2|0,0:0|0:0,0:0:0:0:
352,289,40351,6,0,L|337:217,1,68,2|0,0:0|0:0,0:0:0:0:
433,206,40695,2,0,L|446:272,1,68,2|0,0:0|0:0,0:0:0:0:
171,355,41040,2,0,L|186:283,1,68,2|0,0:0|0:0,0:0:0:0:
90,272,41385,2,0,L|76:338,1,68,2|0,0:0|0:0,0:0:0:0:
264,214,41730,5,2,0:0:0:0:
211,135,41902,1,0,0:0:0:0:
253,220,42075,1,2,0:0:0:0:
285,80,42247,1,0,0:0:0:0:
170,202,42419,1,2,0:0:0:0:
312,154,42592,1,0,0:0:0:0:
133,111,42764,1,2,0:0:0:0:
288,67,42937,1,0,0:0:0:0:
256,192,43109,12,0,44402,0:0:0:0:
69,4,44488,6,0,P|110:14|158:60,1,85,4|0,3:2|0:0,0:0:0:0:
266,113,44833,2,0,P|225:123|177:169,1,85,8|0,3:2|0:0,0:0:0:0:
142,253,45178,1,0,0:0:0:0:
45,216,45351,1,0,3:0:0:0:
64,311,45523,2,0,P|126:306|180:338,1,127.5,8|0,3:2|0:0,0:0:0:0:
292,381,45868,6,0,P|274:341|276:300,1,85,2|0,3:2|0:0,0:0:0:0:
387,139,46213,2,0,P|405:179|403:220,1,85,8|0,3:2|0:0,0:0:0:0:
354,324,46557,1,0,0:0:0:0:
483,361,46730,1,0,3:0:0:0:
511,221,46902,2,0,P|453:220|364:252,1,127.5,8|0,3:2|0:0,0:0:0:0:
286,197,47247,6,0,P|230:172|205:120,1,85,2|0,3:2|0:0,0:0:0:0:
155,16,47592,2,0,L|138:107,1,85,8|0,3:2|0:0,0:0:0:0:
27,163,47937,1,0,0:0:0:0:
128,105,48109,1,0,3:0:0:0:
150,266,48282,1,8,3:2:0:0:
150,266,48454,1,0,0:0:0:0:
61,302,48626,5,0,3:2:0:0:
226,209,48799,1,0,0:0:0:0:
50,292,48971,1,8,3:2:0:0:
236,228,49144,1,0,0:0:0:0:
78,175,49316,1,0,0:0:0:0:
200,356,49488,1,0,3:2:0:0:
249,181,49661,1,8,3:2:0:0:
50,292,49833,1,0,0:0:0:0:
211,366,50006,6,0,L|312:352,1,85,2|0,3:2|0:0,0:0:0:0:
162,163,50351,2,0,L|77:174,1,85,8|0,3:2|0:0,0:0:0:0:
326,89,50695,1,0,0:0:0:0:
231,19,50868,1,0,3:0:0:0:
267,140,51040,2,0,B|319:130|319:130|340:134|340:134|406:117,1,127.5,8|0,3:2|0:0,0:0:0:0:
512,149,51385,6,0,P|474:189|469:249,1,85,2|0,3:2|0:0,0:0:0:0:
428,353,51730,2,0,P|413:313|382:285,1,85,8|0,3:2|0:0,0:0:0:0:
222,245,52075,1,0,0:0:0:0:
139,366,52247,1,0,3:2:0:0:
65,183,52419,1,8,3:2:0:0:
139,366,52592,1,0,0:0:0:0:
255,151,52764,6,0,P|215:167|161:168,1,85,2|0,3:2|0:0,0:0:0:0:
0,24,53109,2,0,P|42:26|81:42,1,85,8|0,3:2|0:0,0:0:0:0:
48,254,53454,1,0,0:0:0:0:
11,131,53626,1,0,3:2:0:0:
173,169,53799,2,0,P|215:166|255:151,1,85,8|0,3:2|0:0,0:0:0:0:
373,29,54144,5,0,3:2:0:0:
346,222,54316,1,0,0:0:0:0:
261,56,54488,1,8,3:2:0:0:
443,180,54661,1,0,0:0:0:0:
380,22,54833,1,0,0:0:0:0:
264,172,55006,1,0,3:2:0:0:
386,15,55178,1,8,3:2:0:0:
453,210,55351,1,0,3:2:0:0:
512,16,55523,6,0,L|499:104,1,85,2|0,3:2|0:0,0:0:0:0:
358,306,55868,2,0,L|345:218,1,85,8|0,3:2|0:0,0:0:0:0:
276,111,56213,1,0,0:0:0:0:
217,230,56385,1,0,3:0:0:0:
283,96,56557,2,0,P|258:61|177:38,1,127.5,8|0,3:2|0:0,0:0:0:0:
79,18,56902,6,0,B|107:49|107:49|94:106,1,85,2|0,3:2|0:0,0:0:0:0:
18,284,57247,2,0,B|-10:253|-10:253|3:196,1,85,8|0,3:2|0:0,0:0:0:0:
20,129,57592,1,0,0:0:0:0:
151,214,57764,1,0,3:0:0:0:
122,367,57937,2,0,P|157:338|247:338,1,127.5,8|0,3:2|0:0,0:0:0:0:
336,375,58282,6,0,P|323:334|337:278,1,85,2|0,3:2|0:0,0:0:0:0:
245,143,58626,2,0,P|258:184|244:240,1,85,8|0,3:2|0:0,0:0:0:0:
148,196,58971,1,0,0:0:0:0:
207,43,59144,1,0,3:0:0:0:
286,230,59316,1,8,3:2:0:0:
286,230,59488,1,0,0:0:0:0:
353,139,59661,5,0,3:2:0:0:
170,120,59833,1,0,0:0:0:0:
363,130,60006,1,8,3:2:0:0:
175,230,60178,1,0,0:0:0:0:
289,68,60351,1,0,0:0:0:0:
365,256,60523,1,0,3:2:0:0:
175,131,60695,1,8,3:2:0:0:
399,56,60868,1,0,0:0:0:0:
279,158,61040,6,0,L|176:143,1,85,2|0,3:2|0:0,0:0:0:0:
12,262,61385,2,0,L|96:274,1,85,8|0,3:2|0:0,0:0:0:0:
223,343,61730,1,0,0:0:0:0:
173,224,61902,1,0,3:0:0:0:
279,158,62075,2,0,P|305:196|409:193,1,127.5,8|0,3:2|0:0,0:0:0:0:
441,112,62419,6,0,L|352:132,1,85,2|0,3:2|0:0,0:0:0:0:
213,6,62764,2,0,L|302:26,1,85,8|0,3:2|0:0,0:0:0:0:
170,176,63109,1,0,0:0:0:0:
33,25,63282,1,0,3:2:0:0:
185,81,63454,1,8,3:2:0:0:
30,213,63626,1,0,0:0:0:0:
183,324,63799,6,0,B|204:287|204:287|188:228,1,85,2|0,3:2|0:0,0:0:0:0:
293,90,64144,2,0,B|272:127|272:127|288:186,1,85,8|0,3:2|0:0,0:0:0:0:
384,262,64488,1,0,0:0:0:0:
505,186,64661,1,0,3:2:0:0:
384,262,64833,1,8,3:2:0:0:
505,186,65006,1,0,0:0:0:0:
341,182,65178,5,0,3:2:0:0:
477,341,65351,1,0,0:0:0:0:
424,125,65523,1,8,3:2:0:0:
264,258,65695,1,0,0:0:0:0:
278,73,65868,5,0,0:0:0:0:
509,178,66040,1,0,3:2:0:0:
276,255,66213,1,8,3:2:0:0:
452,15,66385,1,0,3:2:0:0:
227,135,66557,6,0,P|152:108|126:6,1,187.000005706787,6|8,3:2|3:2,0:0:0:0:
333,124,67075,2,0,B|288:225|361:198|322:313,1,187.000005706787,2|0,0:0|3:2,0:0:0:0:
488,362,67592,2,0,P|447:333|397:325,1,93.5000028533936,10|0,3:2|0:0,0:0:0:0:
169,353,67937,5,2,3:2:0:0:
219,207,68109,1,0,0:0:0:0:
173,370,68282,1,10,3:2:0:0:
98,174,68454,1,0,0:0:0:0:
267,269,68626,2,0,B|225:290|225:290|156:269,1,93.5000028533936,0|0,0:0|3:2,0:0:0:0:
9,177,68971,2,0,B|51:198|51:198|120:177,1,93.5000028533936,8|0,3:2|0:0,0:0:0:0:
193,0,69316,6,0,B|137:40|137:40|175:152,1,187.000005706787,2|8,3:2|3:2,0:0:0:0:
401,102,69833,2,0,P|335:48|238:66,1,187.000005706787,2|0,0:0|3:2,0:0:0:0:
142,227,70351,2,0,P|184:231|237:203,1,93.5000028533936,10|0,3:2|0:0,0:0:0:0:
308,125,70695,5,2,3:2:0:0:
352,260,70868,1,0,0:0:0:0:
399,56,71040,1,10,3:2:0:0:
443,191,71213,1,0,0:0:0:0:
240,173,71385,1,0,0:0:0:0:
487,104,71557,1,0,3:2:0:0:
286,50,71730,1,8,3:2:0:0:
451,203,71902,1,0,0:0:0:0:
162,110,72075,6,0,L|205:295,1,187.000005706787,2|8,3:2|3:2,0:0:0:0:
0,375,72592,2,0,P|34:299|134:283,1,187.000005706787,2|0,0:0|3:2,0:0:0:0:
356,251,73109,2,0,P|306:244|265:125,1,187.000005706787,10|2,3:2|3:2,0:0:0:0:
494,6,73799,5,8,3:2:0:0:
333,95,73971,1,2,0:0:0:0:
377,7,74144,1,0,0:0:0:0:
508,127,74316,1,2,3:2:0:0:
334,109,74488,1,8,3:2:0:0:
509,141,74661,6,0,P|436:162|408:185,1,93.5000028533936,0|2,0:0|3:2,0:0:0:0:
365,277,75006,1,0,0:0:0:0:
271,198,75178,1,8,3:2:0:0:
271,198,75351,1,0,0:0:0:0:
227,312,75523,1,0,0:0:0:0:
346,141,75695,1,0,3:2:0:0:
166,163,75868,1,8,3:2:0:0:
313,358,76040,1,0,0:0:0:0:
389,220,76213,5,0,3:2:0:0:
137,270,76385,1,0,0:0:0:0:
389,220,76557,1,8,3:2:0:0:
137,270,76730,1,0,0:0:0:0:
348,357,76902,5,0,0:0:0:0:
294,109,77075,1,0,3:2:0:0:
184,345,77247,1,8,3:2:0:0:
310,109,77419,1,0,3:2:0:0:
137,270,77592,6,0,P|105:237|103:174,1,93.5000028533936,2|0,3:2|0:0,0:0:0:0:
135,17,77937,2,0,P|167:50|169:113,1,93.5000028533936,8|0,3:2|0:0,0:0:0:0:
16,200,78282,1,2,0:0:0:0:
63,78,78454,1,0,3:2:0:0:
137,270,78626,1,10,3:2:0:0:
63,78,78799,1,0,0:0:0:0:
186,179,78971,5,2,3:2:0:0:
186,179,79144,2,0,L|284:162,1,93.5000028533936,2|10,0:0|3:2,0:0:0:0:
317,0,79488,2,0,B|297:35|297:35|329:89,1,93.5000028533936,2|0,0:0|0:0,0:0:0:0:
377,250,79833,2,0,B|357:215|357:215|389:161,1,93.5000028533936,2|8,3:2|3:2,0:0:0:0:
506,156,80178,6,0,P|457:134|444:78,1,93.5000028533936,2|2,0:0|3:2,0:0:0:0:
474,9,80523,1,0,0:0:0:0:
474,9,80695,2,0,P|413:23|370:32,1,93.5000028533936,8|0,3:2|0:0,0:0:0:0:
270,45,81040,1,2,0:0:0:0:
228,207,81213,1,0,3:2:0:0:
359,124,81385,1,10,3:2:0:0:
158,20,81557,1,0,0:0:0:0:
73,195,81730,6,0,P|137:230|180:338,1,187.000005706787,2|10,3:2|3:2,0:0:0:0:
290,383,82247,2,0,P|288:336|306:287,1,93.5000028533936,2|0,0:0|0:0,0:0:0:0:
237,102,82592,2,0,P|235:149|253:198,1,93.5000028533936,2|8,3:2|3:2,0:0:0:0:
381,226,82937,6,0,L|476:199,1,93.5000028533936,2|2,0:0|3:2,0:0:0:0:
500,115,83282,1,0,0:0:0:0:
339,39,83454,1,8,3:2:0:0:
500,115,83626,1,0,0:0:0:0:
288,148,83799,1,0,0:0:0:0:
453,3,83971,1,0,3:2:0:0:
381,226,84144,1,8,3:2:0:0:
216,15,84316,1,0,0:0:0:0:
55,157,84488,6,0,L|167:173,1,93.5000028533936,2|0,3:2|0:0,0:0:0:0:
361,309,84833,2,0,L|270:322,1,93.5000028533936,10|2,3:2|0:0,0:0:0:0:
131,362,85178,1,0,0:0:0:0:
232,193,85351,1,2,3:2:0:0:
134,376,85523,1,8,3:2:0:0:
46,140,85695,1,2,0:0:0:0:
274,286,85868,6,0,P|232:242|107:232,1,187.000005706787,2|8,3:2|3:2,0:0:0:0:
5,73,86385,2,0,P|88:68|163:-5,1,187.000005706787,2|0,0:0|3:2,0:0:0:0:
295,0,86902,2,0,L|283:104,1,93.5000028533936,10|0,3:2|0:0,0:0:0:0:
264,242,87247,5,0,3:2:0:0:
470,110,87419,1,0,0:0:0:0:
281,152,87592,1,8,3:2:0:0:
494,243,87764,1,0,0:0:0:0:
303,229,87937,5,0,0:0:0:0:
449,135,88109,1,0,3:2:0:0:
316,166,88282,1,8,3:2:0:0:
466,229,88454,1,0,3:2:0:0:
379,294,88626,6,0,L|284:327,1,68,2|0,3:2|0:0,0:0:0:0:
230,376,88971,1,8,3:2:0:0:
230,376,89144,1,0,0:0:0:0:
104,190,89316,2,0,L|199:223,1,68,0|0,0:0|3:2,0:0:0:0:
253,272,89661,1,8,3:2:0:0:
253,272,89833,1,0,0:0:0:0:
404,104,90006,6,0,L|309:137,1,68,2|0,3:2|0:0,0:0:0:0:
255,186,90351,1,8,3:2:0:0:
255,186,90523,1,0,0:0:0:0:
129,0,90695,2,0,L|224:33,1,68,0|0,0:0|3:2,0:0:0:0:
278,82,91040,1,8,3:2:0:0:
278,82,91213,1,0,0:0:0:0:
384,7,91385,6,0,P|366:47|370:81,1,68,2|0,3:2|0:0,0:0:0:0:
459,215,91730,2,0,P|477:175|473:141,1,68,8|0,3:2|0:0,0:0:0:0:
319,177,92075,2,0,L|415:154,1,68,0|0,0:0|3:2,0:0:0:0:
512,48,92419,2,0,L|445:63,1,68,8|0,3:2|0:0,0:0:0:0:
335,64,92764,5,0,3:2:0:0:
335,64,92937,1,0,0:0:0:0:
225,24,93109,2,0,P|221:57|212:90,1,68,8|0,3:2|0:0,0:0:0:0:
142,215,93454,1,0,0:0:0:0:
142,215,93626,1,0,3:2:0:0:
252,175,93799,2,0,P|255:208|264:241,1,68,8|0,3:2|0:0,0:0:0:0:
382,357,94144,6,0,L|394:279,1,68,2|0,3:2|0:0,0:0:0:0:
478,229,94488,1,8,3:2:0:0:
478,229,94661,1,0,0:0:0:0:
295,75,94833,2,0,L|307:153,1,68,0|0,0:0|3:2,0:0:0:0:
391,203,95178,1,8,3:2:0:0:
391,203,95351,1,0,0:0:0:0:
209,357,95523,6,0,L|221:279,1,68,2|0,3:2|0:0,0:0:0:0:
305,229,95868,1,8,3:2:0:0:
305,229,96040,1,0,0:0:0:0:
122,75,96213,2,0,L|134:153,1,68,0|0,0:0|3:2,0:0:0:0:
218,203,96557,1,8,3:2:0:0:
218,203,96730,1,0,0:0:0:0:
286,97,96902,6,0,P|250:96|205:121,1,68,2|0,3:2|0:0,0:0:0:0:
41,238,97247,2,0,P|77:239|122:214,1,68,8|0,3:2|0:0,0:0:0:0:
50,91,97592,2,0,L|62:169,1,68,0|0,0:0|3:2,0:0:0:0:
189,348,97937,2,0,L|178:280,1,68,8|0,3:2|0:0,0:0:0:0:
262,147,98282,5,0,3:2:0:0:
374,251,98454,1,0,0:0:0:0:
345,105,98626,1,8,3:2:0:0:
281,242,98799,1,0,0:0:0:0:
239,130,98971,1,0,0:0:0:0:
396,275,99144,1,0,3:2:0:0:
355,71,99316,1,8,3:2:0:0:
265,263,99488,1,0,3:2:0:0:
476,150,99661,6,0,P|508:96|499:44,1,102,2|0,3:2|0:0,0:0:0:0:
423,9,100006,2,0,B|384:33|384:33|280:9,1,136,8|0,3:2|0:0,0:0:0:0:
174,17,100523,1,0,3:2:0:0:
220,143,100695,2,0,P|237:113|241:80,1,68,8|0,3:2|0:0,0:0:0:0:
69,108,101040,6,0,L|94:207,1,102,2|0,3:2|0:0,0:0:0:0:
26,260,101385,2,0,P|67:246|157:280,1,136,8|0,3:2|0:0,0:0:0:0:
192,373,101902,1,0,3:2:0:0:
323,273,102075,1,8,3:2:0:0:
182,176,102247,1,0,0:0:0:0:
321,93,102419,6,0,P|362:134|411:152,1,102,2|0,3:2|0:0,0:0:0:0:
497,137,102764,2,0,P|431:172|401:223,1,136,8|0,3:2|0:0,0:0:0:0:
399,352,103282,1,0,3:2:0:0:
499,288,103454,1,8,3:2:0:0:
292,191,103626,1,0,0:0:0:0:
497,137,103799,6,0,L|424:155,1,68,0|0,3:2|0:0,0:0:0:0:
251,78,104144,2,0,L|324:96,1,68,8|0,3:2|0:0,0:0:0:0:
431,6,104488,2,0,P|408:44|408:74,1,68,0|0,0:0|3:2,0:0:0:0:
316,251,104833,2,0,P|311:217|291:190,1,68,8|0,3:2|0:0,0:0:0:0:
112,314,105178,6,0,P|156:336|227:318,1,102,2|0,3:2|0:0,0:0:0:0:
175,227,105523,2,0,L|33:248,1,136,8|0,3:2|0:0,0:0:0:0:
0,151,106040,1,0,3:2:0:0:
64,70,106213,2,0,L|152:83,1,68,8|0,3:2|0:0,0:0:0:0:
268,8,106557,6,0,P|240:39|254:123,1,102,2|0,3:2|0:0,0:0:0:0:
204,225,106902,2,0,B|234:188|234:188|346:184,1,136,8|0,3:2|0:0,0:0:0:0:
431,255,107419,1,0,3:2:0:0:
490,100,107592,2,0,L|398:118,1,68,8|0,3:2|0:0,0:0:0:0:
256,192,107937,12,0,110609,0:0:0:0:
174,48,110695,6,0,P|203:52|258:116,1,101.999996887207,2|0,0:0|0:0,0:0:0:0:
98,196,111213,2,0,P|110:169|188:137,1,101.999996887207,2|0,0:0|0:0,0:0:0:0:
203,266,111730,2,0,P|192:255|189:213,1,50.9999984436036,2|0,0:0|0:0,0:0:0:0:
265,176,112075,5,2,0:0:0:0:
204,370,112419,1,2,0:0:0:0:
441,370,113282,1,0,0:0:0:0:
441,370,113454,6,0,P|412:366|357:302,1,101.999996887207,2|0,0:0|0:0,0:0:0:0:
512,232,113971,2,0,P|480:266|421:290,1,101.999996887207,2|0,0:0|0:0,0:0:0:0:
435,106,114488,2,0,P|441:197|351:191,1,203.999993774414,2|2,0:0|0:0,0:0:0:0:
80,56,116040,5,0,0:0:0:0:
80,56,116213,2,0,P|108:73|130:156,1,101.999996887207,2|0,0:0|0:0,0:0:0:0:
53,233,116730,2,0,L|160:215,1,101.999996887207,2|0,0:0|0:0,0:0:0:0:
244,198,117247,1,2,0:0:0:0:
244,198,117937,6,0,P|227:176|220:150,1,50.9999984436036,2|0,0:0|0:0,0:0:0:0:
305,141,118282,1,2,0:0:0:0:
341,65,118454,2,0,P|373:90|386:159,1,101.999996887207,0|0,0:0|0:0,0:0:0:0:
344,222,118971,5,2,0:0:0:0:
168,161,121385,1,2,0:0:0:0:
168,161,121730,6,0,L|188:337,1,152.999995330811,2|0,0:0|0:0,0:0:0:0:
112,366,122419,1,2,0:0:0:0:
271,282,122592,1,0,0:0:0:0:
91,237,122764,1,2,0:0:0:0:
271,282,122937,1,0,0:0:0:0:
164,296,123109,5,2,0:0:0:0:
164,296,123282,2,0,L|184:241,1,50.9999984436036,0|0,0:0|0:0,0:0:0:0:
114,121,123626,2,0,P|141:149|165:163,1,50.9999984436036,2|0,0:0|0:0,0:0:0:0:
280,84,123971,2,0,P|253:112|229:126,1,50.9999984436036,2|0,0:0|0:0,0:0:0:0:
170,31,124316,1,2,0:0:0:0:
170,31,124488,6,0,P|198:55|231:115,1,101.999996887207,2|0,0:0|0:0,0:0:0:0:
401,182,125178,2,0,P|432:175|460:158,1,50.9999984436036,2|0,0:0|0:0,0:0:0:0:
325,266,125523,2,0,P|294:259|266:242,1,50.9999984436036,2|0,0:0|0:0,0:0:0:0:
383,383,125868,6,0,P|412:355|484:352,1,101.999996887207,2|0,0:0|0:0,0:0:0:0:
468,254,126385,2,0,P|424:237|384:180,2,101.999996887207,2|2|2,0:0|0:0|0:0,0:0:0:0:
500,169,127247,1,2,0:0:0:0:
312,37,128971,6,0,P|284:50|244:55,1,50.9999984436036,0|0,0:0|0:0,0:0:0:0:
259,151,129316,2,0,P|231:138|191:133,1,50.9999984436036,0|0,0:0|0:0,0:0:0:0:
151,56,129661,2,0,P|123:69|83:74,1,50.9999984436036,0|0,0:0|0:0,0:0:0:0:
0,160,130006,6,0,L|28:267,1,101.999996887207,2|0,0:0|0:0,0:0:0:0:
108,242,130580,2,0,L|136:349,1,101.999996887207,2|0,0:0|0:0,0:0:0:0:
256,192,131155,1,2,0:0:0:0:
256,192,131213,12,0,132333,0:0:0:0:
256,192,132419,5,2,0:0:0:0:
256,192,132592,1,2,0:0:0:0:
