osu file format v14

[General]
AudioFilename: audio.mp3
AudioLeadIn: 0
PreviewTime: 44402
Countdown: 0
SampleSet: Soft
StackLeniency: 0.7
Mode: 0
LetterboxInBreaks: 0
WidescreenStoryboard: 1

[Editor]
Bookmarks: 66315,88384,110453
DistanceSpacing: 1.5
BeatDivisor: 4
GridSize: 4
TimelineZoom: 1.3

[Metadata]
Title:Cold Green Eyes feat. Roos Denayer
TitleUnicode:Cold Green Eyes feat. Roos Denayer
Artist:Station Earth
ArtistUnicode:Station Earth
Creator:Hey lululu
Version:Insane
Source:osu!
Tags:galaxy of dreams 2 Blue Marble Mappers' Guild Featured Artist English Electronic dnb drum and bass cut edit short version lu^3 Flask Chaoslitz
BeatmapID:2311021
BeatmapSetID:1104312

[Difficulty]
HPDrainRate:6
CircleSize:4
OverallDifficulty:8
ApproachRate:9
SliderMultiplier:1.6
SliderTickRate:1

[Events]
//Background and Video events
0,0,"BG.jpg",0,0
//Break Periods
//Storyboard Layer 0 (Background)
//Storyboard Layer 1 (Fail)
//Storyboard Layer 2 (Pass)
//Storyboard Layer 3 (Foreground)
//Storyboard Layer 4 (Overlay)
//Storyboard Sound Samples

[TimingPoints]
351,344.827586206897,4,2,1,50,1,0
11385,-500,4,2,1,50,0,0
22419,-125,4,2,1,60,0,0
32075,-333.333333333333,4,2,1,60,0,0
33368,-333.333333333333,4,2,1,5,0,0
33454,-125,4,2,1,60,0,0
44402,-125,4,2,1,5,0,0
44488,-100,4,2,1,70,0,0
66557,-90.9090909090909,4,2,1,70,0,1
88626,-125,4,2,1,60,0,0
110609,-125,4,2,1,5,0,0
110695,-166.666666666667,4,2,1,60,0,0
132333,-166.666666666667,4,2,1,5,0,0
132419,-166.666666666667,4,2,1,70,0,0
132592,-166.666666666667,4,2,1,60,0,0

[Colours]
Combo1 : 0,170,170
Combo2 : 0,170,0
Combo3 : 64,128,128
Combo4 : 0,191,0

[HitObjects]
256,192,11385,5,2,0:0:0:0:
256,192,11471,12,2,15523,0:0:0:0:
256,192,16902,5,2,0:0:0:0:
256,192,16988,12,2,21040,0:0:0:0:
453,32,22419,6,0,P|417:77|414:153,1,128,2|0,0:0|0:0,0:0:0:0:
294,164,22937,2,0,P|325:212|397:238,1,128,2|0,0:0|0:0,0:0:0:0:
490,217,23454,1,2,0:0:0:0:
453,369,23799,6,0,L|438:297,1,64,2|0,0:0|0:0,0:0:0:0:
331,315,24144,2,0,L|346:243,1,64,2|0,0:0|0:0,0:0:0:0:
241,382,24488,2,0,L|226:310,1,64,0|0,0:0|0:0,0:0:0:0:
119,328,24833,2,0,L|134:256,1,64,0|0,0:0|0:0,0:0:0:0:
18,103,25178,6,0,P|29:158|111:207,1,128,2|0,0:0|0:0,0:0:0:0:
234,91,25695,2,0,L|99:118,1,128,2|0,0:0|0:0,0:0:0:0:
210,193,26213,2,0,L|295:213,1,64,2|0,0:0|0:0,0:0:0:0:
410,137,26557,6,0,P|376:142|338:170,1,64,0|0,0:0|0:0,0:0:0:0:
499,122,26902,2,0,P|487:92|465:69,1,64,2|0,0:0|0:0,0:0:0:0:
453,281,27247,2,0,P|487:286|525:314,1,64,0|0,0:0|0:0,0:0:0:0:
364,266,27592,2,0,P|375:236|397:213,1,64,0|0,0:0|0:0,0:0:0:0:
308,355,27937,6,0,L|169:337,1,128,2|0,0:0|0:0,0:0:0:0:
230,244,28454,2,0,L|91:226,1,128,2|0,0:0|0:0,0:0:0:0:
16,159,28971,1,2,0:0:0:0:
188,22,29661,5,2,0:0:0:0:
74,4,29833,1,0,0:0:0:0:
118,103,30006,1,2,0:0:0:0:
198,24,30178,1,0,0:0:0:0:
198,24,30523,1,0,0:0:0:0:
289,93,30695,6,0,L|372:78,1,64,2|0,0:0|0:0,0:0:0:0:
457,68,31040,1,0,0:0:0:0:
457,68,31213,1,0,0:0:0:0:
386,195,31385,2,0,L|303:180,1,64,0|0,0:0|0:0,0:0:0:0:
218,170,31730,1,0,0:0:0:0:
218,170,31902,1,0,0:0:0:0:
160,320,32075,6,0,P|210:270|318:284,1,179.999994506836,2|0,0:0|0:0,0:0:0:0:
326,356,33454,6,0,P|290:301|297:221,1,128,2|0,0:0|0:0,0:0:0:0:
289,240,34144,2,0,L|373:222,1,64,2|0,0:0|0:0,0:0:0:0:
447,207,34488,1,2,0:0:0:0:
447,207,34661,1,0,0:0:0:0:
377,95,34833,5,2,0:0:0:0:
480,59,35006,2,0,L|464:136,1,64,0|0,0:0|0:0,0:0:0:0:
349,182,35351,2,0,P|318:168|271:163,1,64,2|0,0:0|0:0,0:0:0:0:
452,300,35695,2,0,P|483:294|512:280,1,64,2|0,0:0|0:0,0:0:0:0:
444,207,36040,6,0,L|399:347,1,128,2|0,0:0|0:0,0:0:0:0:
404,328,36902,2,0,P|372:305|337:294,1,64,2|0,0:0|0:0,0:0:0:0:
235,260,37247,2,0,P|203:283|168:294,1,64,2|0,0:0|0:0,0:0:0:0:
52,319,37592,6,0,B|26:291|26:291|41:193,1,128,2|0,0:0|0:0,0:0:0:0:
111,125,38109,2,0,P|67:120|5:40,2,128,2|2|2,0:0|0:0|0:0,0:0:0:0:
183,57,38971,5,2,0:0:0:0:
183,57,39316,1,2,0:0:0:0:
324,109,39661,1,2,0:0:0:0:
324,109,40006,1,2,0:0:0:0:
182,188,40351,1,2,0:0:0:0:
182,188,40695,1,2,0:0:0:0:
323,240,41040,1,2,0:0:0:0:
323,240,41385,1,2,0:0:0:0:
199,87,41730,5,2,0:0:0:0:
199,87,41902,1,0,0:0:0:0:
308,127,42075,1,2,0:0:0:0:
308,127,42247,1,0,0:0:0:0:
198,188,42419,1,2,0:0:0:0:
198,188,42592,1,0,0:0:0:0:
307,229,42764,1,2,0:0:0:0:
307,229,42937,1,0,0:0:0:0:
256,192,43109,12,0,44402,0:0:0:0:
126,24,44488,6,0,L|146:188,1,160,4|8,3:2|3:2,0:0:0:0:
163,280,45006,1,0,0:0:0:0:
94,355,45178,2,0,B|66:333|66:333|53:260,1,80,0|0,0:0|3:2,0:0:0:0:
231,196,45523,2,0,B|259:218|259:218|272:291,1,80,8|0,3:2|0:0,0:0:0:0:
365,348,45868,6,0,P|429:353|496:279,1,160,2|8,3:2|3:2,0:0:0:0:
411,209,46385,1,0,0:0:0:0:
497,137,46557,2,0,L|512:55,1,80,0|0,0:0|3:2,0:0:0:0:
399,0,46902,2,0,L|384:78,1,80,8|0,3:2|0:0,0:0:0:0:
262,134,47247,6,0,P|226:83|119:76,2,160,2|8|0,3:2|3:2|0:0,0:0:0:0:
199,217,48109,1,0,3:2:0:0:
102,200,48282,2,0,L|200:182,1,80,8|0,3:2|0:0,0:0:0:0:
347,149,48626,5,0,3:2:0:0:
293,275,48799,1,0,0:0:0:0:
402,325,48971,2,0,L|369:236,1,80,8|0,3:2|0:0,0:0:0:0:
347,149,49316,5,0,0:0:0:0:
474,247,49488,1,0,3:2:0:0:
495,65,49661,1,8,3:2:0:0:
474,247,49833,1,0,0:0:0:0:
512,76,50006,6,0,P|417:64|328:62,1,160,2|8,3:2|3:2,0:0:0:0:
234,114,50523,1,0,0:0:0:0:
184,23,50695,2,0,P|211:56|224:114,1,80,0|0,0:0|3:2,0:0:0:0:
308,170,51040,2,0,P|281:203|268:261,1,80,8|0,3:2|0:0,0:0:0:0:
204,351,51385,6,0,P|187:267|97:243,1,160,2|8,3:2|3:2,0:0:0:0:
35,294,51902,1,0,0:0:0:0:
129,218,52075,2,0,L|148:127,1,80,0|0,0:0|3:2,0:0:0:0:
16,98,52419,2,0,L|-3:7,1,80,8|0,3:2|0:0,0:0:0:0:
137,20,52764,6,0,B|236:5|188:58|300:40,2,160,2|8|0,3:2|3:2|0:0,0:0:0:0:
161,109,53626,1,0,3:2:0:0:
264,139,53799,2,0,P|276:184|271:223,1,80,8|0,3:2|0:0,0:0:0:0:
203,316,54144,5,0,3:2:0:0:
353,281,54316,1,0,0:0:0:0:
212,337,54488,2,0,L|317:363,1,80,8|0,3:2|0:0,0:0:0:0:
423,382,54833,5,0,0:0:0:0:
353,281,55006,1,0,3:2:0:0:
476,228,55178,1,8,3:2:0:0:
348,119,55351,1,0,3:2:0:0:
512,126,55523,6,0,L|340:166,1,160,2|8,3:2|3:2,0:0:0:0:
251,194,56040,1,0,0:0:0:0:
229,78,56213,2,0,L|127:58,1,80,0|0,0:0|3:2,0:0:0:0:
30,168,56557,1,8,3:2:0:0:
9,46,56730,1,0,0:0:0:0:
127,88,56902,6,0,L|153:267,1,160,2|8,3:2|3:2,0:0:0:0:
43,293,57419,1,0,0:0:0:0:
105,381,57592,2,0,P|127:358|190:341,1,80,0|0,0:0|3:2,0:0:0:0:
294,377,57937,1,8,3:2:0:0:
252,267,58109,1,0,0:0:0:0:
370,285,58282,6,0,L|386:187,1,80,2|0,3:2|0:0,0:0:0:0:
353,31,58626,2,0,L|340:109,1,80,8|0,3:2|0:0,0:0:0:0:
215,175,58971,1,0,0:0:0:0:
184,54,59144,1,0,3:2:0:0:
132,162,59316,1,8,3:2:0:0:
270,71,59488,1,0,0:0:0:0:
84,4,59661,6,0,P|96:40|102:90,1,80,0|0,3:2|0:0,0:0:0:0:
54,229,60006,1,8,3:2:0:0:
10,119,60178,1,0,0:0:0:0:
164,163,60351,5,0,0:0:0:0:
45,243,60523,1,0,3:2:0:0:
176,330,60695,1,8,3:2:0:0:
168,179,60868,1,0,0:0:0:0:
301,264,61040,6,0,L|475:239,1,160,2|8,3:2|3:2,0:0:0:0:
376,122,61557,1,0,0:0:0:0:
321,184,61730,2,0,P|297:144|298:93,1,80,0|0,0:0|3:2,0:0:0:0:
424,21,62075,1,8,3:2:0:0:
376,122,62247,1,0,0:0:0:0:
295,9,62419,6,0,P|210:28|167:88,1,160,2|8,3:2|3:2,0:0:0:0:
186,185,62937,1,0,0:0:0:0:
57,239,63109,2,0,P|103:264|137:264,1,80,0|0,0:0|3:2,0:0:0:0:
281,226,63454,1,8,3:2:0:0:
217,332,63626,1,0,0:0:0:0:
342,384,63799,6,0,B|321:354|321:354|335:293,1,80,2|0,3:2|0:0,0:0:0:0:
407,134,64144,2,0,B|428:164|428:164|414:225,1,80,8|0,3:2|0:0,0:0:0:0:
281,226,64488,1,0,0:0:0:0:
219,121,64661,1,0,3:2:0:0:
281,226,64833,1,8,3:2:0:0:
307,42,65006,1,0,0:0:0:0:
406,149,65178,6,0,L|488:135,1,80,0|0,3:2|0:0,0:0:0:0:
364,228,65523,1,8,3:2:0:0:
307,138,65695,1,0,0:0:0:0:
229,286,65868,5,0,0:0:0:0:
376,219,66040,1,0,3:2:0:0:
209,208,66213,1,8,3:2:0:0:
366,315,66385,1,0,3:2:0:0:
159,356,66557,6,0,P|146:302|213:205,1,176.000005371094,6|8,3:2|3:2,0:0:0:0:
292,117,67075,2,0,L|99:88,1,176.000005371094,2|0,0:0|3:2,0:0:0:0:
1,27,67592,2,0,P|23:62|28:125,1,88.000002685547,10|0,3:2|0:0,0:0:0:0:
12,217,67937,6,0,L|96:194,1,88.000002685547,2|0,3:2|0:0,0:0:0:0:
200,252,68282,1,10,3:2:0:0:
200,252,68454,1,0,0:0:0:0:
292,117,68626,2,0,P|272:171|289:217,1,88.000002685547,0|0,0:0|3:2,0:0:0:0:
377,273,68971,2,0,P|397:219|380:173,1,88.000002685547,8|0,3:2|0:0,0:0:0:0:
397,92,69316,6,0,P|471:90|510:-3,1,176.000005371094,2|8,3:2|3:2,0:0:0:0:
284,2,69833,2,0,L|313:185,1,176.000005371094,2|0,0:0|3:2,0:0:0:0:
458,262,70351,2,0,P|415:254|376:272,1,88.000002685547,10|0,3:2|0:0,0:0:0:0:
240,346,70695,6,0,B|263:312|263:312|249:250,1,88.000002685547,2|0,3:2|0:0,0:0:0:0:
136,137,71040,2,0,B|113:171|113:171|127:233,1,88.000002685547,10|0,3:2|0:0,0:0:0:0:
294,168,71385,2,0,L|207:191,1,88.000002685547,0|0,0:0|3:2,0:0:0:0:
85,317,71730,2,0,L|170:294,1,88.000002685547,8|0,3:2|0:0,0:0:0:0:
365,384,72075,6,0,P|336:339|387:222,1,176.000005371094,2|8,3:2|3:2,0:0:0:0:
506,163,72592,2,0,P|424:143|388:53,1,176.000005371094,2|0,0:0|3:0,0:0:0:0:
294,168,73109,2,0,P|288:124|150:75,1,176.000005371094,10|2,3:2|3:2,0:0:0:0:
45,236,73799,5,8,3:2:0:0:
160,185,73971,1,2,0:0:0:0:
64,128,74144,1,0,0:0:0:0:
54,259,74316,2,0,L|151:272,1,88.000002685547,2|8,3:2|3:2,0:0:0:0:
244,292,74661,1,0,0:0:0:0:
344,370,74833,6,0,P|329:323|339:266,1,88.000002685547,2|0,3:2|0:0,0:0:0:0:
450,189,75178,1,8,3:2:0:0:
419,294,75351,1,0,0:0:0:0:
256,211,75523,2,0,L|364:195,1,88.000002685547,0|0,0:0|3:2,0:0:0:0:
482,82,75868,2,0,L|394:94,1,88.000002685547,8|0,3:2|0:0,0:0:0:0:
281,0,76213,6,0,P|294:48|281:105,1,88.000002685547,0|0,3:2|0:0,0:0:0:0:
149,151,76557,1,8,3:2:0:0:
93,58,76730,1,0,0:0:0:0:
42,192,76902,5,0,0:0:0:0:
180,83,77075,1,0,3:2:0:0:
19,107,77247,1,8,3:2:0:0:
137,227,77419,1,0,3:2:0:0:
286,118,77592,6,0,L|166:100,1,88.000002685547,2|0,3:2|0:0,0:0:0:0:
309,240,77937,2,0,L|396:253,1,88.000002685547,8|0,3:2|0:0,0:0:0:0:
502,182,78282,1,2,0:0:0:0:
422,97,78454,1,0,3:2:0:0:
502,182,78626,1,10,3:2:0:0:
422,97,78799,1,0,0:0:0:0:
511,19,78971,5,2,3:2:0:0:
511,19,79144,2,0,P|461:51|424:62,1,88.000002685547,2|10,0:0|3:2,0:0:0:0:
312,0,79488,2,0,B|343:34|343:34|331:88,1,88.000002685547,2|0,0:0|0:0,0:0:0:0:
228,178,79833,2,0,B|197:144|197:144|209:90,1,88.000002685547,2|8,3:2|3:2,0:0:0:0:
341,171,80178,6,0,L|328:258,1,88.000002685547,2|2,0:0|3:2,0:0:0:0:
310,349,80523,1,0,0:0:0:0:
226,278,80695,2,0,P|178:264|132:265,1,88.000002685547,8|0,3:2|0:0,0:0:0:0:
27,328,81040,1,2,0:0:0:0:
70,234,81213,1,0,3:2:0:0:
27,328,81385,1,10,3:2:0:0:
70,234,81557,1,0,0:0:0:0:
0,133,81730,6,0,P|60:176|174:168,1,176.000005371094,2|10,3:2|3:2,0:0:0:0:
141,5,82247,2,0,P|133:57|155:94,1,88.000002685547,2|0,0:0|0:0,0:0:0:0:
239,205,82592,2,0,P|247:153|225:116,1,88.000002685547,2|8,3:2|3:2,0:0:0:0:
297,33,82937,6,0,L|391:18,1,88.000002685547,2|2,0:0|3:2,0:0:0:0:
469,79,83282,1,0,0:0:0:0:
380,191,83454,2,0,P|360:150|371:104,1,88.000002685547,8|0,3:2|0:0,0:0:0:0:
483,208,83799,2,0,P|503:249|492:295,1,88.000002685547,0|0,0:0|3:2,0:0:0:0:
409,346,84144,1,8,3:2:0:0:
409,346,84316,1,0,0:0:0:0:
301,304,84488,6,0,L|188:319,1,88.000002685547,2|0,3:2|0:0,0:0:0:0:
110,326,84833,1,10,3:2:0:0:
183,231,85006,1,2,0:0:0:0:
48,159,85178,2,0,L|75:254,1,88.000002685547,0|2,0:0|3:2,0:0:0:0:
157,103,85523,2,0,L|132:18,1,88.000002685547,8|2,3:2|0:0,0:0:0:0:
281,3,85868,6,0,P|347:46|349:144,1,176.000005371094,2|8,3:2|3:2,0:0:0:0:
353,237,86385,2,0,P|357:158|441:107,1,176.000005371094,2|0,0:0|3:2,0:0:0:0:
512,204,86902,2,0,L|494:297,1,88.000002685547,10|0,3:2|0:0,0:0:0:0:
388,383,87247,5,0,3:2:0:0:
360,240,87419,1,0,0:0:0:0:
238,355,87592,1,8,3:2:0:0:
210,212,87764,1,0,0:0:0:0:
361,352,87937,5,0,0:0:0:0:
341,250,88109,1,0,3:2:0:0:
254,332,88282,1,8,3:2:0:0:
234,230,88454,1,0,3:2:0:0:
394,177,88626,6,0,P|422:109|488:81,1,128,2|8,3:2|3:2,0:0:0:0:
487,102,89144,2,0,L|400:94,1,64,0|0,0:0|0:0,0:0:0:0:
342,35,89488,1,0,3:2:0:0:
342,35,89661,2,0,L|255:27,1,64,8|0,3:2|0:0,0:0:0:0:
174,9,90006,6,0,P|193:44|174:134,1,128,2|8,3:2|3:2,0:0:0:0:
154,146,90523,2,0,P|185:155|221:192,1,64,0|0,0:0|0:0,0:0:0:0:
247,259,90868,1,0,3:2:0:0:
247,259,91040,2,0,P|216:268|180:305,1,64,8|0,3:2|0:0,0:0:0:0:
93,359,91385,6,0,P|45:328|45:255,2,128,2|8|0,3:2|3:2|0:0,0:0:0:0:
169,301,92247,1,0,3:2:0:0:
247,354,92419,2,0,L|317:345,1,64,8|0,3:2|0:0,0:0:0:0:
407,325,92764,6,0,P|388:287|386:247,1,64,0|0,3:2|0:0,0:0:0:0:
466,205,93109,1,8,3:2:0:0:
466,205,93282,1,0,0:0:0:0:
374,147,93454,2,0,P|393:109|395:69,1,64,0|0,0:0|3:2,0:0:0:0:
315,27,93799,1,8,3:2:0:0:
315,27,93971,1,0,0:0:0:0:
176,125,94144,6,0,P|231:111|326:110,1,128,2|8,3:2|3:2,0:0:0:0:
274,219,94661,2,0,P|236:215|209:210,1,64,0|0,0:0|0:0,0:0:0:0:
353,297,95006,1,0,3:2:0:0:
353,297,95178,2,0,P|384:291|416:288,1,64,8|0,3:2|0:0,0:0:0:0:
244,343,95523,6,0,P|262:289|274:200,1,128,2|8,3:2|3:2,0:0:0:0:
358,158,96040,2,0,P|344:119|339:91,1,64,0|0,0:0|0:0,0:0:0:0:
274,0,96385,1,0,3:2:0:0:
274,0,96557,2,0,P|234:33|209:42,1,64,8|0,3:2|0:0,0:0:0:0:
119,30,96902,6,0,L|139:108,1,64,2|0,3:2|0:0,0:0:0:0:
163,196,97247,1,8,3:2:0:0:
163,196,97419,1,0,0:0:0:0:
228,112,97592,1,0,0:0:0:0:
124,93,97764,1,0,3:2:0:0:
251,205,97937,2,0,L|329:182,1,64,8|0,3:2|0:0,0:0:0:0:
459,157,98282,5,0,3:2:0:0:
347,259,98454,1,0,0:0:0:0:
473,163,98626,1,8,3:2:0:0:
289,104,98799,1,0,0:0:0:0:
422,20,98971,2,0,L|436:106,1,64,0|0,0:0|3:2,0:0:0:0:
347,259,99316,1,8,3:2:0:0:
284,87,99488,1,0,3:2:0:0:
188,211,99661,6,0,P|150:220|103:206,1,64,2|0,3:2|0:0,0:0:0:0:
36,83,100006,2,0,P|74:74|149:131,1,128,8|0,3:2|0:0,0:0:0:0:
125,216,100523,1,0,3:2:0:0:
38,284,100695,2,0,L|23:211,1,64,8|0,3:2|0:0,0:0:0:0:
55,381,101040,6,0,P|79:356|133:337,1,64,2|0,3:2|0:0,0:0:0:0:
237,357,101385,2,0,P|201:301|207:228,1,128,8|0,3:2|0:0,0:0:0:0:
265,158,101902,1,0,3:2:0:0:
336,222,102075,1,8,3:2:0:0:
365,130,102247,1,0,0:0:0:0:
454,163,102419,6,0,L|467:76,1,64,2|0,3:2|0:0,0:0:0:0:
482,5,102764,2,0,P|424:31|341:23,1,128,8|0,3:2|0:0,0:0:0:0:
265,9,103282,1,0,3:2:0:0:
201,81,103454,2,0,P|170:66|130:61,1,64,8|0,3:2|0:0,0:0:0:0:
9,163,103799,5,0,3:2:0:0:
151,139,103971,1,0,0:0:0:0:
3,178,104144,1,8,3:2:0:0:
165,232,104316,1,0,0:0:0:0:
26,330,104488,2,0,L|13:250,1,64,0|0,0:0|3:2,0:0:0:0:
90,192,104833,1,8,3:2:0:0:
171,310,105006,1,0,0:0:0:0:
281,235,105178,6,0,L|264:165,1,64,2|0,3:2|0:0,0:0:0:0:
323,95,105523,2,0,P|377:109|393:181,1,128,8|0,3:2|0:0,0:0:0:0:
362,263,106040,1,0,3:2:0:0:
442,315,106213,2,0,L|516:304,1,64,8|0,3:2|0:0,0:0:0:0:
511,210,106557,6,0,L|447:219,1,64,2|0,3:2|0:0,0:0:0:0:
362,263,106902,2,0,P|336:304|244:316,1,128,8|0,3:2|0:0,0:0:0:0:
189,259,107419,1,0,3:2:0:0:
260,194,107592,1,8,3:2:0:0:
201,118,107764,1,0,0:0:0:0:
256,192,107851,12,0,110609,0:0:0:0:
63,91,110695,6,0,P|103:82|147:30,1,95.9999970703126,2|0,0:0|0:0,0:0:0:0:
225,92,111213,2,0,P|265:101|309:153,1,95.9999970703126,2|0,0:0|0:0,0:0:0:0:
303,223,111730,2,0,L|365:212,1,47.9999985351563,2|0,0:0|0:0,0:0:0:0:
449,202,112075,5,2,0:0:0:0:
395,371,112419,1,2,0:0:0:0:
395,371,113282,1,0,0:0:0:0:
395,371,113454,6,0,P|358:330|304:313,1,95.9999970703126,2|0,0:0|0:0,0:0:0:0:
230,269,113971,2,0,P|193:310|139:327,1,95.9999970703126,2|0,0:0|0:0,0:0:0:0:
58,355,114488,2,0,B|44:242|106:298|96:159,1,191.999994140625,2|2,0:0|0:0,0:0:0:0:
27,32,116040,5,0,0:0:0:0:
27,32,116213,2,0,P|42:65|110:103,1,95.9999970703126,2|0,0:0|0:0,0:0:0:0:
220,89,116730,2,0,P|184:112|152:167,1,95.9999970703126,2|0,0:0|0:0,0:0:0:0:
153,248,117247,1,2,0:0:0:0:
153,248,117937,6,0,P|178:242|209:227,1,47.9999985351563,2|0,0:0|0:0,0:0:0:0:
290,204,118282,1,2,0:0:0:0:
290,204,118454,2,0,L|275:318,1,95.9999970703126,0|0,0:0|0:0,0:0:0:0:
294,384,118971,5,2,0:0:0:0:
441,151,121385,1,2,0:0:0:0:
441,151,121730,6,0,P|396:170|347:183,1,95.9999970703126,2|0,0:0|0:0,0:0:0:0:
201,129,122419,2,0,L|138:116,1,47.9999985351563,2|0,0:0|0:0,0:0:0:0:
180,210,122764,2,0,L|117:197,1,47.9999985351563,2|0,0:0|0:0,0:0:0:0:
25,139,123109,5,2,0:0:0:0:
25,139,123282,2,0,P|44:183|45:245,2,95.9999970703126,0|2|2,0:0|0:0|0:0,0:0:0:0:
82,63,124316,1,2,0:0:0:0:
82,63,124488,6,0,P|122:48|193:33,1,95.9999970703126,2|0,0:0|0:0,0:0:0:0:
275,17,125178,2,0,P|272:41|277:75,1,47.9999985351563,2|0,0:0|0:0,0:0:0:0:
250,152,125523,2,0,P|253:176|248:210,1,47.9999985351563,2|0,0:0|0:0,0:0:0:0:
192,302,125868,6,0,P|239:286|289:291,1,95.9999970703126,2|0,0:0|0:0,0:0:0:0:
384,312,126385,2,0,P|358:268|362:209,2,95.9999970703126,2|2|2,0:0|0:0|0:0,0:0:0:0:
452,246,127247,1,2,0:0:0:0:
228,366,128971,6,0,L|214:313,1,47.9999985351563,0|0,0:0|0:0,0:0:0:0:
316,275,129316,2,0,L|330:222,1,47.9999985351563,0|0,0:0|0:0,0:0:0:0:
201,164,129661,2,0,L|187:111,1,47.9999985351563,0|0,0:0|0:0,0:0:0:0:
217,1,130006,2,0,P|165:41|68:26,2,159.999995117188,2|2|2,0:0|0:0|0:0,0:0:0:0:
256,192,131213,12,0,132333,0:0:0:0:
252,166,132419,6,0,P|267:202|274:231,1,47.9999985351563,2|2,0:0|0:0,0:0:0:0:
