osu file format v14

[General]
AudioFilename: audio.mp3
AudioLeadIn: 0
PreviewTime: 66423
Countdown: 0
SampleSet: Normal
StackLeniency: 0.2
Mode: 0
LetterboxInBreaks: 0
WidescreenStoryboard: 0

[Editor]
Bookmarks: 109,11143,22177,44246,66315,88384,110453,132522
DistanceSpacing: 1
BeatDivisor: 4
GridSize: 32
TimelineZoom: 2.8

[Metadata]
Title:Cold Green Eyes feat. Roos Denayer
TitleUnicode:Cold Green Eyes feat. Roos Denayer
Artist:Station Earth
ArtistUnicode:Station Earth
Creator:Fall
Version:Frakturehawkens' Transcendence
Source:osu!
Tags:fa featured artist electronic dnb drum n bass liquid english Frakturehawkens _tranquility Ksardas Nelliel CBH Come[Back]Home Slips
BeatmapID:2232319
BeatmapSetID:986813

[Difficulty]
HPDrainRate:5.7
CircleSize:3.8
OverallDifficulty:9.1
ApproachRate:9.3
SliderMultiplier:1.92
SliderTickRate:1

[Events]
//Background and Video events
0,0,"cold.jpg",0,0
//Break Periods
//Storyboard Layer 0 (Background)
//Storyboard Layer 1 (Fail)
//Storyboard Layer 2 (Pass)
//Storyboard Layer 3 (Foreground)
//Storyboard Layer 4 (Overlay)
//Storyboard Sound Samples

[TimingPoints]
217,344.827586206897,4,1,1,30,1,0
217,-153.846153846153,4,1,1,30,0,0
4354,-133.333333333333,4,1,1,30,0,0
5648,-133.333333333333,4,1,1,5,0,0
5734,-153.846153846153,4,1,1,30,0,0
11079,-153.846153846153,4,1,1,5,0,0
11251,-222.222222222221,4,1,1,30,0,0
15734,-133.333333333333,4,1,1,30,0,0
16682,-133.333333333333,4,1,1,5,0,0
16768,-222.222222222221,4,1,1,30,0,0
21251,-133.333333333333,4,1,1,30,0,0
22199,-133.333333333333,4,1,1,5,0,0
22285,-125,4,1,1,30,0,0
27113,-111.111111111111,4,1,1,30,0,0
27803,-125,4,1,1,30,0,0
30561,-142.857142857143,4,1,1,30,0,0
31941,-111.111111111111,4,1,1,30,0,0
33320,-125,4,1,1,30,0,0
38837,-133.333333333333,4,1,1,30,0,0
44354,-66.6666666666667,4,1,1,60,0,0
45734,-45.4545454545455,4,1,1,60,0,0
46079,-66.6666666666667,4,1,1,60,0,0
46768,-58.8235294117647,4,1,1,60,0,0
47113,-66.6666666666667,4,1,1,60,0,0
49872,-58.8235294117647,4,1,1,60,0,0
50217,-66.6666666666667,4,1,1,60,0,0
51251,-45.4545454545455,4,1,1,60,0,0
51596,-66.6666666666667,4,1,1,60,0,0
52285,-58.8235294117647,4,1,1,60,0,0
52630,-66.6666666666667,4,1,1,60,0,0
54182,-50,4,1,1,60,0,0
55044,-76.9230769230769,4,1,1,60,0,0
55389,-66.6666666666667,4,1,1,60,0,0
56768,-45.4545454545455,4,1,1,60,0,0
57113,-66.6666666666667,4,1,1,60,0,0
57803,-58.8235294117647,4,1,1,60,0,0
58148,-66.6666666666667,4,1,1,60,0,0
60906,-58.8235294117647,4,1,1,60,0,0
61251,-66.6666666666667,4,1,1,60,0,0
62285,-45.4545454545455,4,1,1,60,0,0
62630,-50,4,1,1,60,0,0
63148,-66.6666666666667,4,1,1,60,0,0
63320,-58.8235294117647,4,1,1,60,0,0
63665,-66.6666666666667,4,1,1,60,0,0
65044,-50,4,1,1,60,0,0
66423,-58.8235294117647,4,1,1,60,0,0
67803,-133.333333333333,4,1,1,60,0,0
68148,-66.6666666666667,4,1,1,60,0,0
69182,-58.8235294117647,4,1,1,60,0,0
70561,-66.6666666666667,4,1,1,60,0,0
71941,-58.8235294117647,4,1,1,60,0,0
78837,-133.333333333333,4,1,1,60,0,0
79182,-58.8235294117647,4,1,1,60,0,0
80217,-66.6666666666667,4,1,1,60,0,0
81596,-58.8235294117647,4,1,1,60,0,0
82975,-66.6666666666667,4,1,1,60,0,0
85734,-58.8235294117647,4,1,1,60,0,0
88492,-71.4285714285714,4,1,1,60,0,0
107803,-666.666666666658,4,1,1,30,0,0
110389,-666.666666666658,4,1,1,5,0,0
110561,-125,4,1,1,30,0,0

[Colours]
Combo1 : 118,186,5
Combo2 : 37,165,165
Combo3 : 69,252,165
Combo4 : 34,187,134

[HitObjects]
374,192,217,6,0,B|255:130|67:139|232:434|-26:404|9:289,2,499.199977148439,4|0|0,0:0|0:0|0:0,0:0:0:0:
60,361,4354,6,0,B|130:316|78:195|59:266|63:86|175:74|175:74|132:118|141:182|157:162|178:231|112:249,1,540.000020599366,0|0,0:0|0:0,0:0:0:0:
2,290,5734,6,0,B|133:232|326:218|429:241|327:303|405:364|481:306,2,499.199977148438,4|0|0,0:0|0:0|0:0,0:0:0:0:
256,192,8579,12,0,11079,0:0:0:0:
0,37,11251,6,0,P|13:60|25:91,7,43.1999986816406,4|0|0|0|0|0|0|0,0:0|0:0|0:0|0:0|0:0|0:0|0:0|0:0,0:0:0:0:
53,154,12630,2,0,P|59:180|63:213,7,43.1999986816406
138,235,14010,2,0,P|137:262|132:294,7,43.1999986816406,0|0|0|0|0|0|0|0,0:0|0:0|0:0|0:0|0:0|0:0|0:0|0:0,0:0:0:0:
128,362,15389,1,0,0:0:0:0:
0,290,15734,6,0,B|19:178|338:350|357:239,1,396.000015106202
357,240,16768,6,0,P|367:221|375:201,7,43.1999986816406,4|0|0|0|0|0|0|0,0:0|0:0|0:0|0:0|0:0|0:0|0:0|0:0,0:0:0:0:
334,320,18148,2,0,P|331:341|327:362,7,43.1999986816406
266,269,19527,2,0,P|265:247|262:226,7,43.1999986816406
230,149,20906,1,0,0:0:0:0:
8,198,21251,6,0,B|-86:125|233:145|-96:326|76:424|195:347|178:268|88:244,1,396.000015106202
174,350,22285,6,0,P|155:252|108:121,2,230.4,4|0|0,0:0|0:0|0:0,0:0:0:0:
186,248,23665,2,0,P|203:208|233:167,1,76.8,0|0,0:0|0:0,0:0:0:0:
111,129,24010,2,0,B|115:45|171:71|219:42|219:42|227:98|283:124|223:181,1,307.2,0|0,0:0|0:0,0:0:0:0:
199,91,24872,1,0,0:0:0:0:
184,265,25044,6,0,P|243:216|326:194,1,153.6,0|0,0:0|0:0,0:0:0:0:
238,327,25561,2,0,P|307:295|393:295,1,153.6,0|0,0:0|0:0,0:0:0:0:
511,92,26079,2,0,B|445:128|403:201|403:201|419:127|400:48,1,307.2
476,290,27113,2,0,P|367:331|299:391,1,172.799994726563,0|0,0:0|0:0,0:0:0:0:
377,281,27630,1,0,0:0:0:0:
268,287,27803,6,0,P|155:285|67:207,2,230.4,4|0|0,0:0|0:0|0:0,0:0:0:0:
268,287,29182,1,0,0:0:0:0:
32,367,29527,2,0,P|28:327|5:285,1,76.8,0|0,0:0|0:0,0:0:0:0:
69,211,29872,2,0,P|45:178|4:153,2,76.8,0|0|0,0:0|0:0|0:0,0:0:0:0:
69,211,30389,1,0,0:0:0:0:
153,165,30561,6,0,P|178:164|155:168,1,67.1999979492188,0|0,0:0|0:0,0:0:0:0:
250,100,30906,2,0,P|272:111|250:103,1,67.1999979492188,0|0,0:0|0:0,0:0:0:0:
365,92,31251,2,0,P|378:113|363:95,1,67.1999979492188,0|0,0:0|0:0,0:0:0:0:
468,142,31596,2,0,P|468:166|464:144,1,67.1999979492188,0|0,0:0|0:0,0:0:0:0:
250,100,31941,5,0,0:0:0:0:
362,103,32113,2,0,P|350:62|348:-15,2,86.3999973632813
250,100,32630,2,0,P|249:57|267:-17,2,86.3999973632813,0|0|0,0:0|0:0|0:0,0:0:0:0:
250,100,33148,1,0,0:0:0:0:
169,15,33320,6,0,P|217:128|239:250,1,230.4,4|0,0:0|0:0,0:0:0:0:
240,364,34010,2,0,P|258:334|309:310,1,76.8,0|0,0:0|0:0,0:0:0:0:
163,290,34354,2,0,P|146:259|150:203,1,76.8,0|0,0:0|0:0,0:0:0:0:
321,187,34699,1,0,0:0:0:0:
402,227,34872,6,0,P|418:152|445:80,2,153.6
248,305,35906,1,0,0:0:0:0:
200,380,36079,2,0,B|129:331|169:242|192:269|120:137|20:169,1,307.2,0|0,0:0|0:0,0:0:0:0:
20,253,36941,1,0,0:0:0:0:
118,143,37113,2,0,P|109:107|101:51,1,76.8,0|0,0:0|0:0,0:0:0:0:
33,165,37458,6,0,P|139:195|195:218,1,153.6,0|0,0:0|0:0,0:0:0:0:
20,253,37975,2,0,P|81:289|141:346,2,153.6
6,79,38837,5,12,0:2:0:0:
102,67,39182,1,8,0:2:0:0:
119,163,39527,5,8,0:2:0:0:
215,175,39872,1,8,0:2:0:0:
231,78,40217,5,8,0:2:0:0:
327,66,40561,5,8,0:2:0:0:
327,66,40734,1,0,0:0:0:0:
231,78,40906,5,8,0:2:0:0:
231,78,41079,1,0,0:0:0:0:
419,97,41251,6,0,P|437:102|421:100,1,72.0000027465821,8|0,0:2|0:0,0:0:0:0:
469,225,41596,6,0,P|489:84|502:-10,2,216.000008239746,8|0|8,0:2|0:0|0:2,0:0:0:0:
504,377,42975,5,0,0:0:0:0:
497,344,43148,5,0,0:0:0:0:
455,260,43320,5,0,0:0:0:0:
364,166,43492,5,0,0:0:0:0:
184,111,43665,5,0,0:0:0:0:
108,153,43837,5,0,0:0:0:0:
107,184,44010,5,0,0:0:0:0:
120,191,44182,5,0,0:0:0:0:
30,159,44354,6,0,B|128:123|68:70|136:2|229:17,1,216.000008239746,4|0,3:1|0:0,0:0:0:0:
261,163,44699,2,0,P|137:89|-1:49,1,288.000010986328,8|0,0:0|0:0,0:0:0:0:
145,197,45217,2,0,P|166:212|141:203,1,72.0000027465821,0|0,3:0|0:0,0:0:0:0:
179,88,45389,2,0,B|145:65|111:58|111:58|105:87|109:127,1,144.000005493164,8|0,0:0|0:0,0:0:0:0:
405,60,45734,6,0,P|387:30|403:62,1,105.600003222656,0|0,3:0|0:0,0:0:0:0:
322,114,45906,2,0,B|337:138|337:162|337:162|355:147|389:146,1,105.600003222656
443,288,46079,2,0,B|458:211|490:144|490:144|510:100|468:75,1,216.000008239746,8|0,0:0|0:0,0:0:0:0:
482,86,46423,1,0,0:0:0:0:
349,287,46596,2,0,B|356:298|356:318|356:318|348:300|331:286,1,72.0000027465821,0|0,3:0|0:0,0:0:0:0:
277,359,46768,2,0,P|372:283|489:248,1,244.800004669189,8|0,0:0|0:0,0:0:0:0:
180,371,47113,6,0,P|227:219|294:113,1,216.000008239746,0|0,3:0|0:0,0:0:0:0:
7,259,47458,2,0,P|173:313|291:366,1,288.000010986329,8|0,0:0|0:0,0:0:0:0:
1,354,47975,2,0,B|-3:362|-17:365|-17:365|0:375|24:355|22:339,1,72.0000027465821,0|0,3:0|0:0,0:0:0:0:
81,95,48148,2,0,B|58:90|-14:152|7:183|41:203|31:147,1,144.000005493164,8|0,0:0|0:0,0:0:0:0:
307,266,48492,6,0,P|292:122|291:26,1,216.000008239746,0|0,3:0|0:0,0:0:0:0:
479,152,48837,2,0,B|435:128|470:68|370:37,1,144.000005493164,8|0,0:0|0:0,0:0:0:0:
253,124,49182,1,0,0:0:0:0:
423,236,49354,2,0,B|422:243|428:257|428:257|410:243|407:221|421:205,1,72.0000027465821,0|0,3:0|0:0,0:0:0:0:
504,26,49527,1,8,0:0:0:0:
504,26,49699,1,0,0:0:0:0:
364,329,49872,6,0,P|299:264|159:170,1,244.80000466919,0|0,3:0|0:0,0:0:0:0:
240,374,50217,2,0,P|224:175|186:36,1,288.000010986329,8|0,0:0|0:0,0:0:0:0:
155,317,50734,2,0,P|142:271|86:229,1,72.0000027465821,0|0,3:0|0:0,0:0:0:0:
275,58,50906,2,0,B|234:51|218:20|218:20|226:53|201:92,1,144.000005493164,8|0,0:0|0:0,0:0:0:0:
382,106,51251,6,0,B|416:127|517:64|472:25|403:15|366:62|364:131|439:151|394:222,1,316.800009667969,0|0,3:0|0:0,0:0:0:0:
320,323,51596,2,0,P|323:301|326:326,1,72.0000027465821,8|0,0:0|0:0,0:0:0:0:
472,337,51768,2,0,B|451:241|424:307|395:223,1,144.000005493164
201,345,52113,2,0,B|187:356|193:378|193:378|213:364|208:348,1,72.0000027465821,0|0,3:0|0:0,0:0:0:0:
472,337,52285,2,0,P|359:291|239:269,1,244.80000466919,8|0,0:0|0:0,0:0:0:0:
16,220,52630,6,0,B|8:231|1:236|1:236|39:244|75:280|75:280|81:233|112:205|112:205|99:204|87:196,1,216.000008239746,0|0,3:0|0:0,0:0:0:0:
69,384,52975,2,0,B|-14:177|107:244|58:97,1,288.000010986329,8|0,0:0|0:0,0:0:0:0:
169,291,53492,2,0,P|159:276|174:291,1,72.0000027465821,0|0,3:0|0:0,0:0:0:0:
284,12,53665,5,8,0:0:0:0:
364,46,53837,1,0,0:0:0:0:
322,175,54010,5,0,3:0:0:0:
181,94,54182,6,0,P|189:47|198:0,1,96
284,12,54354,2,0,P|275:59|267:106,1,96,8|0,0:0|0:0,0:0:0:0:
322,175,54527,6,0,B|334:170|342:153|342:153|345:177|325:199|296:200,1,96
100,128,54699,1,0,0:0:0:0:
364,46,54872,5,0,3:0:0:0:
321,362,55044,1,8,0:0:0:0:
266,106,55217,1,0,3:0:0:0:
175,257,55389,6,0,B|106:252|94:174|107:207|72:123|-1:134,1,216.000008239746,4|0,3:1|0:0,0:0:0:0:
99,326,55734,2,0,P|260:279|412:279,1,288.000010986329,8|0,0:0|0:0,0:0:0:0:
266,106,56251,2,0,P|244:147|258:200,1,72.0000027465821,0|0,3:0|0:0,0:0:0:0:
214,328,56423,2,0,B|255:342|274:367|274:367|274:337|297:301,1,144.000005493164,8|0,0:0|0:0,0:0:0:0:
449,74,56768,6,0,P|479:95|446:82,1,105.600003222656,0|0,3:0|0:0,0:0:0:0:
372,38,56941,2,0,B|373:22|387:5|387:5|348:16|357:87,1,105.600003222656
470,204,57113,2,0,B|506:240|551:162|388:140|442:277|308:191,1,216.000008239746,8|0,0:0|0:0,0:0:0:0:
331,204,57458,1,0,0:0:0:0:
249,348,57630,2,0,B|262:362|257:383|257:383|240:367|245:349,1,72.0000027465821,0|0,3:0|0:0,0:0:0:0:
46,274,57803,2,0,B|70:229|121:237|121:237|279:260,1,244.80000466919,8|0,0:0|0:0,0:0:0:0:
298,60,58148,6,0,P|411:37|510:20,1,216.000008239746,0|0,3:0|0:0,0:0:0:0:
217,80,58492,2,0,B|187:9|121:-7|121:-7|177:57|108:94|170:142,1,288.000010986329,8|0,0:0|0:0,0:0:0:0:
389,244,59010,2,0,P|396:219|396:245,1,72.0000027465821,0|0,3:0|0:0,0:0:0:0:
447,138,59182,2,0,B|518:101|449:45|517:15,1,144.000005493164,8|0,0:0|0:0,0:0:0:0:
510,274,59527,6,0,P|373:299|257:346,1,216.000008239746,0|0,3:0|0:0,0:0:0:0:
174,196,59872,2,0,P|97:164|72:96,1,144.000005493164,8|0,0:0|0:0,0:0:0:0:
268,96,60217,1,0,0:0:0:0:
219,321,60389,2,0,P|224:284|252:258,1,72.0000027465821,0|0,3:0|0:0,0:0:0:0:
397,244,60561,1,8,0:0:0:0:
397,244,60734,1,0,0:0:0:0:
137,291,60906,6,0,B|138:316|100:348|100:348|150:278|286:251,1,244.80000466919,0|0,3:0|0:0,0:0:0:0:
467,373,61251,2,0,B|462:325|412:305|412:305|408:200|484:112,1,288.000010986329,8|0,0:0|0:0,0:0:0:0:
290,345,61768,2,0,B|281:353|273:369|273:369|274:344|291:328,1,72.0000027465821,0|0,3:0|0:0,0:0:0:0:
511,208,61941,2,0,P|447:261|386:232,1,144.000005493164,8|0,0:0|0:0,0:0:0:0:
104,22,62285,6,0,B|68:-6|10:10|10:10|119:20|229:116,1,316.800009667969,0|0,3:0|0:0,0:0:0:0:
399,141,62630,2,0,B|420:134|438:141|438:141|414:143|372:169,1,96,8|0,0:0|0:0,0:0:0:0:
303,110,62803,2,0,B|343:120|328:33|267:74|258:171|317:205,1,192
437,298,63148,2,0,B|433:261|409:292|395:239,1,72.0000027465821,0|0,3:0|0:0,0:0:0:0:
211,249,63320,2,0,B|280:260|294:192|261:204|315:99|402:142,1,244.80000466919,8|0,0:0|0:0,0:0:0:0:
346,367,63665,6,0,P|277:215|195:67,1,288.000010986329,0|8,3:0|0:0,0:0:0:0:
151,0,64182,1,0,0:0:0:0:
274,0,64354,2,0,P|263:22|277:4,1,72.0000027465821,0|0,0:0|0:0,0:0:0:0:
70,177,64527,2,0,P|109:159|163:138,1,72.0000027465821,0|0,3:0|0:0,0:0:0:0:
367,56,64699,5,8,0:0:0:0:
398,140,64872,1,0,0:0:0:0:
278,213,65044,5,0,3:0:0:0:
135,148,65217,6,0,P|149:103|191:81,1,96
73,44,65389,2,0,P|103:8|150:3,1,96,8|0,0:0|0:0,0:0:0:0:
277,5,65561,6,0,P|259:33|281:9,1,96,0|0,0:0|0:0,0:0:0:0:
455,72,65734,1,0,0:0:0:0:
190,81,65906,5,0,3:0:0:0:
455,72,66079,1,8,0:0:0:0:
149,2,66251,1,0,3:0:0:0:
248,169,66423,6,0,B|266:108|193:-10|72:56|146:130|201:71,1,244.80000466919,4|0,3:1|0:0,0:0:0:0:
280,90,66768,2,0,P|290:50|303:12,1,81.6000015563965,8|0,0:0|0:0,0:0:0:0:
396,239,66941,2,0,P|284:206|60:176,1,326.400006225586,0|0,0:0|3:0,0:0:0:0:
49,286,67458,2,0,B|92:303|112:339|112:339|112:296|163:248,1,163.200003112793,8|0,0:0|0:0,0:0:0:0:
479,258,67803,6,0,P|457:301|377:324,1,108.000004119873,0|0,3:0|0:0,0:0:0:0:
348,384,68148,2,0,B|391:306|310:286|380:197|442:191,1,216.000008239746,8|0,0:0|0:0,0:0:0:0:
419,196,68492,1,0,0:0:0:0:
209,346,68665,2,0,P|249:351|285:312,1,72.0000027465821,0|0,3:0|0:0,0:0:0:0:
360,39,68837,1,8,0:0:0:0:
469,52,69010,2,0,P|445:88|431:152,1,72.0000027465821,0|0,0:0|0:0,0:0:0:0:
419,196,69182,6,0,B|354:186|337:114|372:133|335:39|246:21,1,244.80000466919,0|0,3:0|0:0,0:0:0:0:
241,123,69527,2,0,P|262:139|248:121,1,81.6000015563965,8|0,0:0|0:0,0:0:0:0:
360,39,69699,2,0,P|243:100|153:299,1,326.400006225586,0|0,0:0|3:0,0:0:0:0:
362,277,70217,2,0,P|443:235|540:199,1,163.200003112793,8|0,0:0|0:0,0:0:0:0:
360,39,70561,6,0,B|295:32|364:-14|408:3|442:108|396:157,1,216.000008239746,0|0,3:0|0:0,0:0:0:0:
496,327,70906,2,0,P|399:286|304:267,1,144.000005493164,8|0,0:0|0:0,0:0:0:0:
321,121,71251,1,0,0:0:0:0:
402,148,71423,2,0,B|415:136|420:120|420:120|426:141|403:178,1,72.0000027465821,0|0,3:0|0:0,0:0:0:0:
155,267,71596,5,8,0:0:0:0:
98,343,71768,2,0,P|78:326|91:348,1,72.0000027465821,0|0,0:0|0:0,0:0:0:0:
219,367,71941,2,0,P|192:188|206:50,1,244.80000466919,0|0,3:0|0:0,0:0:0:0:
221,46,72285,2,0,P|271:90|272:114,1,81.6000015563965,8|0,0:0|0:0,0:0:0:0:
155,267,72458,6,0,P|251:148|466:129,1,326.400006225586,0|0,0:0|3:0,0:0:0:0:
118,158,72975,2,0,B|94:112|44:106|44:106|75:134|79:166,1,163.200003112793,8|0,0:0|0:0,0:0:0:0:
337,295,73320,2,0,B|281:292|270:216|280:248|291:129|194:124,1,244.80000466919,0|0,3:0|0:0,0:0:0:0:
155,294,73665,6,0,P|168:253|184:218,1,81.6000015563965,8|0,0:0|0:0,0:0:0:0:
265,249,73837,2,0,P|254:288|237:326,1,81.6000015563965
74,261,74010,1,0,0:0:0:0:
85,384,74182,6,0,P|162:347|245:323,1,163.200003112793,0|8,3:0|0:0,0:0:0:0:
379,286,74527,2,0,P|381:313|374:289,1,81.6000015563965
418,29,74699,5,0,3:0:0:0:
327,40,74872,1,0,0:0:0:0:
415,36,75044,5,8,0:0:0:0:
327,30,75217,1,0,0:0:0:0:
193,84,75389,5,0,0:0:0:0:
179,214,75561,1,0,3:0:0:0:
214,119,75734,5,8,0:0:0:0:
106,176,75906,1,0,0:0:0:0:
498,156,76079,5,0,3:0:0:0:
446,243,76251,1,0,0:0:0:0:
193,84,76423,5,8,0:0:0:0:
198,285,76596,1,0,0:0:0:0:
370,181,76768,1,0,0:0:0:0:
77,86,76941,6,0,P|50:72|9:100,1,81.6000015563965,0|0,3:0|0:0,0:0:0:0:
253,183,77113,2,0,P|278:167|274:117,1,81.6000015563965,8|0,0:0|0:0,0:0:0:0:
193,84,77285,2,0,P|191:54|146:32,1,81.6000015563965,0|0,3:0|0:0,0:0:0:0:
56,296,77458,6,0,P|261:330|434:377,1,326.400006225586,4|8,3:1|0:0,0:0:0:0:
195,302,77975,2,0,B|162:291|176:262|114:246,1,81.6000015563965,0|0,0:0|0:0,0:0:0:0:
24,382,78148,2,0,P|9:239|-18:160,1,163.200003112793,0|0,0:0|3:0,0:0:0:0:
246,161,78492,2,0,P|161:44|98:-10,1,163.200003112793,8|0,0:0|0:0,0:0:0:0:
493,9,78837,5,0,3:0:0:0:
493,9,79010,2,0,P|481:27|467:60,1,36.0000013732911,0|0,0:0|0:0,0:0:0:0:
227,70,79182,1,8,0:0:0:0:
399,89,79354,2,0,B|396:17|270:22|245:161,1,244.80000466919,0|0,0:0|0:0,0:0:0:0:
40,326,79699,2,0,P|99:299|109:263,1,81.6000015563965,0|0,3:0|0:0,0:0:0:0:
148,31,79872,1,8,0:0:0:0:
223,247,80044,2,0,P|101:207|85:207,1,81.6000015563965,0|0,0:0|0:0,0:0:0:0:
189,352,80217,6,0,B|282:294|207:245|248:208|392:152,1,288.000010986329,0|8,3:0|0:0,0:0:0:0:
462,122,80734,1,0,0:0:0:0:
353,347,80906,2,0,P|337:304|308:241,1,72.0000027465821,0|0,0:0|0:0,0:0:0:0:
436,318,81079,2,0,P|422:284|410:251,1,72.0000027465821,0|0,3:0|0:0,0:0:0:0:
174,145,81251,2,0,P|161:179|148:213,1,72.0000027465821,8|0,0:0|0:0,0:0:0:0:
257,174,81423,2,0,P|243:207|230:241,1,72.0000027465821,0|0,0:0|0:0,0:0:0:0:
50,279,81596,6,0,B|53:331|85:300|115:364|115:364|129:300|77:247|19:273,1,244.80000466919,0|0,3:0|0:0,0:0:0:0:
73,133,81941,2,0,B|66:126|56:107|56:107|58:134|76:153,1,81.6000015563965,8|0,0:0|0:0,0:0:0:0:
381,279,82113,2,0,P|271:233|89:213,1,244.80000466919,0|0,0:0|0:0,0:0:0:0:
50,279,82458,5,0,3:0:0:0:
93,0,82630,1,8,0:0:0:0:
179,20,82803,1,0,0:0:0:0:
205,272,82975,6,0,P|314:215|370:208,1,144.000005493164,0|0,3:0|0:0,0:0:0:0:
292,38,83320,2,0,P|304:59|289:40,1,72.0000027465821,8|0,0:0|0:0,0:0:0:0:
179,20,83492,1,0,0:0:0:0:
110,102,83665,1,0,0:0:0:0:
292,38,83837,5,0,3:0:0:0:
320,278,84010,2,0,P|369:228|440:219,1,144.000005493164,8|0,0:0|0:0,0:0:0:0:
282,362,84354,2,0,B|235:347|214:290|234:292|242:212|139:189,1,216.000008239746,0|0,3:0|0:0,0:0:0:0:
6,340,84699,6,0,P|79:308|150:282,1,144.000005493164,8|0,0:0|0:0,0:0:0:0:
439,218,85044,1,0,0:0:0:0:
420,303,85217,2,0,B|431:331|412:338|412:338|398:321|419:303,1,72.0000027465821,0|0,3:0|0:0,0:0:0:0:
472,53,85389,2,0,B|459:23|486:0|497:34|471:53,1,72.0000027465821,8|0,0:0|0:0,0:0:0:0:
455,135,85561,1,0,0:0:0:0:
282,362,85734,6,0,P|301:175|306:64,1,244.80000466919,0|0,3:0|0:0,0:0:0:0:
38,92,86079,2,0,P|27:110|36:88,1,81.6000015563965,8|0,0:0|0:0,0:0:0:0:
189,14,86251,2,0,B|123:27|120:104|147:106|109:202|40:193,1,244.80000466919,0|0,0:0|0:0,0:0:0:0:
206,196,86596,2,0,B|227:178|213:157|213:157|191:167|195:194,1,81.6000015563965,0|0,3:0|0:0,0:0:0:0:
10,308,86768,2,0,P|182:281|278:279,1,244.80000466919,8|0,0:0|0:0,0:0:0:0:
278,29,87113,5,0,3:0:0:0:
276,40,87285,1,0,0:0:0:0:
35,87,87458,5,8,0:0:0:0:
170,205,87630,1,0,0:0:0:0:
346,96,87803,5,0,0:0:0:0:
362,8,87975,1,0,3:0:0:0:
512,270,88148,5,8,0:0:0:0:
7,175,88320,1,0,3:0:0:0:
233,156,88492,6,0,P|214:222|207:298,1,134.399995898438,4|0,3:1|0:0,0:0:0:0:
199,284,88751,1,0,0:0:0:0:
192,285,88837,2,0,P|175:297|190:292,1,67.1999979492188,8|0,0:2|0:0,0:0:0:0:
245,361,89010,2,0,B|307:327|265:288|325:254,1,134.399995898438,0|0,0:0|0:0,0:0:0:0:
105,144,89354,6,0,P|99:176|96:229,1,67.1999979492188,0|0,3:0|0:0,0:0:0:0:
18,162,89527,1,8,0:2:0:0:
11,167,89613,1,0,0:0:0:0:
7,175,89699,1,0,0:0:0:0:
321,258,89872,6,0,P|387:239|463:232,1,134.399995898438,0|0,3:0|0:0,0:0:0:0:
449,224,90130,1,0,0:0:0:0:
450,217,90217,2,0,P|448:194|455:216,1,67.1999979492188,8|0,0:2|0:0,0:0:0:0:
433,88,90389,2,0,P|371:93|366:155,1,134.399995898438,0|0,0:0|0:0,0:0:0:0:
510,382,90734,6,0,P|483:365|403:356,1,67.1999979492188,0|0,3:0|0:0,0:0:0:0:
345,346,90906,1,8,0:2:0:0:
352,351,90992,1,0,0:0:0:0:
356,359,91079,1,0,0:0:0:0:
105,144,91251,6,0,B|65:117|112:61|52:26,1,134.399995898438,0|0,3:0|0:0,0:0:0:0:
46,32,91510,1,0,0:0:0:0:
43,40,91596,2,0,P|90:46|117:15,1,67.1999979492188,8|0,0:2|0:0,0:0:0:0:
171,93,91768,2,0,P|232:60|305:57,1,134.399995898438,0|0,0:0|0:0,0:0:0:0:
503,216,92113,6,0,P|471:215|443:165,1,67.1999979492188,0|0,3:0|0:0,0:0:0:0:
479,108,92285,1,8,0:2:0:0:
485,113,92372,1,0,0:0:0:0:
488,120,92458,1,0,0:0:0:0:
356,359,92630,6,0,P|329:289|300:229,1,134.399995898438,0|0,3:0|0:0,0:0:0:0:
307,227,92889,1,0,0:0:0:0:
315,228,92975,2,0,P|356:257|363:295,1,67.1999979492188,8|0,0:2|0:0,0:0:0:0:
208,215,93148,2,0,P|229:260|216:297,2,67.1999979492188,0|0|0,0:0|0:0|0:0,0:0:0:0:
33,99,93492,6,0,P|0:60|3:21,1,67.1999979492188,0|0,3:0|0:0,0:0:0:0:
133,138,93665,2,0,P|124:88|146:56,1,67.1999979492188,8|0,0:2|0:0,0:0:0:0:
208,215,93837,1,0,0:0:0:0:
0,45,94010,6,0,L|183:87,1,134.399995898438,0|0,3:0|0:0,0:0:0:0:
137,69,94268,1,0,0:0:0:0:
141,60,94354,2,0,B|175:62|175:62|212:15,1,67.1999979492188,8|0,0:2|0:0,0:0:0:0:
302,39,94527,2,0,B|279:68|279:68|303:175,1,134.399995898438,0|0,0:0|0:0,0:0:0:0:
131,374,94872,6,0,L|218:342,1,67.1999979492188,0|0,3:0|0:0,0:0:0:0:
127,282,95044,1,8,0:2:0:0:
136,280,95130,1,0,0:0:0:0:
141,272,95217,1,0,0:0:0:0:
380,251,95389,6,0,L|408:65,1,134.399995898438,0|0,3:0|0:0,0:0:0:0:
408,120,95648,1,0,0:0:0:0:
416,122,95734,1,8,0:2:0:0:
426,33,95906,2,0,B|360:21|360:21|322:77,1,134.399995898438,0|0,0:0|0:0,0:0:0:0:
13,191,96251,6,0,B|33:216|33:216|67:212,1,67.1999979492188,0|0,3:0|0:0,0:0:0:0:
70,128,96423,1,8,0:2:0:0:
69,121,96510,1,0,0:0:0:0:
68,114,96596,1,0,0:0:0:0:
277,308,96768,6,0,B|290:267|290:267|418:243,1,134.399995898438,0|0,3:0|0:0,0:0:0:0:
378,256,97027,1,0,0:0:0:0:
376,262,97113,2,0,L|455:286,1,67.1999979492188,8|0,0:2|0:0,0:0:0:0:
398,359,97285,2,0,L|269:319,1,134.399995898438,0|0,0:0|0:0,0:0:0:0:
232,83,97630,6,0,L|270:-16,1,67.1999979492188,0|0,3:0|0:0,0:0:0:0:
167,7,97803,1,8,0:2:0:0:
163,12,97889,1,0,0:0:0:0:
165,18,97975,1,0,0:0:0:0:
17,161,98148,6,0,L|158:114,1,134.399995898438,0|0,3:0|0:0,0:0:0:0:
143,125,98406,1,0,0:0:0:0:
142,131,98492,2,0,B|131:144|131:144|156:228,1,67.1999979492188,8|0,0:2|0:0,0:0:0:0:
74,247,98665,2,0,B|79:263|79:263|165:283,2,67.1999979492188,0|0|0,0:0|0:0|0:0,0:0:0:0:
304,36,99010,6,0,B|337:45|337:45|350:78,1,67.1999979492188,0|0,3:0|0:0,0:0:0:0:
210,56,99182,2,0,B|234:80|234:80|228:115,1,67.1999979492188,8|0,0:2|0:0,0:0:0:0:
118,26,99354,1,0,3:0:0:0:
423,159,99527,6,0,P|435:85|455:-11,1,134.399995898438,4|0,3:1|0:0,0:0:0:0:
440,29,99785,1,0,0:0:0:0:
436,34,99872,2,0,P|465:73|459:109,1,67.1999979492188,8|0,0:2|0:0,0:0:0:0:
467,236,100044,2,0,P|408:204|342:196,1,134.399995898438,0|0,0:0|0:0,0:0:0:0:
65,116,100389,6,0,P|43:143|-18:171,1,67.1999979492188,0|0,3:0|0:0,0:0:0:0:
0,243,100561,1,8,0:2:0:0:
5,247,100648,1,0,0:0:0:0:
6,253,100734,1,0,0:0:0:0:
301,384,100906,6,0,P|288:318|267:254,1,134.399995898438,0|0,3:0|0:0,0:0:0:0:
274,253,101165,1,0,0:0:0:0:
278,258,101251,2,0,P|245:289|259:328,1,67.1999979492188,8|0,0:2|0:0,0:0:0:0:
373,268,101423,2,0,P|280:291|237:312,1,134.399995898438,0|0,0:0|0:0,0:0:0:0:
123,162,101768,6,0,P|145:171|126:171,1,67.1999979492188,0|0,3:0|0:0,0:0:0:0:
181,244,101941,1,8,0:2:0:0:
183,250,102027,1,0,0:0:0:0:
183,256,102113,1,0,0:0:0:0:
57,35,102285,6,0,B|88:3|152:5|210:75,1,134.399995898438,0|0,3:0|0:0,0:0:0:0:
178,50,102544,1,0,0:0:0:0:
182,54,102630,2,0,P|192:46|160:28,1,67.1999979492188,8|0,0:2|0:0,0:0:0:0:
126,171,102803,2,0,B|178:120|117:103|193:44,1,134.399995898438,0|0,0:0|0:0,0:0:0:0:
460,188,103148,6,0,P|432:172|365:147,1,67.1999979492188,0|0,3:0|0:0,0:0:0:0:
467,96,103320,1,8,0:2:0:0:
471,101,103406,1,0,0:0:0:0:
475,95,103492,1,0,0:0:0:0:
352,245,103665,6,0,P|369:351|373:386,1,134.399995898438,0|0,3:0|0:0,0:0:0:0:
378,375,103923,1,0,0:0:0:0:
379,368,104010,2,0,P|346:360|339:275,1,67.1999979492188,8|0,0:2|0:0,0:0:0:0:
352,245,104182,2,0,P|318:245|289:165,2,67.1999979492188,0|0|0,0:0|0:0|0:0,0:0:0:0:
15,354,104527,6,0,P|41:326|81:296,1,67.1999979492188,0|0,3:0|0:0,0:0:0:0:
55,220,104699,2,0,P|69:200|61:222,1,67.1999979492188,8|0,0:2|0:0,0:0:0:0:
151,240,104872,1,0,0:0:0:0:
350,159,105044,6,0,P|392:24|399:8,1,134.399995898438,0|0,3:0|0:0,0:0:0:0:
385,25,105303,1,0,0:0:0:0:
378,26,105389,2,0,P|359:40|377:36,1,67.1999979492188,8|0,0:2|0:0,0:0:0:0:
225,138,105561,2,0,P|222:80|290:103,1,134.399995898438,0|0,0:0|0:0,0:0:0:0:
496,376,105906,6,0,L|441:319,1,67.1999979492188,0|0,3:0|0:0,0:0:0:0:
376,367,106079,1,8,0:2:0:0:
370,362,106165,1,0,0:0:0:0:
371,355,106251,1,0,0:0:0:0:
151,240,106423,6,0,B|64:263|120:290|35:311,1,134.399995898438,0|0,3:0|0:0,0:0:0:0:
40,316,106682,1,0,0:0:0:0:
42,322,106768,2,0,P|70:323|95:289,1,67.1999979492188,8|0,0:2|0:0,0:0:0:0:
20,231,106941,2,0,P|12:126|-6:40,1,134.399995898438,0|0,0:0|0:0,0:0:0:0:
287,23,107285,6,0,B|325:33|325:33|331:67,1,67.1999979492188,0|0,3:0|0:0,0:0:0:0:
191,82,107458,2,0,P|226:89|273:129,1,67.1999979492188,8|0,0:2|0:0,0:0:0:0:
108,159,107630,2,0,P|125:141|117:161,1,67.1999979492188,0|0,0:0|0:0,0:0:0:0:
14,129,107803,6,0,L|12:114,8,14.3999995605469,0|0|0|0|0|0|0|0|0,0:0|0:0|0:0|0:0|0:0|0:0|0:0|0:0|0:0,0:0:0:0:
256,192,109354,12,0,110389,0:0:0:0:
6,8,110561,6,0,B|67:-14|131:39|80:102|182:129,2,230.4,4|0|0,0:0|0:0|0:0,0:0:0:0:
0,186,111941,2,0,P|35:170|72:162,1,76.8
265,14,112285,2,0,B|290:87|194:134|201:99|134:140|128:246|175:273,1,307.2
71,250,113148,1,0,0:0:0:0:
243,232,113320,6,0,B|333:204|275:167|370:141,1,153.6
190,165,113837,2,0,B|259:101|191:93|266:28,1,153.6
362,143,114354,2,0,B|176:147|197:-72|318:-53|299:24|237:47,1,307.2
406,287,115906,5,0,0:0:0:0:
369,372,116079,2,0,P|372:263|358:117,2,230.4,0|0|0,0:0|0:0|0:0,0:0:0:0:
285,151,117803,5,0,0:0:0:0:
210,131,117975,1,0,0:0:0:0:
154,184,118148,1,0,0:0:0:0:
150,193,118320,2,0,P|218:158|299:156,1,153.6,0|0,0:0|0:0,0:0:0:0:
501,31,118837,6,0,B|203:51|3:162|3:162|57:237|88:377|88:377|50:209|75:57,1,1075.2
509,161,121596,6,0,P|361:92|194:31,1,307.2
227,42,122458,1,0,0:0:0:0:
129,29,122630,2,0,P|142:64|159:125,1,76.8,0|0,0:0|0:0,0:0:0:0:
32,157,122975,5,0,0:0:0:0:
47,270,123148,2,0,P|88:228|87:197,1,76.8,0|0,0:0|0:0,0:0:0:0:
173,261,123492,2,0,P|244:234|349:235,2,153.6,0|0|0,0:0|0:0|0:0,0:0:0:0:
336,360,124354,6,0,P|369:211|398:131,1,230.4,0|0,0:0|0:0,0:0:0:0:
454,272,125044,2,0,P|444:308|444:347,1,76.8
267,217,125389,2,0,P|252:270|233:298,1,76.8
132,339,125820,6,0,P|68:329|28:290,2,115.2
210,300,126682,2,0,B|248:279|276:219|214:119|159:206|261:244,1,192
473,350,128837,6,0,B|495:317|476:313|499:275,1,76.8,0|0,0:0|0:0,0:0:0:0:
416,243,129182,2,0,B|428:205|409:206|421:163,1,76.8,0|0,0:0|0:0,0:0:0:0:
333,154,129527,1,0,0:0:0:0:
333,154,129699,1,0,0:0:0:0:
256,197,129872,6,0,B|373:147|267:34|428:-9,2,268.8
256,192,131165,12,0,132630,0:0:0:0:
