osu file format v14

[General]
AudioFilename: audio.mp3
AudioLeadIn: 0
PreviewTime: 176798
Countdown: 0
SampleSet: Soft
StackLeniency: 0.7
Mode: 3
LetterboxInBreaks: 0
SpecialStyle: 0
WidescreenStoryboard: 0

[Editor]
DistanceSpacing: 1.3
BeatDivisor: 4
GridSize: 4
TimelineZoom: 1.6

[Metadata]
Title:Cold Green Eyes feat. Roos Denayer
TitleUnicode:Cold Green Eyes feat. Roos Denayer
Artist:Station Earth
ArtistUnicode:Station Earth
Creator:FAMoss
Version:Released
Source:osu!
Tags:Faputa blue marble featured artist fa mappers' guild mg electronic instrumental drum and bass dnb english vocal liquid liquicity Galaxy of Dreams 2 jack marathon Kristina Manchenko awooooo
BeatmapID:2304078
BeatmapSetID:1102973

[Difficulty]
HPDrainRate:8
CircleSize:4
OverallDifficulty:8
ApproachRate:5
SliderMultiplier:1.4
SliderTickRate:1

[Events]
//Background and Video events
0,0,"BG.jpg",0,0
//Break Periods
//Storyboard Layer 0 (Background)
//Storyboard Layer 1 (Fail)
//Storyboard Layer 2 (Pass)
//Storyboard Layer 3 (Foreground)
//Storyboard Layer 4 (Overlay)
//Storyboard Sound Samples
Sample,41669,0,"LR_RevCyLGLH.wav",80
Sample,41669,0,"LR_RBell_G4.wav",80
Sample,44427,0,"push_scratch.wav",70
Sample,63738,0,"LR_RevCyLGLH.wav",70
Sample,66496,0,"push_scratch.wav",70
Sample,88565,0,"push_scratch.wav",70
Sample,107876,0,"LR_RevCyLGLH.wav",70
Sample,152014,0,"LR_RBell_G4.wav",80
Sample,152014,0,"LR_RevCyLGLH.wav",70
Sample,154772,0,"push_scratch.wav",70
Sample,174083,0,"LR_RevCyLGLH.wav",70
Sample,176841,0,"push_scratch.wav",70
Sample,198910,0,"push_scratch.wav",70
Sample,218221,0,"LR_RevCyLGLH.wav",70

[TimingPoints]
290,344.827586206897,4,2,1,50,1,0
22358,-100,4,2,1,60,0,0
44427,-100,4,2,1,70,0,1
55462,-100,4,2,1,70,0,0
66496,-100,4,2,1,70,0,1
77531,-100,4,2,1,70,0,0
88565,-100,4,2,1,70,0,1
99600,-100,4,2,1,50,0,0
132703,-100,4,2,1,60,0,0
154772,-100,4,2,1,70,0,1
165807,-100,4,2,1,70,0,0
176841,-100,4,2,1,70,0,1
187876,-100,4,2,1,70,0,0
198910,-100,4,2,1,70,0,1
209945,-100,4,2,1,50,0,0
220979,-100,4,2,1,60,0,0

[HitObjects]
192,192,290,5,0,0:0:0:50:hihat02.wav
448,192,290,128,0,3048:0:0:0:0:
192,192,1669,1,0,0:0:0:50:hihat02.wav
192,192,3048,128,0,5807:0:0:0:50:hihat02.wav
320,192,3048,1,0,0:0:0:0:
320,192,4427,1,0,0:0:0:50:hihat02.wav
64,192,5807,1,0,0:0:0:50:hihat02.wav
320,192,5807,128,0,8565:0:0:0:0:
192,192,6496,1,0,0:0:0:0:
64,192,7186,1,0,0:0:0:50:hihat02.wav
192,192,7876,1,0,0:0:0:0:
64,192,8565,128,0,11324:0:0:0:50:hihat02.wav
448,192,8565,1,0,0:0:0:0:
320,192,8910,1,0,0:0:0:0:
192,192,9255,1,0,0:0:0:0:
320,192,9600,1,0,0:0:0:0:
448,192,9945,1,0,0:0:0:50:hihat02.wav
320,192,10290,1,0,0:0:0:0:
192,192,10634,1,0,0:0:0:0:
320,192,10979,1,0,0:0:0:0:
192,192,11324,1,0,0:0:0:50:hihat02.wav
448,192,11324,128,0,14083:0:0:0:0:
320,192,11496,1,0,0:0:0:0:
64,192,11669,1,0,0:0:0:0:
192,192,11841,1,0,0:0:0:0:
320,192,12014,1,0,0:0:0:0:
64,192,12186,1,0,0:0:0:0:
192,192,12358,1,0,0:0:0:0:
320,192,12531,1,0,0:0:0:0:
64,192,12703,1,0,0:0:0:50:hihat02.wav
320,192,12876,1,0,0:0:0:0:
64,192,13048,1,0,0:0:0:0:
320,192,13221,1,0,0:0:0:0:
192,192,13393,1,0,0:0:0:0:
64,192,13565,1,0,0:0:0:0:
320,192,13738,1,0,0:0:0:0:
64,192,13910,1,0,0:0:0:0:
192,192,14083,128,0,16841:0:0:0:50:hihat02.wav
320,192,14083,1,0,0:0:0:0:
448,192,14255,1,0,0:0:0:0:
64,192,14427,1,0,0:0:0:0:
320,192,14600,1,0,0:0:0:0:
448,192,14772,1,0,0:0:0:0:
64,192,14945,1,0,0:0:0:0:
320,192,15117,1,0,0:0:0:0:
448,192,15290,1,0,0:0:0:0:
64,192,15462,1,0,0:0:0:50:hihat02.wav
448,192,15634,1,0,0:0:0:0:
64,192,15807,1,0,0:0:0:0:
448,192,15979,1,0,0:0:0:0:
320,192,16152,1,0,0:0:0:0:
64,192,16324,1,0,0:0:0:0:
448,192,16496,1,0,0:0:0:0:
64,192,16669,1,0,0:0:0:0:
320,192,16841,128,0,19600:0:0:0:50:hihat02.wav
448,192,16841,1,0,0:0:0:0:
64,192,17014,1,0,0:0:0:0:
448,192,17186,1,0,0:0:0:0:
192,192,17358,1,0,0:0:0:0:
64,192,17531,1,0,0:0:0:0:
448,192,17703,1,0,0:0:0:0:
192,192,17876,1,0,0:0:0:0:
64,192,18048,1,0,0:0:0:0:
448,192,18221,1,0,0:0:0:50:hihat02.wav
64,192,18393,1,0,0:0:0:0:
448,192,18565,1,0,0:0:0:0:
192,192,18738,1,0,0:0:0:0:
64,192,18910,1,0,0:0:0:0:
448,192,19083,1,0,0:0:0:0:
64,192,19255,1,0,0:0:0:0:
192,192,19427,1,0,0:0:0:0:
64,192,19600,128,0,22358:0:0:0:50:hihat02.wav
448,192,19600,1,0,0:0:0:0:
320,192,19772,1,0,0:0:0:0:
192,192,19945,1,0,0:0:0:0:
448,192,20117,1,0,0:0:0:0:
320,192,20290,1,0,0:0:0:0:
192,192,20462,1,0,0:0:0:0:
448,192,20634,1,0,0:0:0:0:
320,192,20807,1,0,0:0:0:0:
192,192,20979,1,0,0:0:0:50:hihat02.wav
448,192,21152,1,0,0:0:0:0:
192,192,21324,1,0,0:0:0:0:
448,192,21496,1,0,0:0:0:0:
192,192,21669,1,0,0:0:0:0:
320,192,21841,1,0,0:0:0:0:
448,192,22014,1,0,0:0:0:0:
192,192,22186,1,0,0:0:0:0:
320,192,22358,1,0,0:0:0:80:LR_RBell_D5.wav
448,192,22358,1,0,0:0:0:0:
64,192,22531,1,0,0:0:0:0:
320,192,22703,1,0,0:0:0:0:
64,192,22876,1,0,0:0:0:0:
320,192,23048,1,0,0:0:0:0:
64,192,23221,1,0,0:0:0:0:
320,192,23393,1,0,0:0:0:0:
64,192,23565,1,0,0:0:0:0:
448,192,23738,1,0,0:0:0:0:
320,192,23738,1,0,0:0:0:0:
64,192,23910,1,0,0:0:0:0:
448,192,24083,1,0,0:0:0:0:
64,192,24255,1,0,0:0:0:0:
448,192,24427,1,0,0:0:0:0:
64,192,24600,1,0,0:0:0:0:
448,192,24772,1,0,0:0:0:0:
64,192,24945,1,0,0:0:0:0:
192,192,25117,1,0,0:0:0:80:LR_RBell_A4.wav
320,192,25117,1,0,0:0:0:0:
448,192,25290,1,0,0:0:0:0:
192,192,25462,1,0,0:0:0:0:
448,192,25634,1,0,0:0:0:0:
192,192,25807,1,0,0:0:0:0:
448,192,25979,1,0,0:0:0:0:
192,192,26152,1,0,0:0:0:0:
448,192,26324,1,0,0:0:0:0:
64,192,26496,1,0,0:0:0:0:
448,192,26669,1,0,0:0:0:0:
64,192,26841,1,0,0:0:0:0:
448,192,27014,1,0,0:0:0:0:
64,192,27186,1,0,0:0:0:0:
448,192,27358,1,0,0:0:0:0:
64,192,27531,1,0,0:0:0:0:
448,192,27703,1,0,0:0:0:0:
64,192,27876,1,0,0:0:0:80:LR_RBell_B4.wav
320,192,27876,1,0,0:0:0:0:
192,192,28048,1,0,0:0:0:0:
320,192,28221,1,0,0:0:0:0:
192,192,28393,1,0,0:0:0:0:
320,192,28565,1,0,0:0:0:0:
192,192,28738,1,0,0:0:0:0:
320,192,28910,1,0,0:0:0:0:
192,192,29083,1,0,0:0:0:0:
448,192,29255,1,0,0:0:0:0:
320,192,29255,1,0,0:0:0:0:
192,192,29427,1,0,0:0:0:0:
448,192,29600,1,0,0:0:0:0:
192,192,29772,1,0,0:0:0:0:
448,192,29945,1,0,0:0:0:0:
192,192,30117,1,0,0:0:0:0:
448,192,30290,1,0,0:0:0:0:
64,192,30462,1,0,0:0:0:0:
192,192,30634,1,0,0:0:0:80:LR_RBell_G4.wav
448,192,30634,1,0,0:0:0:0:
320,192,30807,1,0,0:0:0:0:
192,192,30979,1,0,0:0:0:0:
320,192,31152,1,0,0:0:0:0:
192,192,31324,1,0,0:0:0:0:
320,192,31496,1,0,0:0:0:0:
192,192,31669,1,0,0:0:0:0:
320,192,31841,1,0,0:0:0:0:
64,192,32014,1,0,0:0:0:0:
192,192,32014,1,0,0:0:0:0:
320,192,32186,1,0,0:0:0:0:
64,192,32358,1,0,0:0:0:0:
448,192,32531,1,0,0:0:0:0:
192,192,32703,1,0,0:0:0:0:
320,192,32876,1,0,0:0:0:0:
64,192,33048,1,0,0:0:0:0:
448,192,33221,1,0,0:0:0:0:
192,192,33393,1,0,0:0:0:80:LR_RBell_D5.wav
320,192,33393,1,0,0:0:0:0:
64,192,33565,1,0,0:0:0:0:
320,192,33738,1,0,0:0:0:0:
64,192,33910,1,0,0:0:0:0:
320,192,34083,1,0,0:0:0:0:
64,192,34255,1,0,0:0:0:0:
320,192,34427,1,0,0:0:0:0:
64,192,34600,1,0,0:0:0:0:
448,192,34772,1,0,0:0:0:0:
320,192,34772,1,0,0:0:0:0:
64,192,34945,1,0,0:0:0:0:
448,192,35117,1,0,0:0:0:0:
64,192,35290,1,0,0:0:0:0:
448,192,35462,1,0,0:0:0:0:
64,192,35634,1,0,0:0:0:0:
448,192,35807,1,0,0:0:0:0:
64,192,35979,1,0,0:0:0:0:
192,192,36152,1,0,0:0:0:80:LR_RBell_A4.wav
320,192,36152,1,0,0:0:0:0:
448,192,36324,1,0,0:0:0:0:
192,192,36496,1,0,0:0:0:0:
448,192,36669,1,0,0:0:0:0:
192,192,36841,1,0,0:0:0:0:
448,192,37014,1,0,0:0:0:0:
192,192,37186,1,0,0:0:0:0:
448,192,37358,1,0,0:0:0:0:
64,192,37531,1,0,0:0:0:0:
448,192,37703,1,0,0:0:0:0:
64,192,37876,1,0,0:0:0:0:
448,192,38048,1,0,0:0:0:0:
64,192,38221,1,0,0:0:0:0:
448,192,38393,1,0,0:0:0:0:
64,192,38565,1,0,0:0:0:0:
448,192,38738,1,0,0:0:0:0:
64,192,38910,1,0,0:0:0:50:Cymatics - G House Open Hi-Hat 1.wav
192,192,38910,1,0,0:0:0:70:LR_RBell_B4.wav
448,192,39083,128,0,39255:0:0:0:0:
192,192,39255,1,0,0:0:0:50:Cymatics - G House Open Hi-Hat 1.wav
448,192,39427,128,0,39600:0:0:0:0:
192,192,39600,1,0,0:0:0:50:Cymatics - G House Open Hi-Hat 1.wav
448,192,39772,128,0,39945:0:0:0:0:
192,192,39945,1,0,0:0:0:50:Cymatics - G House Open Hi-Hat 1.wav
448,192,40117,128,0,40290:0:0:0:0:
192,192,40290,1,0,0:0:0:50:Cymatics - G House Open Hi-Hat 1.wav
448,192,40462,128,0,40634:0:0:0:0:
192,192,40634,1,0,0:0:0:50:Cymatics - G House Open Hi-Hat 1.wav
320,192,40807,128,0,40979:0:0:0:0:
64,192,40979,1,0,0:0:0:50:Cymatics - G House Open Hi-Hat 1.wav
192,192,41152,128,0,41324:0:0:0:0:
448,192,41324,1,0,0:0:0:50:Cymatics - G House Open Hi-Hat 1.wav
320,192,41496,128,0,41669:0:0:0:0:
64,192,41669,128,0,42186:0:0:0:50:Cymatics - G House Open Hi-Hat 1.wav
192,192,41669,1,0,0:0:0:0:
448,192,41841,1,0,0:0:0:0:
192,192,42014,1,0,0:0:0:50:Cymatics - G House Open Hi-Hat 1.wav
448,192,42186,128,0,42703:0:0:0:0:
320,192,42358,1,0,0:0:0:50:Cymatics - G House Open Hi-Hat 1.wav
64,192,42531,1,0,0:0:0:0:
192,192,42703,128,0,43221:0:0:0:50:Cymatics - G House Open Hi-Hat 1.wav
320,192,42876,1,0,0:0:0:0:
448,192,43221,128,0,43307:0:0:0:0:
448,192,43393,128,0,43479:0:0:0:0:
192,192,43565,128,0,43652:0:0:0:0:
192,192,43738,128,0,43824:0:0:0:0:
320,192,43910,128,0,43996:0:0:0:0:
320,192,44083,128,0,44169:0:0:0:0:
320,192,44255,128,0,44341:0:0:0:0:
64,192,44427,1,4,0:0:0:0:
192,192,44427,1,0,0:0:0:80:LR_RBell_D5.wav
448,192,44427,1,2,0:0:0:0:
192,192,44600,1,0,0:0:0:0:
64,192,44772,1,8,0:0:0:0:
320,192,44772,1,0,0:0:0:0:
448,192,44772,1,0,0:0:0:0:
320,192,44945,1,0,0:0:0:0:
192,192,45117,1,0,0:0:0:0:
64,192,45290,1,2,0:0:0:0:
192,192,45290,1,0,0:0:0:0:
64,192,45462,1,8,0:0:0:0:
320,192,45462,1,0,0:0:0:0:
448,192,45462,1,0,0:0:0:0:
320,192,45634,1,0,0:0:0:0:
64,192,45807,1,2,0:0:0:0:
192,192,45807,1,0,0:0:0:70:LR_RBell_G4.wav
192,192,45979,1,0,0:0:0:0:
64,192,46152,1,8,0:0:0:0:
192,192,46152,1,0,0:0:0:0:
448,192,46152,1,0,0:0:0:0:
192,192,46324,1,0,0:0:0:0:
192,192,46496,1,0,0:0:0:0:
64,192,46669,1,2,0:0:0:0:
192,192,46669,1,0,0:0:0:0:
64,192,46841,1,8,0:0:0:0:
192,192,46841,1,0,0:0:0:0:
448,192,46841,1,0,0:0:0:0:
192,192,47014,1,0,0:0:0:0:
320,192,47186,1,2,0:0:0:0:
448,192,47186,1,0,0:0:0:70:LR_RBell_A4.wav
320,192,47358,1,0,0:0:0:0:
64,192,47531,1,8,0:0:0:0:
320,192,47531,1,0,0:0:0:0:
448,192,47531,1,0,0:0:0:0:
320,192,47703,1,0,0:0:0:0:
320,192,47876,1,0,0:0:0:0:
320,192,48048,1,2,0:0:0:0:
448,192,48048,1,0,0:0:0:0:
64,192,48221,1,8,0:0:0:0:
320,192,48221,1,0,0:0:0:0:
448,192,48221,1,0,0:0:0:0:
320,192,48393,1,0,0:0:0:0:
64,192,48565,1,2,0:0:0:0:
192,192,48565,1,0,0:0:0:0:
320,192,48738,128,0,48824:0:0:0:0:
64,192,48910,1,8,0:0:0:0:
320,192,48910,128,0,48996:0:0:0:0:
448,192,48910,1,0,0:0:0:0:
192,192,49083,128,0,49169:0:0:0:0:
192,192,49255,128,0,49341:0:0:0:0:
448,192,49427,1,0,0:0:0:0:
320,192,49427,1,2,0:0:0:0:
64,192,49600,1,8,0:0:0:0:
192,192,49600,1,0,0:0:0:0:
448,192,49600,1,0,0:0:0:0:
192,192,49772,1,0,0:0:0:0:
64,192,49945,1,2,0:0:0:0:
320,192,49945,1,0,0:0:0:80:LR_RBell_D5.wav
448,192,49945,1,0,0:0:0:0:
320,192,50117,1,0,0:0:0:0:
64,192,50290,1,8,0:0:0:0:
192,192,50290,1,0,0:0:0:0:
448,192,50290,1,0,0:0:0:0:
192,192,50462,1,0,0:0:0:0:
320,192,50634,1,0,0:0:0:0:
320,192,50807,1,2,0:0:0:0:
448,192,50807,1,0,0:0:0:0:
64,192,50979,1,8,0:0:0:0:
192,192,50979,1,0,0:0:0:0:
448,192,50979,1,0,0:0:0:0:
192,192,51152,1,0,0:0:0:0:
320,192,51324,1,2,0:0:0:0:
448,192,51324,1,0,0:0:0:70:LR_RBell_B4.wav
448,192,51496,1,0,0:0:0:0:
64,192,51669,1,8,0:0:0:0:
192,192,51669,1,0,0:0:0:0:
448,192,51669,1,0,0:0:0:0:
448,192,51841,1,0,0:0:0:0:
448,192,52014,1,0,0:0:0:0:
320,192,52186,1,2,0:0:0:0:
448,192,52186,1,0,0:0:0:0:
64,192,52358,1,8,0:0:0:0:
192,192,52358,1,0,0:0:0:0:
448,192,52358,1,0,0:0:0:0:
448,192,52531,1,0,0:0:0:0:
64,192,52703,1,2,0:0:0:0:
192,192,52703,1,0,0:0:0:70:LR_RBell_A4.wav
64,192,52876,1,0,0:0:0:0:
64,192,53048,1,8,0:0:0:0:
320,192,53048,1,0,0:0:0:0:
448,192,53048,1,0,0:0:0:0:
64,192,53221,1,0,0:0:0:0:
64,192,53393,1,0,0:0:0:0:
64,192,53565,1,2,0:0:0:0:
192,192,53565,1,0,0:0:0:0:
64,192,53738,1,8,0:0:0:0:
320,192,53738,1,0,0:0:0:0:
448,192,53738,1,0,0:0:0:0:
64,192,53910,1,0,0:0:0:0:
320,192,54083,1,2,0:0:0:0:
448,192,54083,1,0,0:0:0:0:
192,192,54255,128,0,54341:0:0:0:0:
64,192,54427,1,8,0:0:0:0:
192,192,54427,128,0,54514:0:0:0:0:
448,192,54427,1,0,0:0:0:0:
320,192,54600,128,0,54686:0:0:0:0:
320,192,54772,128,0,54858:0:0:0:0:
64,192,54945,1,2,0:0:0:0:
192,192,54945,1,0,0:0:0:0:
64,192,55117,1,8,0:0:0:0:
192,192,55117,1,0,0:0:0:0:
448,192,55117,1,0,0:0:0:0:
192,192,55290,1,2,0:0:0:0:
320,192,55290,1,0,0:0:0:0:
64,192,55462,1,2,0:0:0:0:
320,192,55462,1,0,0:0:0:80:LR_RBell_D5.wav
448,192,55462,1,0,0:0:0:0:
320,192,55634,1,0,0:0:0:0:
64,192,55807,1,8,0:0:0:0:
192,192,55807,1,0,0:0:0:0:
448,192,55807,1,0,0:0:0:0:
64,192,55979,1,0,0:0:0:0:
320,192,56152,1,0,0:0:0:0:
320,192,56324,1,2,0:0:0:0:
448,192,56324,1,0,0:0:0:0:
64,192,56496,1,8,0:0:0:0:
192,192,56496,1,0,0:0:0:0:
448,192,56496,1,0,0:0:0:0:
192,192,56669,1,0,0:0:0:0:
320,192,56841,1,2,0:0:0:0:
448,192,56841,1,0,0:0:0:70:LR_RBell_G4.wav
320,192,57014,1,0,0:0:0:0:
64,192,57186,1,8,0:0:0:0:
320,192,57186,1,0,0:0:0:0:
448,192,57186,1,0,0:0:0:0:
320,192,57358,1,0,0:0:0:0:
320,192,57531,1,0,0:0:0:0:
320,192,57703,1,2,0:0:0:0:
448,192,57703,1,0,0:0:0:0:
64,192,57876,1,8,0:0:0:0:
320,192,57876,1,0,0:0:0:0:
448,192,57876,1,0,0:0:0:0:
320,192,58048,1,0,0:0:0:0:
64,192,58221,1,2,0:0:0:0:
192,192,58221,1,0,0:0:0:70:LR_RBell_A4.wav
192,192,58393,1,0,0:0:0:0:
64,192,58565,1,8,0:0:0:0:
192,192,58565,1,0,0:0:0:0:
448,192,58565,1,0,0:0:0:0:
192,192,58738,1,0,0:0:0:0:
192,192,58910,1,0,0:0:0:0:
64,192,59083,1,2,0:0:0:0:
192,192,59083,1,0,0:0:0:0:
64,192,59255,1,8,0:0:0:0:
192,192,59255,1,0,0:0:0:0:
448,192,59255,1,0,0:0:0:0:
192,192,59427,1,0,0:0:0:0:
320,192,59600,1,2,0:0:0:0:
448,192,59600,1,0,0:0:0:0:
192,192,59772,128,0,59858:0:0:0:0:
64,192,59945,1,8,0:0:0:0:
192,192,59945,128,0,60031:0:0:0:0:
448,192,59945,1,0,0:0:0:0:
320,192,60117,128,0,60203:0:0:0:0:
320,192,60290,128,0,60376:0:0:0:0:
64,192,60462,1,2,0:0:0:0:
192,192,60462,1,0,0:0:0:0:
64,192,60634,1,8,0:0:0:0:
320,192,60634,1,0,0:0:0:0:
448,192,60634,1,0,0:0:0:0:
320,192,60807,1,0,0:0:0:0:
64,192,60979,1,2,0:0:0:0:
192,192,60979,1,0,0:0:0:80:LR_RBell_D5.wav
448,192,60979,1,0,0:0:0:0:
192,192,61152,1,0,0:0:0:0:
64,192,61324,1,8,0:0:0:0:
320,192,61324,1,0,0:0:0:0:
448,192,61324,1,0,0:0:0:0:
448,192,61496,1,0,0:0:0:0:
192,192,61669,1,0,0:0:0:0:
64,192,61841,1,2,0:0:0:0:
192,192,61841,1,0,0:0:0:0:
64,192,62014,1,8,0:0:0:0:
320,192,62014,1,0,0:0:0:0:
448,192,62014,1,0,0:0:0:0:
320,192,62186,1,0,0:0:0:0:
64,192,62358,1,2,0:0:0:0:
192,192,62358,1,0,0:0:0:70:LR_RBell_B4.wav
64,192,62531,1,0,0:0:0:0:
64,192,62703,1,8,0:0:0:0:
320,192,62703,1,0,0:0:0:0:
448,192,62703,1,0,0:0:0:0:
64,192,62876,1,0,0:0:0:0:
64,192,63048,1,0,0:0:0:0:
64,192,63221,1,2,0:0:0:0:
192,192,63221,1,0,0:0:0:0:
64,192,63393,1,8,0:0:0:0:
320,192,63393,1,0,0:0:0:0:
448,192,63393,1,0,0:0:0:0:
64,192,63565,1,0,0:0:0:0:
320,192,63738,1,2,0:0:0:0:
448,192,63738,1,0,0:0:0:70:LR_RBell_A4.wav
448,192,63910,1,0,0:0:0:0:
64,192,64083,1,8,0:0:0:0:
192,192,64083,1,0,0:0:0:0:
448,192,64083,1,0,0:0:0:0:
448,192,64255,1,0,0:0:0:0:
448,192,64427,1,0,0:0:0:0:
320,192,64600,1,2,0:0:0:0:
448,192,64600,1,0,0:0:0:0:
64,192,64772,1,8,0:0:0:0:
192,192,64772,1,0,0:0:0:0:
448,192,64772,1,0,0:0:0:0:
448,192,64945,1,0,0:0:0:0:
64,192,65117,1,2,0:0:0:0:
192,192,65117,1,0,0:0:0:0:
320,192,65290,128,0,65376:0:0:0:0:
64,192,65462,1,8,0:0:0:0:
320,192,65462,128,0,65548:0:0:0:0:
448,192,65462,1,0,0:0:0:0:
192,192,65634,128,0,65721:0:0:0:0:
192,192,65807,128,0,65893:0:0:0:0:
320,192,65979,1,2,0:0:0:0:
448,192,65979,1,0,0:0:0:0:
64,192,66152,1,8,0:0:0:0:
320,192,66152,1,0,0:0:0:0:
448,192,66152,1,0,0:0:0:0:
192,192,66324,1,2,0:0:0:0:
320,192,66324,1,0,0:0:0:0:
64,192,66496,1,2,0:0:0:0:
192,192,66496,1,0,0:0:0:80:LR_RBell_D5.wav
448,192,66496,128,4,66755:0:0:0:0:
192,192,66669,1,0,0:0:0:0:
64,192,66841,1,8,0:0:0:0:
320,192,66841,1,0,0:0:0:0:
448,192,66841,1,0,0:0:0:0:
320,192,67014,1,0,0:0:0:0:
192,192,67186,1,0,0:0:0:0:
64,192,67358,1,2,0:0:0:0:
192,192,67358,1,0,0:0:0:0:
64,192,67531,1,8,0:0:0:0:
320,192,67531,1,0,0:0:0:0:
448,192,67531,1,0,0:0:0:0:
320,192,67703,1,0,0:0:0:0:
64,192,67876,1,2,0:0:0:0:
192,192,67876,1,0,0:0:0:0:
320,192,68048,1,0,0:0:0:0:
64,192,68221,1,8,0:0:0:0:
192,192,68221,1,0,0:0:0:0:
448,192,68221,1,0,0:0:0:0:
192,192,68393,1,0,0:0:0:0:
320,192,68565,1,0,0:0:0:0:
320,192,68738,1,2,0:0:0:0:
448,192,68738,1,0,0:0:0:0:
64,192,68910,1,8,0:0:0:0:
320,192,68910,1,0,0:0:0:0:
448,192,68910,1,0,0:0:0:0:
320,192,69083,1,0,0:0:0:0:
64,192,69255,128,2,69514:0:0:0:0:
192,192,69255,1,0,0:0:0:80:LR_RBell_A4.wav
320,192,69427,1,0,0:0:0:0:
64,192,69600,1,8,0:0:0:0:
192,192,69600,1,0,0:0:0:0:
448,192,69600,1,0,0:0:0:0:
192,192,69772,1,0,0:0:0:0:
320,192,69945,1,0,0:0:0:0:
320,192,70117,1,2,0:0:0:0:
448,192,70117,1,0,0:0:0:0:
64,192,70290,1,8,0:0:0:0:
192,192,70290,1,0,0:0:0:0:
448,192,70290,1,0,0:0:0:0:
192,192,70462,1,0,0:0:0:0:
320,192,70634,1,2,0:0:0:0:
448,192,70634,1,0,0:0:0:0:
192,192,70807,1,0,0:0:0:0:
64,192,70979,1,8,0:0:0:0:
320,192,70979,1,0,0:0:0:0:
448,192,70979,1,0,0:0:0:0:
320,192,71152,1,0,0:0:0:0:
192,192,71324,1,0,0:0:0:0:
64,192,71496,1,2,0:0:0:0:
192,192,71496,1,0,0:0:0:0:
64,192,71669,1,8,0:0:0:0:
192,192,71669,1,0,0:0:0:0:
448,192,71669,1,0,0:0:0:0:
192,192,71841,1,0,0:0:0:0:
320,192,72014,128,2,72272:0:0:0:0:
448,192,72014,1,0,0:0:0:80:LR_RBell_B4.wav
192,192,72186,1,0,0:0:0:0:
64,192,72358,1,8,0:0:0:0:
320,192,72358,1,0,0:0:0:0:
448,192,72358,1,0,0:0:0:0:
320,192,72531,1,0,0:0:0:0:
192,192,72703,1,0,0:0:0:0:
64,192,72876,1,2,0:0:0:0:
192,192,72876,1,0,0:0:0:0:
64,192,73048,1,8,0:0:0:0:
320,192,73048,1,0,0:0:0:0:
448,192,73048,1,0,0:0:0:0:
320,192,73221,1,0,0:0:0:0:
192,192,73393,1,2,0:0:0:0:
64,192,73393,1,0,0:0:0:0:
320,192,73565,1,0,0:0:0:0:
448,192,73738,1,8,0:0:0:0:
192,192,73738,1,0,0:0:0:0:
64,192,73738,1,0,0:0:0:0:
192,192,73910,1,0,0:0:0:0:
320,192,74083,1,0,0:0:0:0:
320,192,74255,1,0,0:0:0:0:
448,192,74255,1,2,0:0:0:0:
192,192,74427,1,0,0:0:0:0:
64,192,74427,1,0,0:0:0:0:
448,192,74427,1,8,0:0:0:0:
320,192,74600,1,0,0:0:0:0:
64,192,74772,1,2,0:0:0:0:
192,192,74772,1,0,0:0:0:70:LR_RBell_G4.wav
192,192,74945,1,0,0:0:0:0:
64,192,75117,1,8,0:0:0:0:
320,192,75117,1,0,0:0:0:0:
448,192,75117,1,0,0:0:0:0:
192,192,75290,1,0,0:0:0:0:
192,192,75462,1,0,0:0:0:0:
64,192,75634,1,2,0:0:0:0:
192,192,75634,1,0,0:0:0:0:
64,192,75807,1,8,0:0:0:0:
192,192,75807,1,0,0:0:0:0:
448,192,75807,1,0,0:0:0:0:
192,192,75979,1,0,0:0:0:0:
64,192,76152,1,2,0:0:0:0:
448,192,76152,1,0,0:0:0:0:
320,192,76324,1,0,0:0:0:0:
64,192,76496,1,8,0:0:0:0:
320,192,76496,1,0,0:0:0:0:
448,192,76496,1,0,0:0:0:0:
192,192,76669,1,0,0:0:0:0:
192,192,76841,1,0,0:0:0:0:
320,192,77014,1,2,0:0:0:0:
448,192,77014,1,0,0:0:0:0:
64,192,77186,1,8,0:0:0:0:
320,192,77186,1,0,0:0:0:0:
448,192,77186,1,0,0:0:0:0:
64,192,77358,1,2,0:0:0:0:
192,192,77358,1,0,0:0:0:0:
64,192,77531,128,2,77790:0:0:0:0:
192,192,77531,1,0,0:0:0:80:LR_RBell_D5.wav
448,192,77531,1,0,0:0:0:0:
320,192,77703,1,0,0:0:0:0:
64,192,77876,1,8,0:0:0:0:
192,192,77876,1,0,0:0:0:0:
448,192,77876,1,0,0:0:0:0:
192,192,78048,1,0,0:0:0:0:
320,192,78221,1,0,0:0:0:0:
320,192,78393,1,2,0:0:0:0:
448,192,78393,1,0,0:0:0:0:
64,192,78565,1,8,0:0:0:0:
192,192,78565,1,0,0:0:0:0:
448,192,78565,1,0,0:0:0:0:
192,192,78738,1,0,0:0:0:0:
64,192,78910,1,2,0:0:0:0:
448,192,78910,1,0,0:0:0:0:
320,192,79083,1,0,0:0:0:0:
64,192,79255,1,8,0:0:0:0:
192,192,79255,1,0,0:0:0:0:
448,192,79255,1,0,0:0:0:0:
320,192,79427,1,0,0:0:0:0:
320,192,79600,1,0,0:0:0:0:
320,192,79772,1,2,0:0:0:0:
448,192,79772,1,0,0:0:0:0:
64,192,79945,1,8,0:0:0:0:
320,192,79945,1,0,0:0:0:0:
448,192,79945,1,0,0:0:0:0:
192,192,80117,1,0,0:0:0:0:
64,192,80290,1,2,0:0:0:0:
448,192,80290,128,0,80548:0:0:0:80:LR_RBell_A4.wav
192,192,80462,1,0,0:0:0:0:
64,192,80634,1,8,0:0:0:0:
320,192,80634,1,0,0:0:0:0:
448,192,80634,1,0,0:0:0:0:
448,192,80807,1,0,0:0:0:0:
192,192,80979,1,0,0:0:0:0:
64,192,81152,1,2,0:0:0:0:
192,192,81152,1,0,0:0:0:0:
64,192,81324,1,8,0:0:0:0:
320,192,81324,1,0,0:0:0:0:
448,192,81324,1,0,0:0:0:0:
320,192,81496,1,0,0:0:0:0:
64,192,81669,1,2,0:0:0:0:
448,192,81669,1,0,0:0:0:0:
192,192,81841,1,0,0:0:0:0:
64,192,82014,1,8,0:0:0:0:
320,192,82014,1,0,0:0:0:0:
448,192,82014,1,0,0:0:0:0:
192,192,82186,1,0,0:0:0:0:
192,192,82358,1,0,0:0:0:0:
64,192,82531,1,2,0:0:0:0:
192,192,82531,1,0,0:0:0:0:
64,192,82703,1,8,0:0:0:0:
192,192,82703,1,0,0:0:0:0:
448,192,82703,1,0,0:0:0:0:
320,192,82876,1,0,0:0:0:0:
192,192,83048,1,2,0:0:0:0:
64,192,83048,128,0,83307:0:0:0:70:LR_RBell_B4.wav
320,192,83221,1,0,0:0:0:0:
64,192,83393,1,8,0:0:0:0:
192,192,83393,1,0,0:0:0:0:
448,192,83393,1,0,0:0:0:0:
192,192,83565,1,0,0:0:0:0:
192,192,83738,1,0,0:0:0:0:
64,192,83910,1,2,0:0:0:0:
192,192,83910,1,0,0:0:0:0:
64,192,84083,1,8,0:0:0:0:
192,192,84083,1,0,0:0:0:0:
448,192,84083,1,0,0:0:0:0:
192,192,84255,1,0,0:0:0:0:
64,192,84427,1,2,0:0:0:0:
448,192,84427,1,0,0:0:0:0:
320,192,84600,1,0,0:0:0:0:
64,192,84772,1,8,0:0:0:0:
192,192,84772,1,0,0:0:0:0:
448,192,84772,1,0,0:0:0:0:
320,192,84945,1,0,0:0:0:0:
320,192,85117,1,0,0:0:0:0:
320,192,85290,1,2,0:0:0:0:
448,192,85290,1,0,0:0:0:0:
64,192,85462,1,8,0:0:0:0:
320,192,85462,1,0,0:0:0:0:
448,192,85462,1,0,0:0:0:0:
192,192,85634,1,0,0:0:0:0:
448,192,85807,128,2,86065:0:0:0:0:
320,192,85807,1,0,0:0:0:70:LR_RBell_G4.wav
192,192,85979,1,0,0:0:0:0:
64,192,86152,1,8,0:0:0:0:
320,192,86152,1,0,0:0:0:0:
448,192,86152,1,0,0:0:0:0:
320,192,86324,1,0,0:0:0:0:
320,192,86496,1,0,0:0:0:0:
320,192,86669,1,2,0:0:0:0:
448,192,86669,1,0,0:0:0:0:
64,192,86841,1,8,0:0:0:0:
320,192,86841,1,0,0:0:0:0:
448,192,86841,1,0,0:0:0:0:
320,192,87014,1,0,0:0:0:0:
64,192,87186,1,2,0:0:0:0:
448,192,87186,1,0,0:0:0:0:
192,192,87358,128,0,87445:0:0:0:0:
64,192,87531,1,8,0:0:0:0:
192,192,87531,128,0,87617:0:0:0:0:
448,192,87531,1,0,0:0:0:0:
320,192,87703,128,0,87790:0:0:0:0:
320,192,87876,128,0,87962:0:0:0:0:
64,192,88048,1,2,0:0:0:0:
192,192,88048,1,0,0:0:0:0:
64,192,88221,1,8,0:0:0:0:
320,192,88221,1,0,0:0:0:0:
448,192,88221,1,0,0:0:0:0:
192,192,88393,1,2,0:0:0:0:
320,192,88393,1,0,0:0:0:0:
64,192,88565,1,2,0:0:0:0:
192,192,88565,1,4,0:0:0:0:
448,192,88565,1,0,0:0:0:0:
320,192,88738,128,0,88824:0:0:0:0:
64,192,88910,1,8,0:0:0:0:
320,192,88910,1,0,0:0:0:0:
448,192,88910,1,0,0:0:0:0:
192,192,89083,128,0,89169:0:0:0:0:
192,192,89255,1,0,0:0:0:0:
448,192,89427,1,0,0:0:0:0:
320,192,89427,128,2,89514:0:0:0:0:
64,192,89600,1,8,0:0:0:0:
192,192,89600,1,0,0:0:0:0:
448,192,89600,1,0,0:0:0:0:
320,192,89772,128,0,89858:0:0:0:0:
320,192,89945,1,2,0:0:0:0:
448,192,89945,1,0,0:0:0:0:
192,192,90117,128,0,90203:0:0:0:0:
64,192,90290,1,8,0:0:0:0:
192,192,90290,1,0,0:0:0:0:
448,192,90290,1,0,0:0:0:0:
320,192,90462,128,0,90548:0:0:0:0:
320,192,90634,1,0,0:0:0:0:
64,192,90807,1,2,0:0:0:0:
192,192,90807,128,0,90893:0:0:0:0:
64,192,90979,1,8,0:0:0:0:
320,192,90979,1,0,0:0:0:0:
448,192,90979,1,0,0:0:0:0:
192,192,91152,128,0,91238:0:0:0:0:
64,192,91324,1,2,0:0:0:0:
192,192,91324,1,0,0:0:0:0:
320,192,91496,128,0,91583:0:0:0:0:
64,192,91669,1,8,0:0:0:0:
320,192,91669,1,0,0:0:0:0:
448,192,91669,1,0,0:0:0:0:
192,192,91841,128,0,91927:0:0:0:0:
192,192,92014,1,0,0:0:0:0:
320,192,92186,1,2,0:0:0:0:
448,192,92186,128,0,92272:0:0:0:0:
64,192,92358,1,8,0:0:0:0:
192,192,92358,1,0,0:0:0:0:
448,192,92358,1,0,0:0:0:0:
448,192,92531,128,0,92617:0:0:0:0:
320,192,92703,1,2,0:0:0:0:
448,192,92703,1,0,0:0:0:0:
192,192,92876,128,0,92962:0:0:0:0:
64,192,93048,1,8,0:0:0:0:
192,192,93048,1,0,0:0:0:0:
448,192,93048,1,0,0:0:0:0:
320,192,93221,128,0,93307:0:0:0:0:
320,192,93393,1,0,0:0:0:0:
192,192,93565,1,0,0:0:0:0:
64,192,93565,128,2,93652:0:0:0:0:
64,192,93738,1,8,0:0:0:0:
320,192,93738,1,0,0:0:0:0:
448,192,93738,1,0,0:0:0:0:
64,192,93910,128,0,93996:0:0:0:0:
64,192,94083,1,2,0:0:0:0:
448,192,94083,1,0,0:0:0:0:
192,192,94255,128,0,94341:0:0:0:0:
64,192,94427,1,8,0:0:0:0:
192,192,94427,1,0,0:0:0:0:
448,192,94427,1,0,0:0:0:0:
320,192,94600,128,0,94686:0:0:0:0:
320,192,94772,1,0,0:0:0:0:
64,192,94945,1,2,0:0:0:0:
192,192,94945,128,0,95031:0:0:0:0:
64,192,95117,1,8,0:0:0:0:
320,192,95117,1,0,0:0:0:0:
448,192,95117,1,0,0:0:0:0:
192,192,95290,128,0,95376:0:0:0:0:
64,192,95462,1,2,0:0:0:0:
192,192,95462,1,0,0:0:0:0:
320,192,95634,128,0,95721:0:0:0:0:
64,192,95807,1,8,0:0:0:0:
320,192,95807,1,0,0:0:0:0:
448,192,95807,1,0,0:0:0:0:
192,192,95979,128,0,96065:0:0:0:0:
192,192,96152,1,0,0:0:0:0:
448,192,96324,1,0,0:0:0:0:
320,192,96324,128,2,96410:0:0:0:0:
64,192,96496,1,8,0:0:0:0:
192,192,96496,1,0,0:0:0:0:
448,192,96496,1,0,0:0:0:0:
320,192,96669,128,0,96755:0:0:0:0:
320,192,96841,1,2,0:0:0:0:
448,192,96841,1,0,0:0:0:0:
192,192,97014,128,0,97100:0:0:0:0:
64,192,97186,1,8,0:0:0:0:
192,192,97186,1,0,0:0:0:0:
448,192,97186,1,0,0:0:0:0:
320,192,97358,128,0,97445:0:0:0:0:
320,192,97531,1,0,0:0:0:0:
192,192,97703,1,0,0:0:0:0:
64,192,97703,128,2,97790:0:0:0:0:
64,192,97876,1,8,0:0:0:0:
320,192,97876,1,0,0:0:0:0:
448,192,97876,1,0,0:0:0:0:
64,192,98048,128,0,98134:0:0:0:0:
64,192,98221,1,2,0:0:0:0:
192,192,98221,1,0,0:0:0:0:
320,192,98393,128,0,98479:0:0:0:0:
64,192,98565,1,8,0:0:0:0:
320,192,98565,1,0,0:0:0:0:
448,192,98565,1,0,0:0:0:0:
192,192,98738,128,0,98824:0:0:0:0:
192,192,98910,1,0,0:0:0:0:
320,192,99083,1,2,0:0:0:0:
448,192,99083,128,0,99169:0:0:0:0:
64,192,99255,1,8,0:0:0:0:
192,192,99255,1,0,0:0:0:0:
448,192,99255,1,0,0:0:0:0:
320,192,99427,1,2,0:0:0:0:
448,192,99427,128,0,99514:0:0:0:0:
64,192,99600,1,2,0:0:0:0:
448,192,99600,1,0,0:0:0:0:
320,192,99772,128,0,99858:0:0:0:0:
64,192,99945,1,8,0:0:0:0:
320,192,99945,1,0,0:0:0:0:
448,192,99945,1,0,0:0:0:0:
192,192,100117,128,0,100203:0:0:0:0:
192,192,100290,1,0,0:0:0:0:
448,192,100462,1,0,0:0:0:0:
320,192,100462,128,2,100548:0:0:0:0:
64,192,100634,1,8,0:0:0:0:
192,192,100634,1,0,0:0:0:0:
448,192,100634,1,0,0:0:0:0:
320,192,100807,128,0,100893:0:0:0:0:
320,192,100979,1,2,0:0:0:0:
448,192,100979,1,0,0:0:0:0:
192,192,101152,128,0,101238:0:0:0:0:
64,192,101324,1,8,0:0:0:0:
192,192,101324,1,0,0:0:0:0:
448,192,101324,1,0,0:0:0:0:
320,192,101496,128,0,101583:0:0:0:0:
320,192,101669,1,0,0:0:0:0:
64,192,101841,1,2,0:0:0:0:
192,192,101841,128,0,101927:0:0:0:0:
64,192,102014,1,8,0:0:0:0:
320,192,102014,1,0,0:0:0:0:
448,192,102014,1,0,0:0:0:0:
192,192,102186,128,0,102272:0:0:0:0:
64,192,102358,1,2,0:0:0:0:
192,192,102358,1,0,0:0:0:0:
320,192,102531,128,0,102617:0:0:0:0:
64,192,102703,1,8,0:0:0:0:
320,192,102703,1,0,0:0:0:0:
448,192,102703,1,0,0:0:0:0:
192,192,102876,128,0,102962:0:0:0:0:
192,192,103048,1,0,0:0:0:0:
320,192,103221,1,2,0:0:0:0:
448,192,103221,128,0,103307:0:0:0:0:
64,192,103393,1,8,0:0:0:0:
192,192,103393,1,0,0:0:0:0:
448,192,103393,1,0,0:0:0:0:
448,192,103565,128,0,103652:0:0:0:0:
320,192,103738,1,2,0:0:0:0:
448,192,103738,1,0,0:0:0:0:
192,192,103910,128,0,103996:0:0:0:0:
64,192,104083,1,8,0:0:0:0:
192,192,104083,1,0,0:0:0:0:
448,192,104083,1,0,0:0:0:0:
320,192,104255,128,0,104341:0:0:0:0:
320,192,104427,1,0,0:0:0:0:
192,192,104600,1,0,0:0:0:0:
64,192,104600,128,2,104686:0:0:0:0:
64,192,104772,1,8,0:0:0:0:
320,192,104772,1,0,0:0:0:0:
448,192,104772,1,0,0:0:0:0:
64,192,104945,128,0,105031:0:0:0:0:
64,192,105117,1,2,0:0:0:0:
448,192,105117,1,0,0:0:0:0:
192,192,105290,128,0,105376:0:0:0:0:
64,192,105462,1,8,0:0:0:0:
192,192,105462,1,0,0:0:0:0:
448,192,105462,1,0,0:0:0:0:
320,192,105634,128,0,105721:0:0:0:0:
320,192,105807,1,0,0:0:0:0:
64,192,105979,1,2,0:0:0:0:
192,192,105979,128,0,106065:0:0:0:0:
64,192,106152,1,8,0:0:0:0:
320,192,106152,1,0,0:0:0:0:
448,192,106152,1,0,0:0:0:0:
192,192,106324,128,0,106410:0:0:0:0:
64,192,106496,1,2,0:0:0:0:
192,192,106496,1,0,0:0:0:0:
320,192,106669,128,0,106755:0:0:0:0:
64,192,106841,5,8,0:0:0:0:
320,192,106841,1,0,0:0:0:0:
448,192,106841,1,0,0:0:0:0:
192,192,107014,128,0,107100:0:0:0:0:
192,192,107186,1,0,0:0:0:0:
448,192,107358,1,0,0:0:0:0:
320,192,107358,128,2,107445:0:0:0:0:
64,192,107531,1,8,0:0:0:0:
192,192,107531,1,0,0:0:0:0:
448,192,107531,1,0,0:0:0:0:
320,192,107703,128,0,107790:0:0:0:0:
192,192,107876,128,0,108221:0:0:0:0:
448,192,108048,1,0,0:0:0:0:
320,192,108221,128,0,108393:0:0:0:0:
64,192,108393,128,0,108565:0:0:0:0:
448,192,108565,128,0,108738:0:0:0:0:
192,192,108738,128,0,108910:0:0:0:0:
320,192,108910,128,0,109083:0:0:0:0:
64,192,109083,128,0,109255:0:0:0:0:
320,192,109255,128,0,109600:0:0:0:0:
64,192,109427,1,0,0:0:0:0:
192,192,109600,128,0,109772:0:0:0:0:
448,192,109772,128,0,109945:0:0:0:0:
64,192,109945,128,0,110117:0:0:0:0:
320,192,110117,128,0,110290:0:0:0:0:
192,192,110290,128,0,110462:0:0:0:0:
448,192,110462,128,0,110634:0:0:0:0:
64,192,110634,128,0,113393:0:0:0:0:
192,192,110634,1,0,0:0:0:0:
320,192,112014,1,0,0:0:0:0:
320,192,113393,128,0,116152:0:0:0:0:
448,192,113393,1,0,0:0:0:0:
64,192,114772,1,0,0:0:0:0:
64,192,116152,1,0,0:0:0:0:
448,192,116152,128,0,118910:0:0:0:0:
192,192,117531,1,0,0:0:0:0:
64,192,118910,1,0,0:0:0:0:
192,192,118910,128,0,121669:0:0:0:0:
448,192,120290,1,0,0:0:0:0:
64,192,121669,128,0,124427:0:0:0:0:
448,192,121669,1,0,0:0:0:0:
320,192,122014,1,0,0:0:0:0:
320,192,122531,1,0,0:0:0:0:
448,192,123048,1,0,0:0:0:0:
320,192,123393,1,0,0:0:0:0:
320,192,123910,1,0,0:0:0:0:
320,192,124427,128,0,127186:0:0:0:0:
448,192,124427,1,0,0:0:0:0:
64,192,124772,1,0,0:0:0:0:
64,192,125290,1,0,0:0:0:0:
448,192,125807,1,0,0:0:0:0:
64,192,126152,1,0,0:0:0:0:
64,192,126669,1,0,0:0:0:0:
192,192,127186,1,0,0:0:0:0:
448,192,127186,128,0,129945:0:0:0:0:
64,192,127531,1,0,0:0:0:0:
64,192,128048,1,0,0:0:0:0:
192,192,128565,1,0,0:0:0:0:
64,192,128910,1,0,0:0:0:0:
64,192,129427,1,0,0:0:0:0:
192,192,129945,128,0,132703:0:0:0:0:
320,192,129945,1,0,0:0:0:0:
448,192,130290,1,0,0:0:0:0:
448,192,130807,1,0,0:0:0:0:
320,192,131324,1,0,0:0:0:0:
448,192,131669,1,0,0:0:0:0:
448,192,132186,1,0,0:0:0:0:
320,192,132703,128,0,134083:0:0:0:80:LR_RBell_D5.wav
448,192,132703,1,0,0:0:0:0:
64,192,134083,128,0,135462:0:0:0:0:
192,192,134083,1,0,0:0:0:0:
320,192,135462,1,0,0:0:0:80:LR_RBell_A4.wav
448,192,135462,128,0,136841:0:0:0:0:
64,192,136841,1,0,0:0:0:0:
192,192,136841,128,0,138221:0:0:0:0:
320,192,138221,128,0,139600:0:0:0:80:LR_RBell_B4.wav
448,192,138221,1,0,0:0:0:0:
64,192,139600,1,0,0:0:0:0:
192,192,139600,128,0,140979:0:0:0:0:
320,192,140979,1,0,0:0:0:80:LR_RBell_G4.wav
448,192,140979,128,0,142358:0:0:0:0:
64,192,142358,128,0,143738:0:0:0:0:
192,192,142358,1,0,0:0:0:0:
320,192,143393,1,0,0:0:0:0:
320,192,143738,128,0,145117:0:0:0:80:LR_RBell_D5.wav
448,192,143738,1,0,0:0:0:0:
64,192,145117,128,0,146496:0:0:0:0:
192,192,145117,1,0,0:0:0:0:
320,192,146496,1,0,0:0:0:80:LR_RBell_A4.wav
448,192,146496,128,0,147876:0:0:0:0:
64,192,147876,1,0,0:0:0:0:
192,192,147876,128,0,149255:0:0:0:0:
64,192,149255,1,0,0:0:0:50:Cymatics - G House Open Hi-Hat 1.wav
448,192,149255,1,0,0:0:0:70:LR_RBell_B4.wav
64,192,149427,128,0,149600:0:0:0:0:
320,192,149600,1,0,0:0:0:50:Cymatics - G House Open Hi-Hat 1.wav
64,192,149772,128,0,149945:0:0:0:0:
320,192,149945,1,0,0:0:0:50:Cymatics - G House Open Hi-Hat 1.wav
64,192,150117,128,0,150290:0:0:0:0:
320,192,150290,1,0,0:0:0:50:Cymatics - G House Open Hi-Hat 1.wav
64,192,150462,128,0,150634:0:0:0:0:
320,192,150634,1,0,0:0:0:50:Cymatics - G House Open Hi-Hat 1.wav
64,192,150807,128,0,150979:0:0:0:0:
320,192,150979,1,0,0:0:0:50:Cymatics - G House Open Hi-Hat 1.wav
192,192,151152,128,0,151324:0:0:0:0:
448,192,151324,1,0,0:0:0:50:Cymatics - G House Open Hi-Hat 1.wav
320,192,151496,128,0,151669:0:0:0:0:
64,192,151669,1,0,0:0:0:50:Cymatics - G House Open Hi-Hat 1.wav
192,192,151841,128,0,152014:0:0:0:0:
448,192,152014,128,0,152531:0:0:0:50:Cymatics - G House Open Hi-Hat 1.wav
320,192,152014,1,0,0:0:0:0:
64,192,152186,1,0,0:0:0:0:
320,192,152358,1,0,0:0:0:50:Cymatics - G House Open Hi-Hat 1.wav
64,192,152531,128,0,153048:0:0:0:0:
192,192,152703,1,0,0:0:0:50:Cymatics - G House Open Hi-Hat 1.wav
448,192,152876,1,0,0:0:0:0:
320,192,153048,128,0,154083:0:0:0:50:Cymatics - G House Open Hi-Hat 1.wav
192,192,153221,128,0,154083:0:0:0:0:
192,192,154255,128,0,154772:0:0:0:0:
320,192,154427,128,0,154772:0:0:0:0:
64,192,154772,1,6,0:0:0:0:
448,192,154772,1,0,0:0:0:80:LR_RBell_D5.wav
192,192,154945,1,0,0:0:0:0:
64,192,155117,1,8,0:0:0:0:
192,192,155117,1,0,0:0:0:0:
448,192,155117,1,0,0:0:0:0:
192,192,155290,1,0,0:0:0:0:
192,192,155462,1,0,0:0:0:0:
64,192,155634,1,2,0:0:0:0:
192,192,155634,1,0,0:0:0:0:
64,192,155807,1,8,0:0:0:0:
192,192,155807,1,0,0:0:0:0:
448,192,155807,1,0,0:0:0:0:
192,192,155979,1,0,0:0:0:0:
320,192,156152,128,2,156238:0:0:0:0:
448,192,156152,1,0,0:0:0:70:LR_RBell_G4.wav
320,192,156324,128,0,156410:0:0:0:0:
64,192,156496,1,8,0:0:0:0:
320,192,156496,128,0,156583:0:0:0:0:
448,192,156496,1,0,0:0:0:0:
320,192,156669,128,0,156755:0:0:0:0:
320,192,156841,128,0,156927:0:0:0:0:
320,192,157014,128,2,157100:0:0:0:0:
448,192,157014,1,0,0:0:0:0:
64,192,157186,1,8,0:0:0:0:
320,192,157186,128,0,157272:0:0:0:0:
448,192,157186,1,0,0:0:0:0:
320,192,157358,128,0,157445:0:0:0:0:
64,192,157531,1,2,0:0:0:0:
192,192,157531,128,0,157617:0:0:0:70:LR_RBell_A4.wav
192,192,157703,128,0,157790:0:0:0:0:
64,192,157876,1,8,0:0:0:0:
192,192,157876,128,0,157962:0:0:0:0:
448,192,157876,1,0,0:0:0:0:
192,192,158048,128,0,158134:0:0:0:0:
192,192,158221,128,0,158307:0:0:0:0:
64,192,158393,1,2,0:0:0:0:
192,192,158393,128,0,158479:0:0:0:0:
64,192,158565,1,8,0:0:0:0:
192,192,158565,128,0,158652:0:0:0:0:
448,192,158565,1,0,0:0:0:0:
192,192,158738,128,0,158824:0:0:0:0:
320,192,158910,1,2,0:0:0:0:
448,192,158910,1,0,0:0:0:0:
192,192,159083,128,0,159169:0:0:0:0:
64,192,159255,1,8,0:0:0:0:
192,192,159255,128,0,159341:0:0:0:0:
448,192,159255,1,0,0:0:0:0:
320,192,159427,128,0,159514:0:0:0:0:
320,192,159600,128,0,159686:0:0:0:0:
192,192,159772,1,0,0:0:0:0:
64,192,159772,128,2,159858:0:0:0:0:
320,192,159945,1,0,0:0:0:0:
448,192,159945,1,0,0:0:0:0:
64,192,159945,128,8,160031:0:0:0:0:
320,192,160117,128,0,160203:0:0:0:0:
64,192,160290,1,2,0:0:0:0:
192,192,160290,1,0,0:0:0:80:LR_RBell_D5.wav
448,192,160290,1,0,0:0:0:0:
448,192,160462,1,0,0:0:0:0:
64,192,160634,1,8,0:0:0:0:
320,192,160634,1,0,0:0:0:0:
448,192,160634,1,0,0:0:0:0:
448,192,160807,1,0,0:0:0:0:
448,192,160979,1,0,0:0:0:0:
320,192,161152,1,2,0:0:0:0:
448,192,161152,1,0,0:0:0:0:
64,192,161324,1,8,0:0:0:0:
192,192,161324,1,0,0:0:0:0:
448,192,161324,1,0,0:0:0:0:
448,192,161496,1,0,0:0:0:0:
64,192,161669,128,2,161755:0:0:0:0:
192,192,161669,1,0,0:0:0:70:LR_RBell_B4.wav
64,192,161841,128,0,161927:0:0:0:0:
64,192,162014,128,8,162100:0:0:0:0:
320,192,162014,1,0,0:0:0:0:
448,192,162014,1,0,0:0:0:0:
64,192,162186,128,0,162272:0:0:0:0:
64,192,162358,128,0,162445:0:0:0:0:
64,192,162531,128,2,162617:0:0:0:0:
192,192,162531,1,0,0:0:0:0:
64,192,162703,128,8,162790:0:0:0:0:
320,192,162703,1,0,0:0:0:0:
448,192,162703,1,0,0:0:0:0:
64,192,162876,128,0,162962:0:0:0:0:
320,192,163048,1,2,0:0:0:0:
448,192,163048,128,0,163134:0:0:0:70:LR_RBell_A4.wav
448,192,163221,128,0,163307:0:0:0:0:
64,192,163393,1,8,0:0:0:0:
192,192,163393,1,0,0:0:0:0:
448,192,163393,128,0,163479:0:0:0:0:
448,192,163565,128,0,163652:0:0:0:0:
448,192,163738,128,0,163824:0:0:0:0:
320,192,163910,1,2,0:0:0:0:
448,192,163910,128,0,163996:0:0:0:0:
64,192,164083,1,8,0:0:0:0:
192,192,164083,1,0,0:0:0:0:
448,192,164083,128,0,164169:0:0:0:0:
448,192,164255,128,0,164341:0:0:0:0:
64,192,164427,1,2,0:0:0:0:
192,192,164427,1,0,0:0:0:0:
320,192,164600,128,0,164686:0:0:0:0:
64,192,164772,1,8,0:0:0:0:
320,192,164772,128,0,164858:0:0:0:0:
448,192,164772,1,0,0:0:0:0:
192,192,164945,128,0,165031:0:0:0:0:
192,192,165117,128,0,165203:0:0:0:0:
320,192,165290,1,2,0:0:0:0:
448,192,165290,128,0,165376:0:0:0:0:
64,192,165462,1,8,0:0:0:0:
320,192,165462,1,0,0:0:0:0:
448,192,165462,128,0,165548:0:0:0:0:
64,192,165634,1,2,0:0:0:0:
192,192,165634,128,0,165721:0:0:0:0:
64,192,165807,1,2,0:0:0:0:
192,192,165807,1,0,0:0:0:80:LR_RBell_D5.wav
448,192,165807,1,0,0:0:0:0:
320,192,165979,1,0,0:0:0:0:
64,192,166152,1,8,0:0:0:0:
320,192,166152,1,0,0:0:0:0:
448,192,166152,1,0,0:0:0:0:
320,192,166324,1,0,0:0:0:0:
320,192,166496,1,0,0:0:0:0:
320,192,166669,1,2,0:0:0:0:
448,192,166669,1,0,0:0:0:0:
64,192,166841,1,8,0:0:0:0:
320,192,166841,1,0,0:0:0:0:
448,192,166841,1,0,0:0:0:0:
320,192,167014,1,0,0:0:0:0:
64,192,167186,1,2,0:0:0:0:
192,192,167186,128,0,167272:0:0:0:70:LR_RBell_G4.wav
192,192,167358,128,0,167445:0:0:0:0:
64,192,167531,1,8,0:0:0:0:
192,192,167531,128,0,167617:0:0:0:0:
448,192,167531,1,0,0:0:0:0:
192,192,167703,128,0,167790:0:0:0:0:
192,192,167876,128,0,167962:0:0:0:0:
64,192,168048,1,2,0:0:0:0:
192,192,168048,128,0,168134:0:0:0:0:
64,192,168221,1,8,0:0:0:0:
192,192,168221,128,0,168307:0:0:0:0:
448,192,168221,1,0,0:0:0:0:
192,192,168393,128,0,168479:0:0:0:0:
320,192,168565,128,2,168652:0:0:0:0:
448,192,168565,1,0,0:0:0:70:LR_RBell_A4.wav
320,192,168738,128,0,168824:0:0:0:0:
64,192,168910,1,8,0:0:0:0:
320,192,168910,128,0,168996:0:0:0:0:
448,192,168910,1,0,0:0:0:0:
320,192,169083,128,0,169169:0:0:0:0:
320,192,169255,128,0,169341:0:0:0:0:
320,192,169427,128,2,169514:0:0:0:0:
448,192,169427,1,0,0:0:0:0:
64,192,169600,1,8,0:0:0:0:
320,192,169600,128,0,169686:0:0:0:0:
448,192,169600,1,0,0:0:0:0:
320,192,169772,128,0,169858:0:0:0:0:
64,192,169945,1,2,0:0:0:0:
192,192,169945,1,0,0:0:0:0:
320,192,170117,128,0,170203:0:0:0:0:
64,192,170290,1,8,0:0:0:0:
320,192,170290,128,0,170376:0:0:0:0:
448,192,170290,1,0,0:0:0:0:
192,192,170462,128,0,170548:0:0:0:0:
192,192,170634,128,0,170721:0:0:0:0:
320,192,170807,1,2,0:0:0:0:
448,192,170807,128,0,170893:0:0:0:0:
64,192,170979,1,8,0:0:0:0:
192,192,170979,1,0,0:0:0:0:
448,192,170979,128,0,171065:0:0:0:0:
64,192,171152,128,0,171238:0:0:0:0:
64,192,171324,1,2,0:0:0:0:
320,192,171324,1,0,0:0:0:80:LR_RBell_D5.wav
448,192,171324,1,0,0:0:0:0:
64,192,171496,1,0,0:0:0:0:
64,192,171669,1,8,0:0:0:0:
320,192,171669,1,0,0:0:0:0:
448,192,171669,1,0,0:0:0:0:
64,192,171841,1,0,0:0:0:0:
64,192,172014,1,0,0:0:0:0:
64,192,172186,1,2,0:0:0:0:
192,192,172186,1,0,0:0:0:0:
64,192,172358,1,8,0:0:0:0:
320,192,172358,1,0,0:0:0:0:
448,192,172358,1,0,0:0:0:0:
64,192,172531,1,0,0:0:0:0:
320,192,172703,1,2,0:0:0:0:
448,192,172703,128,0,172790:0:0:0:70:LR_RBell_G4.wav
448,192,172876,128,0,172962:0:0:0:0:
64,192,173048,1,8,0:0:0:0:
192,192,173048,1,0,0:0:0:0:
448,192,173048,128,0,173134:0:0:0:0:
448,192,173221,128,0,173307:0:0:0:0:
448,192,173393,128,0,173479:0:0:0:0:
320,192,173565,1,2,0:0:0:0:
448,192,173565,128,0,173652:0:0:0:0:
64,192,173738,1,8,0:0:0:0:
192,192,173738,1,0,0:0:0:0:
448,192,173738,128,0,173824:0:0:0:0:
448,192,173910,128,0,173996:0:0:0:0:
64,192,174083,128,2,174169:0:0:0:0:
192,192,174083,1,0,0:0:0:70:LR_RBell_A4.wav
64,192,174255,128,0,174341:0:0:0:0:
64,192,174427,128,8,174514:0:0:0:0:
320,192,174427,1,0,0:0:0:0:
448,192,174427,1,0,0:0:0:0:
64,192,174600,128,0,174686:0:0:0:0:
64,192,174772,128,0,174858:0:0:0:0:
64,192,174945,128,2,175031:0:0:0:0:
192,192,174945,1,0,0:0:0:0:
64,192,175117,128,8,175203:0:0:0:0:
320,192,175117,1,0,0:0:0:0:
448,192,175117,1,0,0:0:0:0:
64,192,175290,128,0,175376:0:0:0:0:
320,192,175462,1,2,0:0:0:0:
448,192,175462,1,0,0:0:0:0:
192,192,175634,128,0,175721:0:0:0:0:
64,192,175807,1,8,0:0:0:0:
192,192,175807,128,0,175893:0:0:0:0:
448,192,175807,1,0,0:0:0:0:
320,192,175979,128,0,176065:0:0:0:0:
320,192,176152,128,0,176238:0:0:0:0:
64,192,176324,1,2,0:0:0:0:
192,192,176324,128,0,176410:0:0:0:0:
64,192,176496,1,8,0:0:0:0:
192,192,176496,128,0,176583:0:0:0:0:
448,192,176496,1,0,0:0:0:0:
448,192,176669,128,2,176755:0:0:0:0:
320,192,176669,1,0,0:0:0:0:
64,192,176841,128,2,177100:0:0:0:0:
320,192,176841,1,0,0:0:0:80:LR_RBell_D5.wav
448,192,176841,1,4,0:0:0:0:
320,192,177014,1,0,0:0:0:0:
64,192,177186,1,8,0:0:0:0:
192,192,177186,1,0,0:0:0:0:
448,192,177186,1,0,0:0:0:0:
192,192,177358,1,0,0:0:0:0:
320,192,177531,1,0,0:0:0:0:
320,192,177703,1,2,0:0:0:0:
448,192,177703,1,0,0:0:0:0:
64,192,177876,1,8,0:0:0:0:
192,192,177876,1,0,0:0:0:0:
448,192,177876,1,0,0:0:0:0:
192,192,178048,1,0,0:0:0:0:
320,192,178221,1,2,0:0:0:0:
448,192,178221,1,0,0:0:0:0:
192,192,178393,1,0,0:0:0:0:
64,192,178565,1,8,0:0:0:0:
320,192,178565,1,0,0:0:0:0:
448,192,178565,1,0,0:0:0:0:
320,192,178738,1,0,0:0:0:0:
192,192,178910,128,0,178996:0:0:0:0:
64,192,179083,1,2,0:0:0:0:
192,192,179083,128,0,179169:0:0:0:0:
64,192,179255,1,8,0:0:0:0:
192,192,179255,128,0,179341:0:0:0:0:
448,192,179255,1,0,0:0:0:0:
192,192,179427,128,0,179514:0:0:0:0:
320,192,179600,1,2,0:0:0:0:
448,192,179600,128,0,179858:0:0:0:80:LR_RBell_A4.wav
192,192,179772,1,0,0:0:0:0:
64,192,179945,1,8,0:0:0:0:
320,192,179945,1,0,0:0:0:0:
448,192,179945,1,0,0:0:0:0:
320,192,180117,1,0,0:0:0:0:
192,192,180290,1,0,0:0:0:0:
64,192,180462,1,2,0:0:0:0:
192,192,180462,1,0,0:0:0:0:
64,192,180634,1,8,0:0:0:0:
320,192,180634,1,0,0:0:0:0:
448,192,180634,1,0,0:0:0:0:
320,192,180807,1,0,0:0:0:0:
64,192,180979,1,2,0:0:0:0:
192,192,180979,1,0,0:0:0:0:
320,192,181152,1,0,0:0:0:0:
64,192,181324,1,8,0:0:0:0:
192,192,181324,1,0,0:0:0:0:
448,192,181324,1,0,0:0:0:0:
192,192,181496,1,0,0:0:0:0:
320,192,181669,128,0,181755:0:0:0:0:
320,192,181841,128,2,181927:0:0:0:0:
448,192,181841,1,0,0:0:0:0:
64,192,182014,1,8,0:0:0:0:
320,192,182014,128,0,182100:0:0:0:0:
448,192,182014,1,0,0:0:0:0:
320,192,182186,128,0,182272:0:0:0:0:
64,192,182358,1,2,0:0:0:0:
192,192,182358,128,0,182617:0:0:0:80:LR_RBell_B4.wav
320,192,182531,1,0,0:0:0:0:
64,192,182703,1,8,0:0:0:0:
192,192,182703,1,0,0:0:0:0:
448,192,182703,1,0,0:0:0:0:
192,192,182876,1,0,0:0:0:0:
320,192,183048,1,0,0:0:0:0:
320,192,183221,1,2,0:0:0:0:
448,192,183221,1,0,0:0:0:0:
64,192,183393,1,8,0:0:0:0:
192,192,183393,1,0,0:0:0:0:
448,192,183393,1,0,0:0:0:0:
192,192,183565,1,0,0:0:0:0:
320,192,183738,1,2,0:0:0:0:
448,192,183738,1,0,0:0:0:0:
192,192,183910,1,0,0:0:0:0:
64,192,184083,1,8,0:0:0:0:
320,192,184083,1,0,0:0:0:0:
448,192,184083,1,0,0:0:0:0:
320,192,184255,1,0,0:0:0:0:
192,192,184427,1,0,0:0:0:0:
64,192,184600,1,2,0:0:0:0:
192,192,184600,1,0,0:0:0:0:
64,192,184772,1,8,0:0:0:0:
320,192,184772,1,0,0:0:0:0:
448,192,184772,1,0,0:0:0:0:
192,192,184945,1,0,0:0:0:0:
320,192,185117,1,2,0:0:0:0:
448,192,185117,1,0,0:0:0:80:LR_RBell_G4.wav
320,192,185290,1,0,0:0:0:0:
64,192,185462,1,8,0:0:0:0:
192,192,185462,1,0,0:0:0:0:
448,192,185462,1,0,0:0:0:0:
320,192,185634,128,0,185721:0:0:0:0:
320,192,185807,128,0,185893:0:0:0:0:
320,192,185979,128,2,186065:0:0:0:0:
448,192,185979,1,0,0:0:0:0:
64,192,186152,1,8,0:0:0:0:
320,192,186152,128,0,186238:0:0:0:0:
448,192,186152,1,0,0:0:0:0:
320,192,186324,128,0,186410:0:0:0:0:
64,192,186496,1,2,0:0:0:0:
448,192,186496,1,0,0:0:0:0:
192,192,186669,128,0,186755:0:0:0:0:
64,192,186841,1,8,0:0:0:0:
192,192,186841,128,0,186927:0:0:0:0:
448,192,186841,1,0,0:0:0:0:
320,192,187014,128,0,187100:0:0:0:0:
320,192,187186,128,0,187272:0:0:0:0:
192,192,187358,128,2,187445:0:0:0:0:
64,192,187358,1,0,0:0:0:0:
64,192,187531,1,8,0:0:0:0:
192,192,187531,128,0,187617:0:0:0:0:
448,192,187531,1,0,0:0:0:0:
320,192,187703,1,2,0:0:0:0:
448,192,187703,1,0,0:0:0:0:
64,192,187876,1,2,0:0:0:0:
320,192,187876,1,0,0:0:0:80:LR_RBell_D5.wav
448,192,187876,128,0,188134:0:0:0:0:
192,192,188048,1,0,0:0:0:0:
64,192,188221,1,8,0:0:0:0:
320,192,188221,1,0,0:0:0:0:
448,192,188221,1,0,0:0:0:0:
448,192,188393,1,0,0:0:0:0:
192,192,188565,1,0,0:0:0:0:
64,192,188738,1,2,0:0:0:0:
192,192,188738,1,0,0:0:0:0:
64,192,188910,1,8,0:0:0:0:
320,192,188910,1,0,0:0:0:0:
448,192,188910,1,0,0:0:0:0:
320,192,189083,1,0,0:0:0:0:
64,192,189255,1,2,0:0:0:0:
448,192,189255,1,0,0:0:0:0:
192,192,189427,1,0,0:0:0:0:
64,192,189600,1,8,0:0:0:0:
320,192,189600,1,0,0:0:0:0:
448,192,189600,1,0,0:0:0:0:
192,192,189772,128,0,189858:0:0:0:0:
192,192,189945,128,0,190031:0:0:0:0:
64,192,190117,1,2,0:0:0:0:
192,192,190117,128,0,190203:0:0:0:0:
64,192,190290,1,8,0:0:0:0:
192,192,190290,128,0,190376:0:0:0:0:
448,192,190290,1,0,0:0:0:0:
320,192,190462,1,0,0:0:0:0:
64,192,190634,128,2,190893:0:0:0:0:
448,192,190634,1,0,0:0:0:80:LR_RBell_A4.wav
320,192,190807,1,0,0:0:0:0:
64,192,190979,1,8,0:0:0:0:
192,192,190979,1,0,0:0:0:0:
448,192,190979,1,0,0:0:0:0:
64,192,191152,1,0,0:0:0:0:
320,192,191324,1,0,0:0:0:0:
320,192,191496,1,2,0:0:0:0:
448,192,191496,1,0,0:0:0:0:
64,192,191669,1,8,0:0:0:0:
192,192,191669,1,0,0:0:0:0:
448,192,191669,1,0,0:0:0:0:
192,192,191841,1,0,0:0:0:0:
64,192,192014,1,2,0:0:0:0:
448,192,192014,1,0,0:0:0:0:
320,192,192186,1,0,0:0:0:0:
64,192,192358,1,8,0:0:0:0:
192,192,192358,1,0,0:0:0:0:
448,192,192358,1,0,0:0:0:0:
320,192,192531,128,0,192617:0:0:0:0:
320,192,192703,128,0,192790:0:0:0:0:
320,192,192876,128,2,192962:0:0:0:0:
448,192,192876,1,0,0:0:0:0:
64,192,193048,1,8,0:0:0:0:
320,192,193048,128,0,193134:0:0:0:0:
448,192,193048,1,0,0:0:0:0:
192,192,193221,1,0,0:0:0:0:
448,192,193393,128,2,193652:0:0:0:0:
320,192,193393,1,0,0:0:0:70:LR_RBell_B4.wav
192,192,193565,1,0,0:0:0:0:
64,192,193738,1,8,0:0:0:0:
320,192,193738,128,0,193824:0:0:0:0:
448,192,193738,1,0,0:0:0:0:
320,192,193910,128,0,193996:0:0:0:0:
320,192,194083,128,0,194169:0:0:0:0:
320,192,194255,128,2,194341:0:0:0:0:
448,192,194255,1,0,0:0:0:0:
64,192,194427,1,8,0:0:0:0:
320,192,194427,128,0,194514:0:0:0:0:
448,192,194427,1,0,0:0:0:0:
320,192,194600,128,0,194686:0:0:0:0:
64,192,194772,1,2,0:0:0:0:
448,192,194772,1,0,0:0:0:0:
192,192,194945,1,0,0:0:0:0:
64,192,195117,1,8,0:0:0:0:
320,192,195117,1,0,0:0:0:0:
448,192,195117,1,0,0:0:0:0:
192,192,195290,128,0,195376:0:0:0:0:
192,192,195462,128,0,195548:0:0:0:0:
64,192,195634,1,2,0:0:0:0:
192,192,195634,128,0,195721:0:0:0:0:
64,192,195807,1,8,0:0:0:0:
192,192,195807,128,0,195893:0:0:0:0:
448,192,195807,1,0,0:0:0:0:
320,192,195979,1,0,0:0:0:0:
192,192,196152,1,2,0:0:0:0:
64,192,196152,128,0,196410:0:0:0:80:LR_RBell_G4.wav
320,192,196324,1,0,0:0:0:0:
64,192,196496,1,8,0:0:0:0:
192,192,196496,128,0,196583:0:0:0:0:
448,192,196496,1,0,0:0:0:0:
192,192,196669,128,0,196755:0:0:0:0:
192,192,196841,128,0,196927:0:0:0:0:
64,192,197014,1,2,0:0:0:0:
192,192,197014,128,0,197100:0:0:0:0:
64,192,197186,1,8,0:0:0:0:
192,192,197186,128,0,197272:0:0:0:0:
448,192,197186,1,0,0:0:0:0:
192,192,197358,128,0,197445:0:0:0:0:
64,192,197531,1,2,0:0:0:0:
448,192,197531,1,0,0:0:0:0:
320,192,197703,128,0,197790:0:0:0:0:
64,192,197876,1,8,0:0:0:0:
320,192,197876,128,0,197962:0:0:0:0:
448,192,197876,1,0,0:0:0:0:
192,192,198048,128,0,198134:0:0:0:0:
192,192,198221,128,0,198307:0:0:0:0:
320,192,198393,1,2,0:0:0:0:
448,192,198393,128,0,198479:0:0:0:0:
64,192,198565,1,8,0:0:0:0:
320,192,198565,1,0,0:0:0:0:
448,192,198565,128,0,198652:0:0:0:0:
192,192,198738,1,2,0:0:0:0:
64,192,198738,128,0,198824:0:0:0:0:
64,192,198910,1,0,0:0:0:0:
320,192,198910,1,4,0:0:0:0:
448,192,198910,1,2,0:0:0:0:
192,192,199083,128,0,199169:0:0:0:0:
64,192,199255,1,0,0:0:0:0:
192,192,199255,1,0,0:0:0:0:
448,192,199255,1,8,0:0:0:0:
320,192,199427,128,0,199514:0:0:0:0:
320,192,199600,1,0,0:0:0:0:
192,192,199772,128,2,199858:0:0:0:0:
64,192,199772,1,0,0:0:0:0:
64,192,199945,1,0,0:0:0:0:
320,192,199945,1,0,0:0:0:0:
448,192,199945,1,8,0:0:0:0:
192,192,200117,128,0,200203:0:0:0:0:
64,192,200290,1,0,0:0:0:0:
192,192,200290,1,2,0:0:0:0:
320,192,200462,128,0,200548:0:0:0:0:
64,192,200634,1,0,0:0:0:0:
320,192,200634,1,0,0:0:0:0:
448,192,200634,1,8,0:0:0:0:
192,192,200807,128,0,200893:0:0:0:0:
192,192,200979,1,0,0:0:0:0:
320,192,201152,128,0,201238:0:0:0:0:
448,192,201152,1,2,0:0:0:0:
64,192,201324,1,0,0:0:0:0:
192,192,201324,1,0,0:0:0:0:
448,192,201324,1,8,0:0:0:0:
320,192,201496,128,0,201583:0:0:0:0:
320,192,201669,1,0,0:0:0:0:
448,192,201669,1,2,0:0:0:0:
192,192,201841,128,0,201927:0:0:0:0:
64,192,202014,1,0,0:0:0:0:
192,192,202014,1,0,0:0:0:0:
448,192,202014,1,8,0:0:0:0:
320,192,202186,128,0,202272:0:0:0:0:
320,192,202358,1,0,0:0:0:0:
64,192,202531,128,0,202617:0:0:0:0:
192,192,202531,1,2,0:0:0:0:
64,192,202703,1,0,0:0:0:0:
320,192,202703,1,0,0:0:0:0:
448,192,202703,1,8,0:0:0:0:
64,192,202876,128,0,202962:0:0:0:0:
64,192,203048,1,0,0:0:0:0:
192,192,203048,1,2,0:0:0:0:
320,192,203221,128,0,203307:0:0:0:0:
64,192,203393,1,0,0:0:0:0:
320,192,203393,1,0,0:0:0:0:
448,192,203393,1,8,0:0:0:0:
192,192,203565,128,0,203652:0:0:0:0:
192,192,203738,1,0,0:0:0:0:
448,192,203910,128,2,203996:0:0:0:0:
320,192,203910,1,0,0:0:0:0:
64,192,204083,1,0,0:0:0:0:
192,192,204083,1,0,0:0:0:0:
448,192,204083,1,8,0:0:0:0:
448,192,204255,128,0,204341:0:0:0:0:
64,192,204427,1,0,0:0:0:0:
448,192,204427,1,2,0:0:0:0:
320,192,204600,128,0,204686:0:0:0:0:
64,192,204772,1,0,0:0:0:0:
320,192,204772,1,0,0:0:0:0:
448,192,204772,1,8,0:0:0:0:
192,192,204945,128,0,205031:0:0:0:0:
192,192,205117,1,0,0:0:0:0:
320,192,205290,128,0,205376:0:0:0:0:
448,192,205290,1,2,0:0:0:0:
64,192,205462,1,0,0:0:0:0:
192,192,205462,1,0,0:0:0:0:
448,192,205462,1,8,0:0:0:0:
320,192,205634,128,0,205721:0:0:0:0:
320,192,205807,1,0,0:0:0:0:
448,192,205807,1,2,0:0:0:0:
192,192,205979,128,0,206065:0:0:0:0:
64,192,206152,1,0,0:0:0:0:
192,192,206152,1,0,0:0:0:0:
448,192,206152,1,8,0:0:0:0:
320,192,206324,128,0,206410:0:0:0:0:
320,192,206496,1,0,0:0:0:0:
192,192,206669,128,2,206755:0:0:0:0:
64,192,206669,1,0,0:0:0:0:
64,192,206841,1,0,0:0:0:0:
320,192,206841,1,0,0:0:0:0:
448,192,206841,1,8,0:0:0:0:
192,192,207014,128,0,207100:0:0:0:0:
64,192,207186,1,0,0:0:0:0:
192,192,207186,1,2,0:0:0:0:
320,192,207358,128,0,207445:0:0:0:0:
64,192,207531,1,0,0:0:0:0:
320,192,207531,1,0,0:0:0:0:
448,192,207531,1,8,0:0:0:0:
192,192,207703,128,0,207790:0:0:0:0:
192,192,207876,1,0,0:0:0:0:
448,192,208048,128,2,208134:0:0:0:0:
320,192,208048,1,0,0:0:0:0:
64,192,208221,1,0,0:0:0:0:
192,192,208221,1,0,0:0:0:0:
448,192,208221,1,8,0:0:0:0:
448,192,208393,128,0,208479:0:0:0:0:
320,192,208565,1,0,0:0:0:0:
448,192,208565,1,2,0:0:0:0:
192,192,208738,128,0,208824:0:0:0:0:
64,192,208910,1,0,0:0:0:0:
192,192,208910,1,0,0:0:0:0:
448,192,208910,1,8,0:0:0:0:
320,192,209083,128,0,209169:0:0:0:0:
320,192,209255,1,0,0:0:0:0:
64,192,209427,128,0,209514:0:0:0:0:
192,192,209427,1,2,0:0:0:0:
64,192,209600,1,0,0:0:0:0:
320,192,209600,1,0,0:0:0:0:
448,192,209600,1,8,0:0:0:0:
192,192,209772,1,2,0:0:0:0:
64,192,209772,128,0,209858:0:0:0:0:
64,192,209945,1,0,0:0:0:0:
448,192,209945,1,2,0:0:0:0:
192,192,210117,128,0,210203:0:0:0:0:
64,192,210290,1,0,0:0:0:0:
192,192,210290,1,0,0:0:0:0:
448,192,210290,1,8,0:0:0:0:
320,192,210462,128,0,210548:0:0:0:0:
320,192,210634,1,0,0:0:0:0:
192,192,210807,128,2,210893:0:0:0:0:
64,192,210807,1,0,0:0:0:0:
64,192,210979,1,0,0:0:0:0:
320,192,210979,1,0,0:0:0:0:
448,192,210979,1,8,0:0:0:0:
192,192,211152,128,0,211238:0:0:0:0:
64,192,211324,1,0,0:0:0:0:
192,192,211324,1,2,0:0:0:0:
320,192,211496,128,0,211583:0:0:0:0:
64,192,211669,1,0,0:0:0:0:
320,192,211669,1,0,0:0:0:0:
448,192,211669,1,8,0:0:0:0:
192,192,211841,128,0,211927:0:0:0:0:
192,192,212014,1,0,0:0:0:0:
320,192,212186,128,0,212272:0:0:0:0:
448,192,212186,1,2,0:0:0:0:
64,192,212358,1,0,0:0:0:0:
192,192,212358,1,0,0:0:0:0:
448,192,212358,1,8,0:0:0:0:
320,192,212531,128,0,212617:0:0:0:0:
320,192,212703,1,0,0:0:0:0:
448,192,212703,1,2,0:0:0:0:
192,192,212876,128,0,212962:0:0:0:0:
64,192,213048,1,0,0:0:0:0:
192,192,213048,1,0,0:0:0:0:
448,192,213048,1,8,0:0:0:0:
320,192,213221,128,0,213307:0:0:0:0:
320,192,213393,1,0,0:0:0:0:
64,192,213565,128,0,213652:0:0:0:0:
192,192,213565,1,2,0:0:0:0:
64,192,213738,1,0,0:0:0:0:
320,192,213738,1,0,0:0:0:0:
448,192,213738,1,8,0:0:0:0:
64,192,213910,128,0,213996:0:0:0:0:
64,192,214083,1,0,0:0:0:0:
192,192,214083,1,2,0:0:0:0:
320,192,214255,128,0,214341:0:0:0:0:
64,192,214427,1,0,0:0:0:0:
320,192,214427,1,0,0:0:0:0:
448,192,214427,1,8,0:0:0:0:
192,192,214600,128,0,214686:0:0:0:0:
192,192,214772,1,0,0:0:0:0:
448,192,214945,128,2,215031:0:0:0:0:
320,192,214945,1,0,0:0:0:0:
64,192,215117,1,0,0:0:0:0:
192,192,215117,1,0,0:0:0:0:
448,192,215117,1,8,0:0:0:0:
448,192,215290,128,0,215376:0:0:0:0:
64,192,215462,1,0,0:0:0:0:
448,192,215462,1,2,0:0:0:0:
320,192,215634,128,0,215721:0:0:0:0:
64,192,215807,1,0,0:0:0:0:
320,192,215807,1,0,0:0:0:0:
448,192,215807,1,8,0:0:0:0:
192,192,215979,128,0,216065:0:0:0:0:
192,192,216152,1,0,0:0:0:0:
320,192,216324,128,0,216410:0:0:0:0:
448,192,216324,1,2,0:0:0:0:
64,192,216496,1,0,0:0:0:0:
192,192,216496,1,0,0:0:0:0:
448,192,216496,1,8,0:0:0:0:
320,192,216669,128,0,216755:0:0:0:0:
320,192,216841,1,0,0:0:0:0:
448,192,216841,1,2,0:0:0:0:
192,192,217014,128,0,217100:0:0:0:0:
448,192,217186,5,8,0:0:0:0:
64,192,217186,1,0,0:0:0:0:
192,192,217186,1,0,0:0:0:0:
320,192,217358,128,0,217445:0:0:0:0:
320,192,217531,1,0,0:0:0:0:
192,192,217703,128,2,217790:0:0:0:0:
64,192,217703,1,0,0:0:0:0:
64,192,217876,1,0,0:0:0:0:
320,192,217876,1,0,0:0:0:0:
448,192,217876,1,8,0:0:0:0:
192,192,218048,128,0,218134:0:0:0:0:
320,192,218221,128,0,218565:0:0:0:0:
64,192,218393,1,0,0:0:0:0:
192,192,218565,128,0,218738:0:0:0:0:
448,192,218738,128,0,218910:0:0:0:0:
64,192,218910,128,0,219083:0:0:0:0:
320,192,219083,128,0,219255:0:0:0:0:
192,192,219255,128,0,219427:0:0:0:0:
448,192,219427,128,0,219600:0:0:0:0:
192,192,219600,128,0,219945:0:0:0:0:
448,192,219772,1,0,0:0:0:0:
320,192,219945,128,0,220117:0:0:0:0:
64,192,220117,128,0,220290:0:0:0:0:
448,192,220290,128,0,220462:0:0:0:0:
192,192,220462,128,0,220634:0:0:0:0:
320,192,220634,128,0,220807:0:0:0:0:
64,192,220807,128,0,220979:0:0:0:0:
320,192,220979,128,0,222358:0:0:0:80:LR_RBell_D5.wav
448,192,220979,1,0,0:0:0:0:
64,192,222358,128,0,223738:0:0:0:0:
192,192,222358,1,0,0:0:0:0:
320,192,223738,1,0,0:0:0:80:LR_RBell_A4.wav
448,192,223738,128,0,225117:0:0:0:0:
64,192,225117,1,0,0:0:0:0:
192,192,225117,128,0,226496:0:0:0:0:
320,192,226496,128,0,227876:0:0:0:80:LR_RBell_B4.wav
448,192,226496,1,0,0:0:0:0:
64,192,227876,1,0,0:0:0:0:
192,192,227876,128,0,229255:0:0:0:0:
320,192,229255,1,0,0:0:0:80:LR_RBell_G4.wav
448,192,229255,128,0,230634:0:0:0:0:
64,192,230634,128,0,232014:0:0:0:0:
192,192,230634,1,0,0:0:0:0:
320,192,231669,1,0,0:0:0:0:
320,192,232014,128,0,233393:0:0:0:80:LR_RBell_D5.wav
448,192,232014,1,0,0:0:0:0:
64,192,233393,128,0,234772:0:0:0:0:
192,192,233393,1,0,0:0:0:0:
320,192,234772,1,0,0:0:0:80:LR_RBell_A4.wav
448,192,234772,128,0,236152:0:0:0:0:
64,192,236152,1,0,0:0:0:0:
192,192,236152,128,0,237531:0:0:0:0:
320,192,237531,128,0,238910:0:0:0:70:LR_RBell_B4.wav
448,192,237531,1,0,0:0:0:0:
64,192,238910,128,0,240290:0:0:0:0:
192,192,238910,1,0,0:0:0:0:
320,192,240290,1,0,0:0:0:80:LR_RBell_G4.wav
448,192,240290,128,0,241496:0:0:0:0:
64,192,241496,1,0,0:0:0:0:
192,192,241496,128,0,242703:0:0:0:0:
320,192,242703,128,0,243048:0:0:0:0:
448,192,242703,1,0,0:0:0:0:
