osu file format v14

[General]
AudioFilename: audio.mp3
AudioLeadIn: 0
PreviewTime: 43561
Countdown: 0
SampleSet: Soft
StackLeniency: 0.5
Mode: 0
LetterboxInBreaks: 0
WidescreenStoryboard: 1

[Editor]
Bookmarks: 113,22181,44250,66319,88388,110457
DistanceSpacing: 1.4
BeatDivisor: 4
GridSize: 32
TimelineZoom: 2.2

[Metadata]
Title:Cold Green Eyes feat. Roos Denayer (Cut Ver.)
TitleUnicode:Cold Green Eyes feat. Roos Denayer (Cut Ver.)
Artist:Station Earth
ArtistUnicode:Station Earth
Creator:Xayah
Version:elicz1's Insane
Source:
Tags:electronic english drum and bass dnb version galaxy of dreams 2 liquicity glaceon elicz1 featured artist fa
BeatmapID:2684311
BeatmapSetID:932624

[Difficulty]
HPDrainRate:5
CircleSize:3.8
OverallDifficulty:8
ApproachRate:8.5
SliderMultiplier:1.9
SliderTickRate:1

[Events]
//Background and Video events
0,0,"coldgreen_eyes.jpg",0,0
//Break Periods
//Storyboard Layer 0 (Background)
//Storyboard Layer 1 (Fail)
//Storyboard Layer 2 (Pass)
//Storyboard Layer 3 (Foreground)
//Storyboard Layer 4 (Overlay)
//Storyboard Sound Samples

[TimingPoints]
113,344.827586206897,4,2,1,50,1,0
22181,-166.666666666667,4,2,1,50,0,0
37613,-166.666666666667,4,2,1,5,0,0
37699,-166.666666666667,4,2,1,50,0,0
38733,-166.666666666667,4,2,1,65,0,0
40371,-166.666666666667,4,2,1,5,0,0
40457,-166.666666666667,4,2,1,65,0,0
44250,-111.111111111111,4,2,5,80,0,1
44279,-111.111111111111,4,2,1,80,0,1
45888,-111.111111111111,4,2,1,5,0,1
45975,-111.111111111111,4,2,1,80,0,1
47009,-111.111111111111,4,2,3,80,0,1
47038,-111.111111111111,4,2,1,80,0,1
47268,-111.111111111111,4,2,1,5,0,1
47354,-111.111111111111,4,2,1,80,0,1
49768,-111.111111111111,4,2,4,80,0,1
49796,-111.111111111111,4,2,1,80,0,1
51406,-111.111111111111,4,2,1,5,0,1
51492,-111.111111111111,4,2,1,80,0,1
52526,-111.111111111111,4,2,2,80,0,1
52555,-111.111111111111,4,2,1,80,0,1
52785,-111.111111111111,4,2,1,5,0,1
52871,-111.111111111111,4,2,1,80,0,1
54940,-111.111111111111,4,2,7,80,0,1
54969,-111.111111111111,4,2,1,80,0,1
55285,-111.111111111111,4,2,6,80,0,1
55314,-111.111111111111,4,2,1,80,0,1
56923,-111.111111111111,4,2,1,5,0,1
57009,-111.111111111111,4,2,1,80,0,1
58044,-111.111111111111,4,2,3,80,0,1
58072,-111.111111111111,4,2,1,80,0,1
58302,-111.111111111111,4,2,1,5,0,1
58388,-111.111111111111,4,2,1,80,0,1
60802,-111.111111111111,4,2,4,80,0,1
60831,-111.111111111111,4,2,1,80,0,1
62440,-111.111111111111,4,2,1,5,0,1
62526,-111.111111111111,4,2,1,80,0,1
63561,-111.111111111111,4,2,2,80,0,1
63590,-111.111111111111,4,2,1,80,0,1
63819,-111.111111111111,4,2,1,5,0,1
63906,-111.111111111111,4,2,1,80,0,1
66319,-125,4,2,5,65,0,0
66348,-125,4,2,1,65,0,0
67613,-125,4,2,1,5,0,0
67699,-125,4,2,1,65,0,0
69078,-125,4,2,3,65,0,0
69107,-125,4,2,1,65,0,0
70371,-125,4,2,1,5,0,0
70457,-125,4,2,1,65,0,0
71837,-125,4,2,4,65,0,0
71865,-125,4,2,1,65,0,0
72095,-125,4,2,1,5,0,0
72181,-125,4,2,1,65,0,0
72613,-125,4,2,1,5,0,0
72699,-125,4,2,1,65,0,0
73130,-125,4,2,1,5,0,0
73216,-125,4,2,1,65,0,0
74595,-125,4,2,2,65,0,0
74624,-125,4,2,1,65,0,0
77009,-125,4,2,7,65,0,0
77038,-125,4,2,1,65,0,0
77354,-125,4,2,6,65,0,0
77383,-125,4,2,1,65,0,0
80113,-125,4,2,3,65,0,0
80141,-125,4,2,1,65,0,0
81750,-125,4,2,1,5,0,0
81836,-125,4,2,1,65,0,0
81837,-125,4,2,1,65,0,0
82871,-125,4,2,4,65,0,0
82900,-125,4,2,1,65,0,0
84509,-125,4,2,1,5,0,0
84595,-125,4,2,1,65,0,0
85630,-125,4,2,2,65,0,0
85658,-125,4,2,1,65,0,0
88388,-142.857142857143,4,2,1,50,0,0
88647,-142.857142857143,4,2,1,5,0,0
88733,-142.857142857143,4,2,1,50,0,0
93130,-142.857142857143,4,2,1,5,0,0
93216,-142.857142857143,4,2,1,50,0,0
94164,-142.857142857143,4,2,1,5,0,0
94250,-142.857142857143,4,2,1,50,0,0
95888,-142.857142857143,4,2,1,5,0,0
95975,-142.857142857143,4,2,1,50,0,0
96578,-142.857142857143,4,2,1,5,0,0
96664,-142.857142857143,4,2,1,50,0,0
99681,-142.857142857143,4,2,1,5,0,0
99768,-142.857142857143,4,2,1,50,0,0
104164,-142.857142857143,4,2,1,5,0,0
104250,-142.857142857143,4,2,1,50,0,0
105199,-142.857142857143,4,2,1,5,0,0
105285,-142.857142857143,4,2,1,50,0,0
106923,-142.857142857143,4,2,1,5,0,0
107009,-142.857142857143,4,2,1,50,0,0
107613,-142.857142857143,4,2,1,5,0,0
107699,-142.857142857143,4,2,1,50,0,0
110285,-125,4,2,1,5,0,0
110457,-200,4,2,5,45,0,0
110486,-200,4,2,1,45,0,0
113216,-200,4,2,3,45,0,0
113245,-200,4,2,1,45,0,0
115975,-200,4,2,4,45,0,0
116003,-200,4,2,1,45,0,0
118733,-200,4,2,2,45,0,0
118762,-200,4,2,1,45,0,0
121147,-200,4,2,7,45,0,0
121176,-200,4,2,1,45,0,0
121492,-200,4,2,6,45,0,0
121521,-200,4,2,1,45,0,0
124250,-200,4,2,3,45,0,0
124279,-200,4,2,1,45,0,0
127009,-200,4,2,4,45,0,0
127037,-200,4,2,1,45,0,0
129768,-200,4,2,2,45,0,0
129797,-200,4,2,1,45,0,0
130917,-200,4,2,1,45,0,0
132181,-200,4,2,7,45,0,0
132210,-200,4,2,1,45,0,0
132526,-200,4,2,1,5,0,0

[Colours]
Combo1 : 228,94,232
Combo2 : 38,214,223
Combo3 : 60,117,213
Combo4 : 181,84,205

[HitObjects]
256,192,11147,12,0,13906,0:0:0:0:
256,192,16664,12,0,20802,0:0:0:0:
452,276,22181,6,0,P|391:286|334:244,1,113.999996520996,2|0,0:2|0:0,0:0:0:0:
202,226,22699,2,0,P|264:194|317:181,1,113.999996520996,2|0,0:2|0:0,0:0:0:0:
409,188,23216,2,0,P|399:153|481:52,1,170.999994781494,2|0,0:2|0:0,0:0:0:0:
360,22,23906,2,0,B|297:3|249:34|267:90|197:110|133:71,1,227.999993041992,2|0,0:2|0:0,0:0:0:0:
63,15,24768,5,2,0:2:0:0:
63,15,24940,2,0,P|68:82|58:145,1,113.999996520996,2|0,0:2|0:0,0:0:0:0:
22,274,25457,2,0,P|64:225|137:221,1,113.999996520996,2|0,0:2|0:0,0:0:0:0:
269,272,25975,2,0,B|228:258|177:277|198:301|150:331|93:301,1,170.999994781494,2|0,0:2|0:0,0:0:0:0:
127,197,26664,2,0,P|211:115|283:191,1,227.999993041992,2|0,0:2|0:0,0:0:0:0:
263,327,27526,5,2,0:2:0:0:
263,327,27699,2,0,P|328:326|399:346,1,113.999996520996,2|0,0:2|0:0,0:0:0:0:
499,347,28216,2,0,P|464:303|472:249,1,113.999996520996,2|0,0:2|0:0,0:0:0:0:
512,142,28733,2,0,P|410:146|365:79,1,170.999994781494,2|0,0:2|0:0,0:0:0:0:
310,3,29423,6,0,P|297:19|281:55,1,56.9999982604981,2|2,0:2|0:2,0:0:0:0:
203,102,29768,2,0,P|195:75|166:31,2,56.9999982604981,2|2|0,0:2|0:2|0:0,0:0:0:0:
201,192,30285,1,2,0:2:0:0:
111,119,30457,6,0,L|102:175,1,56.9999982604981
18,238,30802,2,0,L|7:180,1,56.9999982604981
115,273,31147,2,0,L|183:285,1,56.9999982604981
112,363,31492,2,0,L|40:377,1,56.9999982604981
203,364,31837,5,2,0:2:0:0:
253,265,32009,1,0,0:0:0:0:
135,218,32181,2,0,L|148:288,1,56.9999982604981
220,178,32526,2,0,L|235:116,1,56.9999982604981
174,53,32871,1,0,0:0:0:0:
174,53,33044,1,0,0:0:0:0:
376,17,33216,6,0,P|327:103|364:168,1,170.999994781494,2|0,0:2|0:0,0:0:0:0:
440,191,33906,2,0,P|466:180|494:177,2,56.9999982604981,2|2|2,0:2|0:2|0:2,0:0:0:0:
372,252,34423,1,2,0:2:0:0:
237,197,34595,6,0,P|237:246|224:290,1,85.4999973907472,2|2,0:2|0:2,0:0:0:0:
90,360,35113,2,0,P|149:351|210:387,2,113.999996520996,2|2|2,0:2|0:2|0:2,0:0:0:0:
0,282,35975,2,0,B|52:292|88:260|73:238|118:209|158:215,1,170.999994781494,2|0,0:2|0:0,0:0:0:0:
262,269,36664,6,0,P|290:277|333:282,1,56.9999982604981,2|2,0:2|0:2,0:0:0:0:
379,168,37009,2,0,P|352:180|311:193,1,56.9999982604981,2|2,0:2|0:2,0:0:0:0:
243,87,37354,2,0,P|229:120|232:186,1,85.4999973907472,2|0,0:2|0:0,0:0:0:0:
235,181,37699,1,2,0:2:0:0:
133,125,37871,2,0,P|77:129|28:101,2,113.999996520996,2|2|2,0:2|0:2|0:2,0:0:0:0:
131,265,38733,6,0,P|141:304|153:387,1,113.999996520996,0|0,1:2|1:2,0:0:0:0:
313,226,39423,2,0,P|299:263|278:344,1,113.999996520996,0|0,1:2|1:2,0:0:0:0:
487,291,40113,2,0,P|433:282|388:264,1,85.4999973907472,0|0,1:2|0:0,0:0:0:0:
398,261,40457,5,2,1:2:0:0:
463,142,40630,1,2,0:2:0:0:
304,129,40802,2,0,P|302:98|291:63,1,56.9999982604981,2|2,1:2|0:2,0:0:0:0:
409,16,41147,2,0,P|399:42|395:70,1,56.9999982604981,2|2,1:2|0:2,0:0:0:0:
300,231,41492,6,0,P|238:212|188:212,1,113.999996520996,2|0,1:2|1:2,0:0:0:0:
75,331,42009,2,0,P|105:378|172:365,1,113.999996520996,2|0,0:2|0:0,0:0:0:0:
221,306,42526,1,2,1:2:0:0:
221,306,42871,5,2,0:2:0:0:
97,237,43044,1,2,0:2:0:0:
202,175,43216,2,0,L|219:115,1,56.9999982604981,2|2,0:2|0:2,0:0:0:0:
112,56,43561,2,0,L|123:111,1,56.9999982604981,2|2,0:2|0:2,0:0:0:0:
50,159,43906,1,2,0:2:0:0:
50,159,44078,1,2,0:2:0:0:
207,27,44250,6,0,P|249:27|289:48,1,85.4999973907472,6|0,1:2|0:0,0:0:0:0:
327,207,44595,2,0,P|375:100|428:80,1,170.999994781494,8|0,0:2|0:0,0:0:0:0:
507,85,45113,1,0,1:2:0:0:
474,288,45285,2,0,P|428:276|364:273,1,85.4999973907472,8|0,0:2|0:0,0:0:0:0:
155,226,45630,6,0,P|201:272|189:333,1,128.249996086121,0|0,1:2|0:0,0:0:0:0:
183,342,45975,2,0,B|234:320|274:342|260:368|305:398|349:380,1,170.999994781494,8|0,0:2|0:0,0:0:0:0:
420,360,46492,1,0,1:2:0:0:
309,172,46664,2,0,P|295:206|287:274,1,85.4999973907472,8|0,0:2|0:0,0:0:0:0:
499,256,47009,6,0,P|434:217|366:240,1,128.249996086121,2|0,1:2|0:0,0:0:0:0:
379,241,47354,2,0,P|398:187|357:85,1,170.999994781494,8|0,0:2|0:0,0:0:0:0:
293,26,47871,1,0,1:2:0:0:
512,67,48044,2,0,P|492:107|483:155,1,85.4999973907472,8|0,0:2|0:0,0:0:0:0:
494,338,48388,6,0,L|405:325,1,85.4999973907472,2|0,1:2|0:0,0:0:0:0:
217,348,48733,1,10,0:2:0:0:
343,384,48906,1,0,0:0:0:0:
267,253,49078,1,2,0:2:0:0:
267,253,49250,1,0,1:2:0:0:
89,324,49423,2,0,L|75:221,1,85.4999973907472,10|0,0:2|0:0,0:0:0:0:
10,66,49768,6,0,P|58:58|105:29,1,85.4999973907472,6|0,1:2|0:0,0:0:0:0:
289,124,50113,2,0,B|239:105|192:137|214:161|168:191|125:176,1,170.999994781494,8|0,0:2|0:0,0:0:0:0:
60,148,50630,1,0,1:2:0:0:
242,291,50802,2,0,P|268:246|272:206,1,85.4999973907472,8|0,0:2|0:0,0:0:0:0:
512,216,51147,6,0,P|475:266|413:270,1,128.249996086121,0|0,1:2|0:0,0:0:0:0:
407,260,51492,2,0,P|366:190|416:128,1,170.999994781494,8|0,0:2|0:0,0:0:0:0:
501,129,52009,1,0,1:2:0:0:
430,355,52181,2,0,P|385:343|332:338,1,85.4999973907472,8|0,0:2|0:0,0:0:0:0:
153,366,52526,6,0,P|218:337|229:259,1,128.249996086121,2|0,1:2|0:0,0:0:0:0:
225,277,52871,2,0,P|174:201|168:118,1,170.999994781494,8|0,0:2|0:0,0:0:0:0:
184,40,53388,1,0,1:2:0:0:
0,188,53561,2,0,P|40:163|91:159,1,85.4999973907472,8|0,0:2|0:0,0:0:0:0:
62,351,53906,6,0,L|71:263,1,85.4999973907472,2|0,1:2|0:0,0:0:0:0:
17,67,54250,1,10,0:2:0:0:
1,203,54422,1,0,0:0:0:0:
148,132,54595,1,2,0:2:0:0:
114,41,54768,1,0,1:2:0:0:
227,76,54940,1,10,0:2:0:0:
114,41,55113,1,0,1:2:0:0:
347,4,55285,6,0,P|324:42|319:84,1,85.4999973907472,6|0,1:2|0:0,0:0:0:0:
493,194,55630,2,0,P|411:192|304:218,1,170.999994781494,8|0,0:2|0:0,0:0:0:0:
247,245,56148,1,0,1:2:0:0:
456,365,56320,2,0,P|468:319|471:255,1,85.4999973907472,8|0,0:2|0:0,0:0:0:0:
408,69,56665,6,0,P|323:72|285:33,1,128.249996086121,0|0,1:2|0:0,0:0:0:0:
297,35,57010,2,0,P|303:93|192:146,1,170.999994781494,8|0,0:2|0:0,0:0:0:0:
141,111,57527,1,0,1:2:0:0:
367,169,57699,2,0,P|384:204|391:269,1,85.4999973907472,8|0,0:2|0:0,0:0:0:0:
154,368,58044,6,0,P|210:361|246:288,1,128.249996086121,2|0,1:2|0:0,0:0:0:0:
241,291,58389,2,0,B|284:276|329:310|309:332|349:357|405:346,1,170.999994781494,8|0,0:2|0:0,0:0:0:0:
471,319,58906,1,0,1:2:0:0:
503,107,59079,2,0,P|483:147|474:195,1,85.4999973907472,8|0,0:2|0:0,0:0:0:0:
292,205,59423,6,0,L|203:192,1,85.4999973907472,2|0,1:2|0:0,0:0:0:0:
141,339,59768,1,10,0:2:0:0:
94,219,59941,1,0,0:0:0:0:
241,291,60113,1,2,0:2:0:0:
241,291,60285,1,0,1:2:0:0:
35,283,60458,2,0,L|21:386,1,85.4999973907472,10|0,0:2|0:0,0:0:0:0:
28,133,60803,6,0,P|78:125|123:96,1,85.4999973907472,6|0,1:2|0:0,0:0:0:0:
321,136,61148,2,0,P|254:158|213:53,1,170.999994781494,8|0,0:2|0:0,0:0:0:0:
220,1,61665,1,0,1:2:0:0:
139,198,61837,2,0,P|157:246|164:285,1,85.4999973907472,8|0,0:2|0:0,0:0:0:0:
391,329,62182,6,0,P|354:379|292:383,1,128.249996086121,0|0,1:2|0:0,0:0:0:0:
283,372,62527,2,0,P|263:259|286:204,1,170.999994781494,8|0,0:2|0:0,0:0:0:0:
342,142,63044,1,0,1:2:0:0:
501,263,63216,2,0,P|456:251|403:246,1,85.4999973907472,8|0,0:2|0:0,0:0:0:0:
512,30,63561,6,0,P|447:59|436:137,1,128.249996086121,2|0,1:2|0:0,0:0:0:0:
437,120,63906,2,0,P|358:41|292:49,1,170.999994781494,8|0,0:2|0:0,0:0:0:0:
228,81,64423,1,0,1:2:0:0:
321,250,64596,2,0,P|338:208|347:163,1,85.4999973907472,8|0,0:2|0:0,0:0:0:0:
112,209,64941,6,0,L|200:200,1,85.4999973907472,2|0,1:2|0:0,0:0:0:0:
291,381,65285,1,10,0:2:0:0:
134,333,65457,1,0,0:0:0:0:
284,249,65630,1,2,0:2:0:0:
229,320,65802,1,0,1:2:0:0:
389,297,65975,1,10,0:2:0:0:
229,320,66147,1,0,1:2:0:0:
384,189,66319,6,0,P|355:154|336:100,1,76,6|0,1:2|0:0,0:0:0:0:
333,36,66664,1,8,0:2:0:0:
146,134,66837,2,0,P|175:79|260:93,1,152,2|0,0:0|1:2,0:0:0:0:
187,252,67354,2,0,P|136:224|69:217,1,114,10|0,0:2|0:0,0:0:0:0:
68,226,67699,2,0,P|39:258|43:301,1,76,0|0,1:2|0:0,0:0:0:0:
192,347,68044,6,0,B|236:354|279:323|263:301|292:277|338:289,1,152,10|0,0:2|0:0,0:0:0:0:
409,308,68561,1,0,1:2:0:0:
336,182,68733,1,8,0:2:0:0:
409,308,68906,1,2,0:0:0:0:
453,152,69078,6,0,P|457:109|476:62,1,76,2|0,1:2|0:0,0:0:0:0:
512,8,69423,1,8,0:2:0:0:
329,63,69595,2,0,B|279:74|241:54|263:25|222:-1|180:12,1,152,2|0,0:0|1:2,0:0:0:0:
112,178,70113,2,0,P|174:170|227:145,1,114,10|0,0:2|0:0,0:0:0:0:
226,138,70457,2,0,P|236:180|262:223,1,76,0|0,1:2|0:0,0:0:0:0:
497,230,70802,6,0,P|411:187|365:237,1,152,10|0,0:2|0:0,0:0:0:0:
345,301,71319,1,0,1:2:0:0:
318,141,71492,1,8,0:2:0:0:
345,301,71664,1,2,0:0:0:0:
180,259,71837,6,0,P|148:303|136:368,1,114,2|0,1:2|0:0,0:0:0:0:
146,369,72181,1,8,0:2:0:0:
13,190,72354,2,0,P|38:236|46:321,1,114,2|0,0:0|0:0,0:0:0:0:
37,305,72698,1,0,1:2:0:0:
120,172,72871,2,0,P|179:167|237:132,1,114,10|0,0:2|0:0,0:0:0:0:
223,127,73216,2,0,P|221:75|193:45,1,76,0|0,1:2|0:0,0:0:0:0:
447,112,73561,6,0,P|426:143|410:191,1,76,10|2,0:2|0:0,0:0:0:0:
348,257,73906,2,0,P|329:217|304:191,2,76,2|2|8,0:0|1:2|0:2,0:0:0:0:
340,348,74423,1,2,0:0:0:0:
178,322,74595,6,0,L|103:340,1,76,2|0,1:2|0:0,0:0:0:0:
28,236,74940,2,0,L|108:247,1,76,8|0,0:2|0:0,0:0:0:0:
212,149,75285,2,0,L|197:230,1,76,0|0,0:0|1:2,0:0:0:0:
311,164,75630,2,0,L|297:85,1,76,8|0,0:2|0:0,0:0:0:0:
169,35,75975,5,2,1:2:0:0:
116,162,76147,1,0,0:0:0:0:
290,258,76319,2,0,L|383:243,1,76,10|0,0:2|0:0,0:0:0:0:
453,346,76664,2,0,L|360:328,1,76,2|0,0:2|1:2,0:0:0:0:
287,364,77009,1,10,0:2:0:0:
287,364,77182,1,0,1:2:0:0:
188,221,77354,6,0,P|199:257|201:295,1,76,6|0,1:2|0:0,0:0:0:0:
185,380,77699,1,8,0:2:0:0:
72,311,77871,1,0,0:0:0:0:
133,152,78044,2,0,P|179:135|228:144,2,76,2|2|10,0:0|1:2|0:2,0:0:0:0:
74,219,78561,1,2,0:0:0:0:
284,245,78733,6,0,P|341:215|380:209,1,76,2|2,1:2|1:2,0:0:0:0:
359,224,78992,1,0,1:0:0:0:
367,236,79078,1,8,0:2:0:0:
435,123,79251,2,0,P|357:128|294:59,1,152,2|2,0:0|1:2,0:0:0:0:
272,0,79768,1,8,0:2:0:0:
389,19,79940,1,2,0:0:0:0:
249,159,80113,6,0,L|168:170,1,76,2|0,1:2|0:0,0:0:0:0:
136,63,80457,2,0,L|221:74,1,76,8|0,0:2|0:0,0:0:0:0:
59,241,80802,6,0,P|74:203|75:163,1,76,2|2,0:0|1:2,0:0:0:0:
47,86,81147,1,10,0:2:0:0:
165,159,81319,1,2,0:0:0:0:
111,323,81492,2,0,P|175:309|206:247,1,114,2|0,1:2|0:0,0:0:0:0:
196,260,81837,1,10,0:2:0:0:
367,361,82009,2,0,P|333:287|329:197,1,152,2|2,0:0|1:2,0:0:0:0:
335,133,82526,1,8,0:2:0:0:
247,191,82699,1,2,0:0:0:0:
435,296,82871,6,0,L|529:284,1,76,2|0,1:2|0:0,0:0:0:0:
471,203,83216,2,0,L|383:192,1,76,8|0,0:2|0:0,0:0:0:0:
496,79,83561,2,0,L|515:-7,1,76,0|0,0:0|1:2,0:0:0:0:
393,32,83906,2,0,L|406:107,1,76,8|0,0:2|0:0,0:0:0:0:
316,218,84250,6,0,P|269:228|214:198,1,114,0|0,1:2|0:0,0:0:0:0:
215,184,84595,1,10,0:2:0:0:
224,60,84768,1,2,0:0:0:0:
57,88,84940,2,0,P|56:123|43:161,1,76,2|2,0:0|1:2,0:0:0:0:
148,246,85285,2,0,P|131:211|126:169,1,76,10|2,0:2|0:0,0:0:0:0:
290,114,85630,6,0,B|332:101|372:128|354:151|393:180|447:165,1,152,2|8,1:2|0:2,0:0:0:0:
394,310,86147,2,0,P|324:290|277:345,1,152,2|0,0:0|1:2,0:0:0:0:
205,192,86664,1,10,0:2:0:0:
205,192,87009,5,2,1:2:0:0:
334,206,87182,1,0,0:0:0:0:
161,310,87354,2,0,L|146:384,1,76,10|0,0:2|0:0,0:0:0:0:
73,281,87699,2,0,L|61:205,1,76,2|0,0:2|1:2,0:0:0:0:
126,139,88044,1,10,0:2:0:0:
126,139,88216,1,0,1:2:0:0:
4,60,88388,6,0,P|57:49|96:12,1,99.7499969558717,4|0,1:2|0:0,0:0:0:0:
88,8,88733,2,0,P|121:33|154:32,1,66.4999979705811,8|0,0:0|0:0,0:0:0:0:
229,20,89078,1,0,0:0:0:0:
276,140,89250,1,0,1:2:0:0:
279,126,89337,1,0,1:2:0:0:
282,112,89423,2,0,L|203:103,1,66.4999979705811,8|0,0:0|0:0,0:0:0:0:
380,21,89768,6,0,L|369:101,1,66.4999979705811,0|0,1:2|1:0,0:0:0:0:
383,93,90026,1,0,1:0:0:0:
395,99,90113,2,0,L|408:189,1,66.4999979705811,8|0,0:0|0:0,0:0:0:0:
331,295,90457,1,0,0:0:0:0:
248,218,90630,1,0,1:2:0:0:
410,247,90802,2,0,L|480:255,1,66.4999979705811,8|0,0:0|0:0,0:0:0:0:
401,378,91147,6,0,L|411:329,2,33.2499989852906,0|0|0,1:2|1:0|1:0,0:0:0:0:
174,312,91492,2,0,L|240:304,1,66.4999979705811,8|0,0:0|1:0,0:0:0:0:
240,318,91750,1,0,1:0:0:0:
240,332,91837,1,0,0:0:0:0:
104,384,92009,1,0,1:2:0:0:
136,232,92181,2,0,L|56:221,1,66.4999979705811,8|0,0:0|0:0,0:0:0:0:
127,109,92526,5,0,1:2:0:0:
124,123,92613,1,0,1:0:0:0:
121,137,92699,1,0,1:0:0:0:
241,176,92871,2,0,P|223:133|227:69,1,99.7499969558717,8|0,0:0|0:0,0:0:0:0:
234,71,93216,1,0,0:0:0:0:
383,83,93388,1,0,1:2:0:0:
386,97,93475,1,0,1:2:0:0:
389,111,93561,2,0,L|310:119,1,66.4999979705811,8|0,0:0|0:0,0:0:0:0:
323,295,93906,6,0,P|372:324|419:303,1,99.7499969558717,0|0,1:2|0:0,0:0:0:0:
415,299,94251,2,0,P|422:260|411:235,1,66.4999979705811,8|0,0:0|0:0,0:0:0:0:
327,204,94596,1,0,0:0:0:0:
199,285,94768,1,0,1:2:0:0:
214,286,94855,1,0,1:2:0:0:
229,287,94940,2,0,L|216:365,1,66.4999979705811,8|0,0:0|0:0,0:0:0:0:
46,378,95286,6,0,L|129:366,1,66.4999979705811,0|0,1:2|1:0,0:0:0:0:
117,356,95544,1,0,1:0:0:0:
124,342,95630,2,0,P|102:308|119:235,1,99.7499969558717,8|0,0:0|0:0,0:0:0:0:
121,243,95975,1,0,0:0:0:0:
13,175,96148,1,0,1:2:0:0:
190,121,96320,2,0,P|127:109|111:72,1,99.7499969558717,8|0,0:0|0:0,0:0:0:0:
116,67,96664,6,0,L|133:19,2,33.2499989852906,0|0|0,1:2|1:0|1:0,0:0:0:0:
265,57,97009,1,8,1:2:0:0:
279,54,97096,1,0,1:0:0:0:
293,51,97182,2,0,L|302:130,1,66.4999979705811
225,209,97527,1,0,1:2:0:0:
383,233,97699,2,0,L|295:249,1,66.4999979705811,8|0,0:0|0:0,0:0:0:0:
375,345,98044,5,0,1:2:0:0:
389,347,98130,1,0,1:0:0:0:
404,349,98217,1,0,1:0:0:0:
470,261,98389,2,0,L|482:177,1,66.4999979705811,8|0,0:0|0:0,0:0:0:0:
492,110,98733,1,0,0:0:0:0:
366,136,98906,1,0,1:2:0:0:
352,139,98993,1,0,1:2:0:0:
338,142,99079,2,0,L|331:75,1,66.4999979705811,8|0,0:0|1:2,0:0:0:0:
159,173,99423,6,0,P|213:162|237:120,1,99.7499969558717,4|0,1:2|0:0,0:0:0:0:
233,112,99768,2,0,P|221:71|201:47,1,66.4999979705811,8|0,0:0|0:0,0:0:0:0:
133,3,100113,1,0,0:0:0:0:
50,128,100285,1,0,1:2:0:0:
47,114,100372,1,0,1:2:0:0:
44,100,100458,2,0,L|123:91,1,66.4999979705811,8|0,0:0|0:0,0:0:0:0:
100,237,100803,6,0,L|90:302,1,66.4999979705811,0|0,1:2|1:0,0:0:0:0:
79,308,101062,1,0,1:0:0:0:
67,314,101148,2,0,L|76:379,1,66.4999979705811,8|0,0:0|0:0,0:0:0:0:
222,384,101492,1,0,0:0:0:0:
181,279,101665,1,0,1:2:0:0:
358,304,101837,2,0,L|288:312,1,66.4999979705811,8|0,0:0|0:0,0:0:0:0:
264,180,102181,6,0,L|213:171,2,33.2499989852906,0|0|0,1:2|1:0|1:0,0:0:0:0:
397,204,102527,2,0,L|407:137,1,66.4999979705811,8|0,0:0|0:0,0:0:0:0:
421,141,102785,1,0,1:0:0:0:
435,143,102872,1,0,1:2:0:0:
476,268,103044,1,0,1:2:0:0:
291,311,103216,2,0,L|304:394,1,66.4999979705811,8|0,0:0|0:0,0:0:0:0:
143,310,103561,5,0,1:2:0:0:
146,296,103648,1,0,1:0:0:0:
150,282,103734,1,0,1:0:0:0:
103,133,103906,2,0,P|136:172|200:168,1,99.7499969558717,8|0,0:0|0:0,0:0:0:0:
191,166,104251,1,0,0:0:0:0:
307,45,104423,1,0,1:2:0:0:
310,59,104510,1,0,1:2:0:0:
313,73,104596,2,0,L|234:81,1,66.4999979705811,8|0,0:0|0:0,0:0:0:0:
327,204,104941,6,0,P|367:172|423:178,1,99.7499969558717,0|0,1:2|0:0,0:0:0:0:
421,185,105286,2,0,P|423:221|440:251,1,66.4999979705811,8|0,0:0|0:0,0:0:0:0:
511,295,105631,1,0,0:0:0:0:
366,319,105803,1,0,1:2:0:0:
365,334,105888,1,0,1:2:0:0:
364,349,105976,2,0,L|282:337,1,66.4999979705811,8|0,0:0|0:0,0:0:0:0:
151,362,106319,6,0,L|160:278,1,66.4999979705811,0|0,1:2|1:0,0:0:0:0:
147,287,106579,1,0,1:0:0:0:
135,277,106665,2,0,P|116:217|142:177,1,99.7499969558717,8|0,0:0|0:0,0:0:0:0:
145,182,107010,1,0,0:0:0:0:
251,254,107181,1,0,1:2:0:0:
281,112,107355,2,0,P|225:113|184:79,1,99.7499969558717,8|0,0:0|0:0,0:0:0:0:
256,192,107699,12,0,110285,0:0:0:0:
391,359,110457,6,0,P|397:297|415:260,1,95,2|0,0:0|0:0,0:0:0:0:
511,194,110975,2,0,P|464:187|415:165,1,95,2|0,0:0|0:0,0:0:0:0:
292,80,111492,2,0,P|331:147|309:203,1,142.5,2|0,0:0|0:0,0:0:0:0:
224,151,112182,2,0,P|146:114|110:192,1,190,2|0,0:0|0:0,0:0:0:0:
198,338,113044,5,2,0:0:0:0:
198,338,113216,2,0,P|203:271|192:226,1,95,2|0,0:0|0:0,0:0:0:0:
30,268,113733,2,0,P|81:295|122:299,1,95,2|0,0:0|0:0,0:0:0:0:
188,101,114251,2,0,P|135:128|104:202,1,142.5,2|0,0:0|0:0,0:0:0:0:
295,185,114940,2,0,P|248:203|191:187,2,95,2|0|0,0:0|0:0|0:0,0:0:0:0:
386,61,115802,5,2,0:0:0:0:
386,60,115975,2,0,P|382:107|393:153,1,95,2|0,0:0|0:0,0:0:0:0:
456,287,116492,2,0,P|412:252|367:258,1,95,2|0,0:0|0:0,0:0:0:0:
195,352,117009,2,0,P|249:309|321:333,1,142.5,2|0,0:0|0:0,0:0:0:0:
309,178,117699,6,0,P|296:194|282:226,1,47.5,2|2,0:0|0:0,0:0:0:0:
207,153,118044,2,0,P|199:126|172:84,1,71.25,2|0,0:0|0:0,0:0:0:0:
180,243,118561,1,2,0:0:0:0:
284,93,118733,5,2,0:0:0:0:
284,93,121147,1,2,0:0:0:0:
432,154,121492,6,0,B|394:152|368:175|383:199|335:220|297:210,1,142.5,2|0,0:0|0:0,0:0:0:0:
174,175,122182,6,0,P|185:201|188:228,2,47.5,2|2|2,0:0|0:0|0:0,0:0:0:0:
116,102,122699,1,2,0:0:0:0:
7,217,122871,2,0,P|40:229|75:234,1,71.25,2|0,0:0|0:0,0:0:0:0:
139,347,123389,2,0,P|173:308|226:311,2,95,2|2|2,0:0|0:0|0:0,0:0:0:0:
323,362,124251,6,0,P|308:294|324:215,1,142.5,2|0,0:0|0:0,0:0:0:0:
295,113,124940,6,0,P|323:121|357:124,1,47.5,2|2,0:0|0:0,0:0:0:0:
449,171,125285,2,0,P|422:183|384:195,1,47.5,2|2,0:0|0:0,0:0:0:0:
438,12,125630,2,0,P|424:45|423:101,1,71.25,2|0,0:0|0:0,0:0:0:0:
230,44,126147,2,0,P|267:19|325:23,2,95,2|2|2,0:0|0:0|0:0,0:0:0:0:
196,128,127009,5,2,0:0:0:0:
196,128,128733,5,2,0:0:0:0:
120,63,128906,1,2,0:0:0:0:
190,224,129078,2,0,P|221:222|252:211,1,47.5,2|2,0:0|0:0,0:0:0:0:
302,324,129423,2,0,P|276:314|255:309,1,47.5,2|2,0:0|0:0,0:0:0:0:
97,360,129768,6,0,P|112:279|65:219,2,158.333333333333,2|0|0,0:0|0:0|0:0,0:0:0:0:
256,192,131061,12,0,132526,0:0:0:0:
