osu file format v14

[General]
AudioFilename: audio.mp3
AudioLeadIn: 0
PreviewTime: 43561
Countdown: 0
SampleSet: Soft
StackLeniency: 1
Mode: 0
LetterboxInBreaks: 0
WidescreenStoryboard: 1

[Editor]
Bookmarks: 113,11147,22181,33216,44250,55285,66319,77354,88388,99423,110457,121492,132526
DistanceSpacing: 1.4
BeatDivisor: 4
GridSize: 32
TimelineZoom: 1.7

[Metadata]
Title:Cold Green Eyes feat. Roos Denayer (Cut Ver.)
TitleUnicode:Cold Green Eyes feat. Roos Denayer (Cut Ver.)
Artist:Station Earth
ArtistUnicode:Station Earth
Creator:Xayah
Version:Hard
Source:
Tags:electronic english drum and bass dnb version galaxy of dreams 2 liquicity glaceon elicz1 featured artist fa
BeatmapID:1954903
BeatmapSetID:932624

[Difficulty]
HPDrainRate:4.5
CircleSize:3.5
OverallDifficulty:6.5
ApproachRate:7.3
SliderMultiplier:1.3
SliderTickRate:1

[Events]
//Background and Video events
0,0,"coldgreen_eyes.jpg",0,0
//Break Periods
//Storyboard Layer 0 (Background)
//Storyboard Layer 1 (Fail)
//Storyboard Layer 2 (Pass)
//Storyboard Layer 3 (Foreground)
//Storyboard Layer 4 (Overlay)
//Storyboard Sound Samples

[TimingPoints]
113,344.827586206897,4,2,1,50,1,0
22181,-100,4,2,1,50,0,0
38733,-100,4,2,1,65,0,0
44250,-90.9090909090909,4,2,5,80,0,1
44279,-90.9090909090909,4,2,1,80,0,1
45888,-90.9090909090909,4,2,1,5,0,1
45975,-90.9090909090909,4,2,1,80,0,1
47009,-90.9090909090909,4,2,3,80,0,1
47038,-90.9090909090909,4,2,1,80,0,1
49768,-90.9090909090909,4,2,4,80,0,1
49796,-90.9090909090909,4,2,1,80,0,1
51406,-90.9090909090909,4,2,1,5,0,1
51492,-90.9090909090909,4,2,1,80,0,1
52526,-90.9090909090909,4,2,2,80,0,1
52555,-90.9090909090909,4,2,1,80,0,1
54940,-90.9090909090909,4,2,7,80,0,1
54969,-90.9090909090909,4,2,1,80,0,1
55285,-90.9090909090909,4,2,6,80,0,1
55314,-90.9090909090909,4,2,1,80,0,1
56923,-90.9090909090909,4,2,1,5,0,1
57009,-90.9090909090909,4,2,1,80,0,1
58044,-90.9090909090909,4,2,3,80,0,1
58072,-90.9090909090909,4,2,1,80,0,1
60802,-90.9090909090909,4,2,4,80,0,1
60831,-90.9090909090909,4,2,1,80,0,1
62440,-90.9090909090909,4,2,1,5,0,1
62526,-90.9090909090909,4,2,1,80,0,1
63561,-90.9090909090909,4,2,2,80,0,1
63590,-90.9090909090909,4,2,1,80,0,1
66319,-90.9090909090909,4,2,5,65,0,0
66348,-90.9090909090909,4,2,1,65,0,0
69078,-90.9090909090909,4,2,3,65,0,0
69107,-90.9090909090909,4,2,1,65,0,0
71837,-90.9090909090909,4,2,4,65,0,0
71865,-90.9090909090909,4,2,1,65,0,0
73475,-90.9090909090909,4,2,1,5,0,0
73561,-90.9090909090909,4,2,1,65,0,0
74595,-90.9090909090909,4,2,2,65,0,0
74624,-90.9090909090909,4,2,1,65,0,0
77009,-90.9090909090909,4,2,7,65,0,0
77038,-90.9090909090909,4,2,1,65,0,0
77354,-90.9090909090909,4,2,6,65,0,0
77383,-90.9090909090909,4,2,1,65,0,0
80113,-90.9090909090909,4,2,3,65,0,0
80141,-90.9090909090909,4,2,1,65,0,0
80371,-90.9090909090909,4,2,1,5,0,0
80457,-90.9090909090909,4,2,1,65,0,0
81750,-90.9090909090909,4,2,1,5,0,0
81836,-90.9090909090909,4,2,1,65,0,0
82871,-90.9090909090909,4,2,4,65,0,0
82900,-90.9090909090909,4,2,1,65,0,0
85630,-90.9090909090909,4,2,2,65,0,0
85658,-90.9090909090909,4,2,1,65,0,0
88388,-100,4,2,1,50,0,0
94164,-100,4,2,1,5,0,0
94250,-100,4,2,1,50,0,0
96923,-100,4,2,1,5,0,0
97009,-100,4,2,1,50,0,0
110113,-100,4,2,1,5,0,0
110457,-100,4,2,5,45,0,0
110486,-100,4,2,1,45,0,0
113216,-100,4,2,3,45,0,0
113245,-100,4,2,1,45,0,0
115975,-100,4,2,4,45,0,0
116003,-100,4,2,1,45,0,0
118733,-100,4,2,2,45,0,0
118762,-100,4,2,1,45,0,0
121147,-100,4,2,7,45,0,0
121176,-100,4,2,1,45,0,0
121492,-100,4,2,6,45,0,0
121521,-100,4,2,1,45,0,0
124250,-100,4,2,3,45,0,0
124279,-100,4,2,1,45,0,0
127009,-100,4,2,4,45,0,0
127037,-100,4,2,1,45,0,0
129768,-100,4,2,2,45,0,0
129797,-100,4,2,1,45,0,0
130227,-100,4,2,1,5,0,0
130342,-100,4,2,1,45,0,0
130802,-100,4,2,1,5,0,0
130917,-100,4,2,1,45,0,0
132181,-100,4,2,7,45,0,0
132210,-100,4,2,1,45,0,0
132526,-100,4,2,1,5,0,0

[Colours]
Combo1 : 239,163,241
Combo2 : 51,217,225
Combo3 : 63,119,214
Combo4 : 190,107,211

[HitObjects]
256,192,11147,12,0,15285,0:0:0:0:
256,192,16664,12,0,20802,0:0:0:0:
325,351,22181,6,0,P|306:308|366:240,1,130,2|0,0:2|0:0,0:0:0:0:
424,205,22699,2,0,P|464:157|447:97,1,130,2|0,0:2|0:0,0:0:0:0:
377,50,23216,6,0,P|340:80|228:9,1,195,2|0,0:2|0:0,0:0:0:0:
146,39,23906,1,2,0:2:0:0:
146,39,24768,1,2,0:2:0:0:
61,37,24940,6,0,P|78:89|96:174,1,130,2|0,0:2|0:0,0:0:0:0:
178,175,25457,2,0,P|160:227|143:312,1,130,2|0,0:2|0:0,0:0:0:0:
200,364,25975,6,0,P|232:378|317:266,1,195,2|0,0:2|0:0,0:0:0:0:
285,203,26664,1,2,0:2:0:0:
285,203,27526,1,2,0:2:0:0:
207,168,27699,6,0,P|142:162|106:93,1,130,2|0,0:2|0:0,0:0:0:0:
25,133,28216,2,0,P|31:68|100:32,1,130,2|0,0:2|0:0,0:0:0:0:
160,61,28733,6,0,P|257:88|347:48,1,195,2|0,0:2|0:0,0:0:0:0:
422,30,29423,2,0,L|415:94,1,65,2|2,0:2|0:2,0:0:0:0:
459,167,29768,1,2,0:2:0:0:
459,167,29940,2,0,L|465:231,1,65,2|0,0:2|0:0,0:0:0:0:
451,315,30285,6,0,B|378:333|399:285|321:292,1,130,2|0,0:2|0:0,0:0:0:0:
263,348,30802,2,0,P|219:358|182:355,1,65
209,273,31147,2,0,P|178:239|162:206,1,65
247,189,31492,2,0,P|260:145|281:115,1,65
354,121,31837,6,0,L|436:141,2,65,2|0|0,0:2|0:0|0:0,0:0:0:0:
309,48,32354,1,0,0:0:0:0:
229,74,32526,2,0,P|197:91|147:94,1,65
86,114,32871,2,0,P|87:77|109:32,1,65
170,8,33216,5,2,0:2:0:0:
170,8,33906,2,0,L|174:72,1,65,2|2,0:2|0:2,0:0:0:0:
245,118,34250,2,0,L|240:182,1,65,2|2,0:2|0:2,0:0:0:0:
190,262,34595,2,0,P|272:258|313:265,1,97.5,2|2,0:2|0:2,0:0:0:0:
383,342,35113,2,0,L|397:254,1,65,2|0,0:2|0:0,0:0:0:0:
464,233,35457,2,0,L|450:145,1,65,2|0,0:2|0:0,0:0:0:0:
397,105,35802,1,2,0:2:0:0:
441,33,35975,5,2,0:2:0:0:
392,42,36664,2,0,P|424:43|464:33,2,65,2|2|2,0:2|0:2|0:2,0:0:0:0:
332,102,37181,1,2,0:2:0:0:
391,162,37354,6,0,L|382:291,1,130,2|2,0:2|0:2,0:0:0:0:
308,332,37871,2,0,L|299:187,2,130,2|2|2,0:2|0:2|0:2,0:0:0:0:
226,356,38733,6,0,P|162:325|91:336,1,130,0|0,1:2|1:2,0:0:0:0:
2,194,39423,2,0,P|66:197|123:168,1,130,0|0,1:2|1:2,0:0:0:0:
206,21,40113,5,0,1:2:0:0:
206,21,40457,2,0,P|217:60|220:108,1,65,2|2,1:2|0:2,0:0:0:0:
297,117,40802,2,0,P|268:146|228:172,1,65,2|2,1:2|0:2,0:0:0:0:
259,243,41147,2,0,P|219:233|176:211,1,65,2|2,1:2|0:2,0:0:0:0:
125,178,41492,6,0,P|64:208|68:273,1,130,2|0,1:2|1:2,0:0:0:0:
103,337,42009,2,0,P|208:312|251:315,1,130,2|0,0:2|0:0,0:0:0:0:
305,349,42526,1,2,1:2:0:0:
256,192,42613,12,2,43733,0:2:0:0:
397,299,44250,6,0,L|325:305,1,71.5000021820069,6|0,1:2|0:0,0:0:0:0:
249,358,44595,2,0,P|204:289|234:212,1,143.000004364014,8|0,0:2|0:0,0:0:0:0:
287,172,45113,1,0,1:2:0:0:
287,172,45285,2,0,L|295:93,1,71.5000021820069,8|0,0:2|0:0,0:0:0:0:
223,39,45630,6,0,P|187:43|159:64,1,71.5000021820069,0|0,1:2|0:0,0:0:0:0:
66,57,45975,2,0,P|82:96|87:202,1,143.000004364014,8|0,0:2|0:0,0:0:0:0:
48,279,46492,1,0,1:2:0:0:
47,279,46664,2,0,P|30:321|29:354,1,71.5000021820069,8|0,0:2|0:0,0:0:0:0:
151,344,47009,6,0,P|183:357|219:357,1,71.5000021820069,2|0,1:2|0:0,0:0:0:0:
270,288,47354,2,0,B|310:284|340:261|340:261|362:285|413:302,1,143.000004364014,8|0,0:2|0:0,0:0:0:0:
470,248,47872,1,0,1:2:0:0:
470,248,48044,2,0,P|466:212|449:181,1,71.5000021820069,8|0,0:2|0:0,0:0:0:0:
500,87,48388,6,0,L|420:68,1,71.5000021820069,2|0,1:2|0:0,0:0:0:0:
369,131,48733,2,0,P|305:133|250:79,1,143.000004364014,10|2,0:2|0:2,0:0:0:0:
174,115,49250,1,0,1:2:0:0:
174,115,49423,2,0,P|159:81|165:36,1,71.5000021820069,10|0,0:2|0:0,0:0:0:0:
334,21,49768,5,6,1:2:0:0:
334,21,49940,1,0,0:0:0:0:
398,89,50113,2,0,L|366:235,1,143.000004364014,8|0,0:2|0:0,0:0:0:0:
362,325,50631,1,0,1:2:0:0:
362,325,50802,2,0,L|290:332,1,71.5000021820069,8|0,0:2|0:0,0:0:0:0:
151,368,51147,6,0,P|158:329|172:288,1,71.5000021820069,0|0,1:2|0:0,0:0:0:0:
92,243,51492,2,0,P|148:248|210:170,1,143.000004364014,8|0,0:2|0:0,0:0:0:0:
172,104,52009,1,0,1:2:0:0:
172,104,52181,2,0,L|91:92,1,71.5000021820069,8|0,0:2|0:0,0:0:0:0:
220,181,52526,6,0,L|292:173,1,71.5000021820069,2|0,1:2|0:0,0:0:0:0:
343,249,52871,2,0,P|356:216|464:179,1,143.000004364014,8|0,0:2|0:0,0:0:0:0:
512,109,53388,1,0,1:2:0:0:
512,109,53561,2,0,L|436:79,1,71.5000021820069,8|0,0:2|0:0,0:0:0:0:
331,28,53906,6,0,P|347:59|351:94,1,71.5000021820069,2|0,1:2|0:0,0:0:0:0:
376,183,54250,2,0,P|328:140|242:162,1,143.000004364014,10|2,0:2|0:2,0:0:0:0:
204,230,54768,1,0,1:2:0:0:
260,309,54940,1,10,0:2:0:0:
260,309,55113,1,0,1:2:0:0:
130,362,55285,6,0,L|124:290,1,71.5000021820069,6|0,1:2|0:0,0:0:0:0:
39,252,55630,2,0,P|113:245|143:182,1,143.000004364014,8|0,0:2|0:0,0:0:0:0:
116,99,56148,1,0,1:2:0:0:
116,99,56320,2,0,L|187:91,1,71.5000021820069,8|0,0:2|0:0,0:0:0:0:
286,23,56664,6,0,P|314:48|320:91,1,71.5000021820069,0|0,1:2|0:0,0:0:0:0:
398,132,57009,2,0,P|371:154|362:189,1,71.5000021820069,8|0,0:2|0:0,0:0:0:0:
410,268,57354,1,0,0:0:0:0:
361,347,57526,1,0,1:2:0:0:
361,347,57699,2,0,L|289:350,1,71.5000021820069,8|0,0:2|0:0,0:0:0:0:
129,362,58044,6,0,P|167:340|183:299,1,71.5000021820069,2|0,1:2|0:0,0:0:0:0:
255,257,58388,2,0,P|175:261|123:208,1,143.000004364014,8|0,0:2|0:0,0:0:0:0:
69,141,58907,1,0,1:2:0:0:
69,141,59079,2,0,P|65:105|48:74,1,71.5000021820069,8|0,0:2|0:0,0:0:0:0:
13,237,59423,6,0,P|48:239|78:258,1,71.5000021820069,2|0,1:2|0:0,0:0:0:0:
129,336,59768,2,0,P|164:333|194:314,1,71.5000021820069,10|0,0:2|0:0,0:0:0:0:
240,235,60113,1,2,0:2:0:0:
240,235,60285,1,0,1:2:0:0:
318,185,60457,2,0,P|350:199|372:227,1,71.5000021820069,10|0,0:2|0:0,0:0:0:0:
448,337,60802,6,0,L|469:241,1,71.5000021820069,6|0,1:2|0:0,0:0:0:0:
488,178,61147,2,0,P|462:217|353:213,1,143.000004364014,8|0,0:2|0:0,0:0:0:0:
313,154,61664,1,0,1:2:0:0:
313,154,61837,2,0,P|278:143|241:147,1,71.5000021820069,8|0,0:2|0:0,0:0:0:0:
173,241,62181,6,0,P|157:187|145:159,1,71.5000021820069,0|0,1:2|0:0,0:0:0:0:
58,166,62526,2,0,P|127:143|141:66,1,143.000004364014,8|0,0:2|0:0,0:0:0:0:
211,14,63044,1,0,1:2:0:0:
211,14,63216,2,0,L|295:34,1,71.5000021820069,8|0,0:2|0:0,0:0:0:0:
415,17,63561,6,0,P|411:52|407:88,1,71.5000021820069,2|0,1:2|0:0,0:0:0:0:
448,172,63907,2,0,P|393:128|299:158,1,143.000004364014,8|0,0:2|0:0,0:0:0:0:
235,139,64423,1,0,1:2:0:0:
235,139,64596,2,0,P|251:179|259:218,1,71.5000021820069,8|0,0:2|0:0,0:0:0:0:
283,328,64940,6,0,L|198:308,1,71.5000021820069,2|0,1:2|0:0,0:0:0:0:
139,254,65285,2,0,L|49:275,2,71.5000021820069,10|0|2,0:2|0:0|0:2,0:0:0:0:
205,188,65803,1,0,1:2:0:0:
165,110,65975,1,10,0:2:0:0:
165,110,66148,1,0,1:2:0:0:
260,10,66319,6,0,L|330:19,1,71.5000021820069,6|0,1:2|0:0,0:0:0:0:
427,1,66664,1,8,0:2:0:0:
481,76,66837,2,0,P|427:105|425:186,1,143.000004364014,2|0,0:0|1:2,0:0:0:0:
444,270,67354,2,0,L|372:262,1,71.5000021820069,10|0,0:2|0:0,0:0:0:0:
249,364,67699,6,0,P|240:325|226:292,1,71.5000021820069,0|0,1:2|0:0,0:0:0:0:
136,275,68044,2,0,P|176:232|157:144,1,143.000004364014,10|0,0:2|0:0,0:0:0:0:
96,91,68560,1,0,1:2:0:0:
96,91,68733,2,0,L|21:85,1,71.5000021820069,8|2,0:2|0:0,0:0:0:0:
195,22,69078,6,0,B|181:165,1,143.000004364014,2|8,1:2|0:2,0:0:0:0:
165,256,69595,2,0,P|194:244|246:244,1,71.5000021820069,2|0,0:0|0:0,0:0:0:0:
305,310,69941,1,0,1:2:0:0:
305,310,70113,2,0,P|334:322|386:322,1,71.5000021820069,10|0,0:2|0:0,0:0:0:0:
459,247,70457,6,0,P|459:211|445:178,1,71.5000021820069,0|0,1:2|0:0,0:0:0:0:
484,94,70802,2,0,B|430:100|430:100|397:85|397:85|344:91,1,143.000004364014,10|0,0:2|0:0,0:0:0:0:
269,45,71319,1,0,1:2:0:0:
269,45,71492,2,0,L|196:38,1,71.5000021820069,8|2,0:2|0:0,0:0:0:0:
132,105,71837,6,0,P|132:140|139:175,1,71.5000021820069,2|0,1:2|0:0,0:0:0:0:
124,271,72182,1,8,0:2:0:0:
124,271,72354,2,0,P|190:250|249:287,1,143.000004364014,2|0,0:0|1:2,0:0:0:0:
324,341,72871,2,0,L|331:269,1,71.5000021820069,10|0,0:2|0:0,0:0:0:0:
275,170,73216,6,0,P|312:170|345:155,1,71.5000021820069,0|0,1:2|0:0,0:0:0:0:
414,96,73561,2,0,L|429:247,1,143.000004364014,10|2,0:2|0:0,0:0:0:0:
418,334,74078,1,2,1:2:0:0:
418,334,74250,2,0,P|390:311|354:302,1,71.5000021820069,8|2,0:2|0:0,0:0:0:0:
219,360,74595,6,0,L|227:288,1,71.5000021820069,2|0,1:2|0:0,0:0:0:0:
290,220,74941,2,0,P|279:141|227:112,1,143.000004364014,8|0,0:2|0:0,0:0:0:0:
150,158,75457,1,0,1:2:0:0:
150,158,75630,2,0,P|117:168|78:165,1,71.5000021820069,8|0,0:2|0:0,0:0:0:0:
17,79,75975,6,0,L|2:8,2,71.5000021820069,2|0|10,1:2|0:0|0:2,0:0:0:0:
69,159,76493,2,0,L|46:251,1,71.5000021820069,0|2,0:0|0:2,0:0:0:0:
72,318,76836,1,0,1:2:0:0:
152,364,77009,2,0,P|196:341|241:343,1,71.5000021820069,10|0,0:2|1:2,0:0:0:0:
325,383,77354,6,0,P|331:337|341:302,1,71.5000021820069,6|0,1:2|0:0,0:0:0:0:
379,220,77699,1,8,0:2:0:0:
379,220,78044,1,2,0:0:0:0:
300,182,78216,1,2,1:2:0:0:
300,182,78388,2,0,L|212:189,1,71.5000021820069,10|2,0:2|0:0,0:0:0:0:
179,278,78733,6,0,P|152:218|80:213,1,143.000004364014,2|8,1:2|0:2,0:0:0:0:
4,178,79250,1,2,0:0:0:0:
4,178,79595,1,2,1:2:0:0:
48,96,79768,2,0,P|99:90|137:77,1,71.5000021820069,8|2,0:2|0:0,0:0:0:0:
192,27,80113,6,0,P|204:80|207:120,1,71.5000021820069,2|0,1:2|0:0,0:0:0:0:
149,170,80457,2,0,P|232:157|282:195,1,143.000004364014,8|2,0:2|0:0,0:0:0:0:
312,267,80975,1,2,1:2:0:0:
312,267,81147,2,0,P|301:320|288:366,1,71.5000021820069,10|2,0:2|0:0,0:0:0:0:
421,310,81492,6,0,L|409:145,1,143.000004364014,2|10,1:2|0:2,0:0:0:0:
401,78,82009,1,2,0:0:0:0:
401,78,82354,2,0,P|358:73|331:56,1,71.5000021820069,2|8,1:2|0:2,0:0:0:0:
257,5,82699,1,2,0:0:0:0:
129,113,82871,6,0,P|174:115|199:129,1,71.5000021820069,2|0,1:2|0:0,0:0:0:0:
251,202,83216,2,0,P|296:200|319:184,1,71.5000021820069,8|0,0:2|0:0,0:0:0:0:
407,161,83561,2,0,L|396:231,1,71.5000021820069,0|0,0:0|1:2,0:0:0:0:
483,265,83906,2,0,L|470:356,1,71.5000021820069,8|0,0:2|0:0,0:0:0:0:
357,384,84250,5,0,1:2:0:0:
357,384,84423,1,0,0:0:0:0:
283,327,84595,2,0,P|233:330|193:342,1,71.5000021820069,10|2,0:2|0:0,0:0:0:0:
178,248,84940,2,0,P|128:245|88:233,1,71.5000021820069,2|2,0:0|1:2,0:0:0:0:
64,163,85285,1,10,0:2:0:0:
64,163,85457,1,2,0:0:0:0:
145,49,85630,6,0,P|222:45|309:31,1,143.000004364014,2|8,1:2|0:2,0:0:0:0:
360,137,86147,2,0,P|289:126|217:123,1,143.000004364014,2|0,0:0|1:2,0:0:0:0:
194,223,86664,2,0,P|280:208|291:209,1,71.5000021820069,10|0,0:2|0:0,0:0:0:0:
334,268,87009,5,2,1:2:0:0:
334,268,87354,2,0,L|342:355,1,71.5000021820069,10|0,0:2|0:0,0:0:0:0:
419,289,87699,2,0,L|425:217,1,71.5000021820069,2|0,0:2|1:2,0:0:0:0:
471,136,88044,1,10,0:2:0:0:
471,136,88216,1,0,1:2:0:0:
394,29,88388,6,0,P|362:20|331:24,1,65,4|0,1:2|0:0,0:0:0:0:
304,107,88733,2,0,L|154:86,1,130,8|0,0:0|0:0,0:0:0:0:
108,45,89250,1,0,1:2:0:0:
108,45,89423,2,0,P|95:74|96:107,1,65,8|0,0:0|0:0,0:0:0:0:
77,189,89768,6,0,L|159:178,1,65,0|0,1:2|0:0,0:0:0:0:
199,118,90113,2,0,P|259:139|271:222,1,130,8|0,0:0|0:0,0:0:0:0:
320,271,90630,1,0,1:2:0:0:
320,271,90802,2,0,L|308:355,1,65,8|0,0:0|0:0,0:0:0:0:
184,376,91147,5,0,1:2:0:0:
184,376,91319,1,0,0:0:0:0:
57,335,91492,2,0,B|140:326|102:298|188:289,1,130,8|0,0:0|0:0,0:0:0:0:
269,275,92009,1,0,1:2:0:0:
269,275,92182,2,0,P|288:249|297:218,1,65,8|0,0:0|0:0,0:0:0:0:
286,103,92526,6,0,L|209:94,1,65,0|0,1:2|0:0,0:0:0:0:
150,33,92871,2,0,L|85:40,1,65,8|0,0:0|0:0,0:0:0:0:
15,119,93216,1,0,0:0:0:0:
15,119,93389,1,0,1:2:0:0:
74,189,93561,2,0,P|89:244|87:266,1,65,8|0,0:0|0:0,0:0:0:0:
15,359,93906,6,0,L|99:342,1,65,0|0,1:2|0:0,0:0:0:0:
158,374,94251,2,0,P|164:309|190:237,1,130,8|0,0:0|0:0,0:0:0:0:
268,233,94769,1,0,1:2:0:0:
268,233,94941,2,0,P|286:212|294:173,1,65,8|0,0:0|0:0,0:0:0:0:
236,76,95285,6,0,P|267:68|298:59,1,65,0|0,1:2|0:0,0:0:0:0:
401,18,95630,2,0,P|446:42|439:135,1,130,8|0,0:0|0:0,0:0:0:0:
405,184,96147,1,0,1:2:0:0:
405,184,96320,2,0,L|387:265,1,65,8|0,0:0|0:0,0:0:0:0:
413,365,96664,5,0,1:2:0:0:
413,365,96837,5,0,0:0:0:0:
278,382,97010,2,0,B|266:253,1,130,8|0,0:0|0:0,0:0:0:0:
295,176,97526,1,0,1:2:0:0:
295,176,97699,2,0,P|257:171|226:154,1,65,8|0,0:0|0:0,0:0:0:0:
167,59,98044,5,0,1:2:0:0:
167,59,98216,1,0,0:0:0:0:
99,109,98388,2,0,P|65:108|25:117,2,65,8|0|0,0:0|0:0|0:0,0:0:0:0:
147,185,98906,1,0,1:2:0:0:
147,185,99078,2,0,L|155:259,1,65,8|0,0:0|1:2,0:0:0:0:
89,361,99423,6,0,L|153:368,1,65,4|0,1:2|0:0,0:0:0:0:
268,361,99768,2,0,P|271:299|252:202,1,130,8|0,0:0|0:0,0:0:0:0:
204,161,100285,1,0,1:2:0:0:
204,161,100458,2,0,P|175:174|142:173,1,65,8|0,0:0|0:0,0:0:0:0:
23,195,100802,5,0,1:2:0:0:
23,195,100975,1,0,0:0:0:0:
17,79,101147,2,0,B|83:85|73:43|156:50,1,130,8|0,0:0|0:0,0:0:0:0:
223,19,101665,1,0,1:2:0:0:
223,19,101837,2,0,L|231:83,1,65,8|0,0:0|0:0,0:0:0:0:
162,202,102181,6,0,P|192:190|224:187,1,65,0|0,1:2|0:0,0:0:0:0:
273,256,102526,2,0,P|279:192|344:160,1,130,8|0,0:0|0:0,0:0:0:0:
417,142,103044,1,0,1:2:0:0:
417,142,103216,2,0,L|423:219,1,65,8|0,0:0|0:0,0:0:0:0:
482,335,103561,6,0,L|405:329,1,65,0|0,1:2|0:0,0:0:0:0:
339,370,103906,2,0,L|274:375,2,65,8|0|0,0:0|0:0|0:0,0:0:0:0:
407,319,104424,1,0,1:2:0:0:
350,263,104596,1,8,0:0:0:0:
350,263,104769,1,0,0:0:0:0:
456,200,104940,6,0,L|467:109,1,65,0|0,1:2|0:0,0:0:0:0:
488,40,105285,2,0,P|424:51|359:45,1,130,8|0,0:0|0:0,0:0:0:0:
287,12,105802,1,0,1:2:0:0:
287,12,105975,2,0,P|278:43|277:75,1,65,8|0,0:0|0:0,0:0:0:0:
317,190,106319,6,0,L|237:199,1,65,0|0,1:2|0:0,0:0:0:0:
154,232,106664,2,0,L|169:102,1,130,8|0,0:0|0:0,0:0:0:0:
117,34,107182,1,0,1:2:0:0:
117,34,107354,2,0,P|85:40|53:47,1,65,8|0,0:0|0:0,0:0:0:0:
10,120,107699,5,0,1:0:0:0:
256,192,107785,12,0,110113,0:0:0:0:
354,326,110457,6,0,P|340:267|340:197,1,130,2|0,0:0|0:0,0:0:0:0:
392,108,110975,2,0,P|361:137|267:117,1,130,2|0,0:0|0:0,0:0:0:0:
199,64,111492,2,0,P|147:37|105:142,1,195,2|0,0:0|0:0,0:0:0:0:
74,215,112181,2,0,B|218:194|175:295|335:261,1,260,2|0,0:0|0:0,0:0:0:0:
426,186,113044,1,2,0:0:0:0:
426,186,113216,6,0,P|449:259|457:338,1,130,2|0,0:0|0:0,0:0:0:0:
323,381,113733,2,0,P|332:316|353:255,1,130,2|0,0:0|0:0,0:0:0:0:
458,169,114250,2,0,B|347:178|375:101|243:123,1,195,2|0,0:0|0:0,0:0:0:0:
215,180,114940,1,2,0:0:0:0:
215,180,115802,1,2,0:0:0:0:
215,180,115975,6,0,P|181:134|90:130,1,130,2|0,0:0|0:0,0:0:0:0:
36,82,116492,2,0,P|66:157|71:218,1,130,2|0,0:0|0:0,0:0:0:0:
41,284,117009,1,2,0:0:0:0:
41,284,117699,6,0,P|54:313|58:345,2,65,2|2|2,0:0|0:0|0:0,0:0:0:0:
52,200,118216,2,0,P|106:197|134:175,1,65
171,129,118561,1,2,0:0:0:0:
247,163,118733,5,2,0:0:0:0:
247,163,121147,2,0,L|259:99,1,65,2|0,0:0|0:0,0:0:0:0:
279,16,121492,6,0,P|294:58|427:35,1,195,2|0,0:0|0:0,0:0:0:0:
497,104,122181,1,2,0:0:0:0:
497,104,122354,1,2,0:0:0:0:
459,181,122526,1,2,0:0:0:0:
459,181,122699,1,2,0:0:0:0:
492,296,122871,6,0,P|446:281|398:274,1,97.5,2|0,0:0|0:0,0:0:0:0:
296,349,123388,2,0,L|201:337,1,65,2|0,0:0|0:0,0:0:0:0:
209,258,123733,2,0,L|144:266,1,65,2|0,0:0|0:0,0:0:0:0:
87,329,124078,1,2,0:0:0:0:
24,271,124250,5,2,0:0:0:0:
24,271,124940,2,0,L|11:185,2,65,2|2|2,0:0|0:0|0:0,0:0:0:0:
87,329,125457,1,2,0:0:0:0:
167,301,125630,6,0,P|236:304|272:327,2,97.5,2|0|2,0:0|0:0|0:0,0:0:0:0:
116,169,126492,2,0,P|167:177|214:113,1,130,2|2,0:0|0:0,0:0:0:0:
211,37,127009,5,2,0:0:0:0:
211,37,128733,5,2,0:0:0:0:
211,37,128906,1,2,0:0:0:0:
281,82,129078,2,0,P|344:74|367:56,1,65,2|2,0:0|0:0,0:0:0:0:
390,144,129423,2,0,P|422:142|453:152,1,65,2|2,0:0|0:0,0:0:0:0:
500,298,129768,6,0,B|406:273|421:344|318:319,1,173.333333333333,2|0,0:0|0:0,0:0:0:0:
256,276,130342,2,0,P|252:214|334:241,1,173.333333333333
325,334,130917,1,0,0:0:0:0:
256,192,131147,12,0,132526,0:0:0:0:
