osu file format v14

[General]
AudioFilename: audio.mp3
AudioLeadIn: 0
PreviewTime: 43561
Countdown: 0
SampleSet: Soft
StackLeniency: 0.5
Mode: 0
LetterboxInBreaks: 0
WidescreenStoryboard: 1

[Editor]
DistanceSpacing: 1.4
BeatDivisor: 6
GridSize: 4
TimelineZoom: 1.7

[Metadata]
Title:Cold Green Eyes feat. Roos Denayer (Cut Ver.)
TitleUnicode:Cold Green Eyes feat. Roos Denayer (Cut Ver.)
Artist:Station Earth
ArtistUnicode:Station Earth
Creator:Xayah
Version:Glaceon's Normal
Source:
Tags:electronic english drum and bass dnb version galaxy of dreams 2 liquicity glaceon elicz1 featured artist fa
BeatmapID:1948874
BeatmapSetID:932624

[Difficulty]
HPDrainRate:4
CircleSize:3
OverallDifficulty:4
ApproachRate:5.5
SliderMultiplier:1.1
SliderTickRate:1

[Events]
//Background and Video events
0,0,"coldgreen_eyes.jpg",0,0
//Break Periods
2,30485,32016
2,118933,119947
//Storyboard Layer 0 (Background)
//Storyboard Layer 1 (Fail)
//Storyboard Layer 2 (Pass)
//Storyboard Layer 3 (Foreground)
//Storyboard Layer 4 (Overlay)
//Storyboard Sound Samples

[TimingPoints]
113,344.827586206897,4,2,1,50,1,0
38733,-100,4,2,1,65,0,0
44250,-100,4,2,5,80,0,1
44279,-100,4,2,1,80,0,1
45888,-100,4,2,1,5,0,1
45975,-100,4,2,1,80,0,1
47009,-100,4,2,3,80,0,1
47038,-100,4,2,1,80,0,1
49768,-100,4,2,4,80,0,1
49796,-100,4,2,1,80,0,1
51406,-100,4,2,1,5,0,1
51492,-100,4,2,1,80,0,1
52526,-100,4,2,2,80,0,1
52555,-100,4,2,1,80,0,1
54940,-100,4,2,7,80,0,1
54969,-100,4,2,1,80,0,1
55285,-100,4,2,6,80,0,1
55314,-100,4,2,1,80,0,1
56923,-100,4,2,1,5,0,1
57009,-100,4,2,1,80,0,1
58044,-100,4,2,3,80,0,1
58072,-100,4,2,1,80,0,1
60802,-100,4,2,4,80,0,1
60831,-100,4,2,1,80,0,1
62440,-100,4,2,1,5,0,1
62526,-100,4,2,1,80,0,1
63561,-100,4,2,2,80,0,1
63590,-100,4,2,1,80,0,1
66319,-100,4,2,5,65,0,0
66348,-100,4,2,1,65,0,0
69078,-100,4,2,3,65,0,0
69107,-100,4,2,1,65,0,0
71837,-100,4,2,4,65,0,0
71865,-100,4,2,1,65,0,0
73475,-100,4,2,1,5,0,0
73561,-100,4,2,1,65,0,0
74595,-100,4,2,2,65,0,0
74624,-100,4,2,1,65,0,0
77009,-100,4,2,7,65,0,0
77038,-100,4,2,1,65,0,0
77354,-100,4,2,6,65,0,0
77383,-100,4,2,1,65,0,0
80113,-100,4,2,3,65,0,0
80141,-100,4,2,1,65,0,0
80371,-100,4,2,1,5,0,0
80457,-100,4,2,1,65,0,0
81750,-100,4,2,1,5,0,0
81836,-100,4,2,1,65,0,0
82871,-100,4,2,4,65,0,0
82900,-100,4,2,1,65,0,0
85630,-100,4,2,2,65,0,0
85658,-100,4,2,1,65,0,0
88388,-100,4,2,1,50,0,0
94164,-100,4,2,1,5,0,0
94250,-100,4,2,1,50,0,0
96923,-100,4,2,1,5,0,0
97009,-100,4,2,1,50,0,0
105199,-100,4,2,1,5,0,0
105285,-100,4,2,1,50,0,0
106578,-100,4,2,1,5,0,0
106664,-100,4,2,1,50,0,0
110285,-100,4,2,1,5,0,0
110457,-100,4,2,5,45,0,0
110486,-100,4,2,1,45,0,0
113216,-100,4,2,3,45,0,0
113245,-100,4,2,1,45,0,0
115975,-100,4,2,4,45,0,0
116003,-100,4,2,1,45,0,0
118733,-100,4,2,2,45,0,0
118762,-100,4,2,1,45,0,0
121147,-100,4,2,7,45,0,0
121176,-100,4,2,1,45,0,0
121492,-100,4,2,6,45,0,0
121521,-100,4,2,1,45,0,0
124250,-100,4,2,3,45,0,0
124279,-100,4,2,1,45,0,0
127009,-100,4,2,4,45,0,0
127037,-100,4,2,1,45,0,0
129768,-100,4,2,2,45,0,0
129797,-100,4,2,1,45,0,0
132181,-100,4,2,7,45,0,0
132210,-100,4,2,1,45,0,0
132526,-100,4,2,1,5,0,0

[Colours]
Combo1 : 228,94,232
Combo2 : 38,214,223
Combo3 : 60,117,213
Combo4 : 181,84,205

[HitObjects]
434,28,22181,6,0,L|430:148,1,110,2|0,0:2|0:0,0:0:0:0:
426,193,22699,2,0,P|369:181|305:196,1,110,2|0,0:2|0:0,0:0:0:0:
273,221,23216,2,0,B|223:202|151:217|182:237|108:252|56:220,1,220,2|2,0:2|0:2,0:0:0:0:
25,36,24768,1,2,0:2:0:0:
25,36,24940,6,0,L|207:44,1,165,2|2,0:2|0:2,0:0:0:0:
354,32,25975,2,0,P|355:124|437:82,1,220,2|2,0:2|0:2,0:0:0:0:
471,293,27526,1,2,0:2:0:0:
471,293,27699,6,0,L|287:281,1,165,2|2,0:2|0:2,0:0:0:0:
281,119,28733,2,0,L|157:112,1,110,2|0,0:2|0:0,0:0:0:0:
77,55,29423,2,0,P|62:107|71:170,1,110,2|2,0:2|0:2,0:0:0:0:
93,210,29940,1,2,0:2:0:0:
178,278,30285,5,2,0:2:0:0:
452,335,33216,5,2,0:2:0:0:
452,335,33906,2,0,P|462:276|455:213,1,110,2|2,0:2|0:2,0:0:0:0:
407,128,34595,1,2,0:2:0:0:
259,54,35113,2,0,L|142:48,1,110,2|2,0:2|0:2,0:0:0:0:
45,12,35802,6,0,P|36:91|120:145,1,165,2|0,0:2|0:0,0:0:0:0:
204,160,36664,2,0,L|196:276,1,110,2|2,0:2|0:2,0:0:0:0:
235,373,37354,2,0,P|282:362|356:380,1,110,2|2,0:2|0:2,0:0:0:0:
393,353,37871,2,0,P|446:364|499:352,1,110,2|2,0:2|0:2,0:0:0:0:
506,247,38561,1,2,0:2:0:0:
506,247,38733,6,0,L|497:119,1,110,0|0,1:2|1:2,0:0:0:0:
398,89,39423,2,0,L|405:198,1,110,0|0,1:2|1:2,0:0:0:0:
333,281,40113,1,0,1:2:0:0:
257,200,40457,2,0,P|202:209|136:194,2,110,2|2|2,1:2|1:2|1:2,0:0:0:0:
311,189,41319,1,2,0:2:0:0:
311,189,41492,6,0,L|305:65,1,110,2|0,1:2|1:2,0:0:0:0:
300,24,42009,1,2,0:2:0:0:
399,155,42526,2,0,B|454:208|436:292|436:292|361:346|280:290|280:290|249:316|204:316,1,385,2|2,1:2|0:2,0:0:0:0:
54,290,44250,5,6,1:2:0:0:
145,228,44595,2,0,P|157:172|149:110,1,110,8|0,0:2|0:0,0:0:0:0:
123,80,45113,1,0,1:2:0:0:
123,80,45285,1,8,0:2:0:0:
202,4,45630,1,0,1:2:0:0:
299,54,45975,2,0,P|381:35|465:64,1,165,8|0,0:2|1:2,0:0:0:0:
497,94,46664,1,8,0:2:0:0:
446,191,47009,5,2,1:2:0:0:
500,286,47354,2,0,P|444:298|374:280,1,110,8|0,0:2|0:0,0:0:0:0:
345,273,47871,1,0,1:2:0:0:
345,273,48044,2,0,L|338:142,1,110,8|2,0:2|1:2,0:0:0:0:
401,72,48733,2,0,B|351:41|295:58|295:58|261:46|217:54,1,165,10|0,0:2|1:2,0:0:0:0:
186,61,49423,1,10,0:2:0:0:
94,121,49768,5,6,1:2:0:0:
115,228,50113,2,0,L|243:221,1,110,8|0,0:2|0:0,0:0:0:0:
271,251,50630,1,0,1:2:0:0:
271,251,50802,1,8,0:2:0:0:
357,182,51147,5,0,1:2:0:0:
456,228,51492,2,0,P|467:166|415:70,1,165,8|0,0:2|1:2,0:0:0:0:
374,51,52181,1,8,0:2:0:0:
264,59,52526,5,2,1:2:0:0:
246,167,52871,2,0,P|252:218|240:285,1,110,8|0,0:2|0:0,0:0:0:0:
223,329,53388,1,0,1:2:0:0:
223,329,53561,1,8,0:2:0:0:
112,301,53906,2,0,L|-4:306,2,110,2|10|2,1:2|0:2|0:2,0:0:0:0:
154,265,54768,1,0,1:2:0:0:
154,265,54940,2,0,L|151:189,1,55,10|0,0:2|1:2,0:0:0:0:
149,154,55285,5,6,1:2:0:0:
93,58,55630,2,0,P|149:46|213:60,1,110,8|0,0:2|0:0,0:0:0:0:
253,85,56147,1,0,1:2:0:0:
253,85,56319,1,8,0:2:0:0:
354,42,56664,1,0,1:2:0:0:
414,133,57009,2,0,B|398:173|409:215|418:200|433:251|402:305,1,165,8|0,0:2|1:2,0:0:0:0:
374,338,57699,1,8,0:2:0:0:
279,282,58044,5,2,1:2:0:0:
186,341,58388,2,0,P|177:285|195:221,1,110,8|0,0:2|0:0,0:0:0:0:
225,192,58906,1,0,1:2:0:0:
225,192,59078,2,0,L|353:185,1,110,8|2,0:2|1:2,0:0:0:0:
439,151,59768,2,0,P|448:95|430:31,1,110,10|2,0:2|0:2,0:0:0:0:
397,12,60285,1,0,1:2:0:0:
397,12,60457,1,10,0:2:0:0:
302,68,60802,5,6,1:2:0:0:
197,34,61147,2,0,L|204:157,1,110,8|0,0:2|0:0,0:0:0:0:
181,196,61664,1,0,1:2:0:0:
181,196,61837,1,8,0:2:0:0:
139,297,62181,1,0,1:2:0:0:
225,365,62526,2,0,B|252:348|297:353|297:353|275:308|294:258,1,165,8|0,0:2|1:2,0:0:0:0:
317,216,63216,1,8,0:2:0:0:
262,125,63561,5,2,1:2:0:0:
343,50,63906,2,0,P|401:43|453:53,1,110,8|0,0:2|0:0,0:0:0:0:
504,82,64423,1,0,1:2:0:0:
504,82,64595,2,0,L|499:201,1,110,8|2,0:2|1:2,0:0:0:0:
407,253,65285,1,10,0:2:0:0:
402,366,65630,1,2,0:2:0:0:
402,366,65802,2,0,L|328:361,1,55,0|10,1:2|0:2,0:0:0:0:
300,332,66147,1,0,1:2:0:0:
300,332,66319,6,0,L|177:337,1,110,6|8,1:2|0:2,0:0:0:0:
134,334,66837,1,2,0:0:0:0:
53,267,67181,1,0,1:2:0:0:
53,267,67354,2,0,L|63:135,1,110,10|0,0:2|1:2,0:0:0:0:
124,69,68044,2,0,P|172:86|300:65,1,165,10|0,0:2|1:2,0:0:0:0:
330,45,68733,2,0,L|399:48,1,55,8|2,0:2|0:0,0:0:0:0:
440,49,69078,6,0,P|448:102|433:170,1,110,2|8,1:2|0:2,0:0:0:0:
404,200,69595,1,2,0:0:0:0:
312,261,69940,1,0,1:2:0:0:
312,261,70113,2,0,L|179:256,1,110,10|0,0:2|1:2,0:0:0:0:
92,248,70802,2,0,B|117:204|102:153|93:168|82:126|98:86,1,165,10|0,0:2|1:2,0:0:0:0:
132,44,71492,2,0,L|202:49,1,55,8|2,0:2|0:0,0:0:0:0:
241,55,71837,6,0,L|234:178,1,110,2|8,1:2|0:2,0:0:0:0:
229,219,72354,1,2,0:0:0:0:
167,310,72699,1,0,1:2:0:0:
167,310,72871,2,0,P|218:324|288:309,1,110,10|0,0:2|1:2,0:0:0:0:
348,233,73561,2,0,L|412:236,2,55,10|2|2,0:2|0:0|0:0,0:0:0:0:
314,188,74078,1,2,1:2:0:0:
314,188,74250,2,0,L|241:191,1,55,8|2,0:2|0:0,0:0:0:0:
217,226,74595,6,0,P|164:234|93:216,1,110,2|8,1:2|0:2,0:0:0:0:
21,155,75285,2,0,L|27:88,1,55,0|0,0:0|1:2,0:0:0:0:
28,45,75630,1,8,0:2:0:0:
135,21,75975,6,0,P|188:13|259:31,2,110,2|10|2,1:2|0:2|0:2,0:0:0:0:
129,75,76837,1,0,1:2:0:0:
129,75,77009,2,0,L|134:137,1,55,10|0,0:2|1:2,0:0:0:0:
136,184,77354,5,6,1:2:0:0:
221,253,77699,2,0,L|354:249,1,110,8|2,0:2|0:0,0:0:0:0:
370,211,78216,1,2,1:2:0:0:
370,211,78388,2,0,L|434:214,1,55,10|2,0:2|0:0,0:0:0:0:
480,215,78733,1,2,1:2:0:0:
506,108,79078,1,8,0:2:0:0:
506,108,79250,2,0,L|379:109,1,110,2|2,0:0|1:2,0:0:0:0:
349,78,79768,1,8,0:2:0:0:
270,155,80113,6,0,P|215:164|153:152,1,110,2|8,1:2|0:2,0:0:0:0:
52,137,80802,2,0,L|57:217,1,55,2|2,0:0|1:2,0:0:0:0:
98,226,81147,2,0,L|93:306,1,55,10|2,0:2|0:0,0:0:0:0:
79,333,81492,2,0,L|201:330,1,110,2|10,1:2|0:2,0:0:0:0:
227,290,82009,2,0,L|336:292,1,110,2|2,0:0|1:2,0:0:0:0:
379,328,82526,1,8,0:2:0:0:
468,264,82871,5,2,1:2:0:0:
411,169,83216,2,0,P|355:157|280:176,1,110,8|0,0:2|0:0,0:0:0:0:
260,199,83733,1,0,1:2:0:0:
260,199,83906,1,8,0:2:0:0:
185,118,84250,1,0,1:2:0:0:
85,164,84595,2,0,L|87:231,1,55,10|2,0:2|0:0,0:0:0:0:
130,252,84940,2,0,L|124:323,2,55,2|2|10,0:0|1:2|0:2,0:0:0:0:
223,193,85630,6,0,L|345:198,1,110,2|8,1:2|0:2,0:0:0:0:
353,248,86147,2,0,L|462:243,1,110,2|0,0:0|1:2,0:0:0:0:
512,242,86664,1,10,0:2:0:0:
441,157,87009,1,2,1:2:0:0:
509,71,87354,2,0,P|442:54|346:92,1,165,10|0,0:2|1:2,0:0:0:0:
312,121,88044,2,0,L|235:120,1,55,10|0,0:2|1:2,0:0:0:0:
214,85,88388,5,4,1:2:0:0:
142,168,88733,2,0,L|152:349,1,165,8|0,0:0|1:2,0:0:0:0:
189,371,89423,1,8,0:0:0:0:
283,313,89768,1,0,1:2:0:0:
381,361,90113,1,8,0:0:0:0:
472,223,90630,2,0,L|465:145,1,55,0|8,1:2|0:0,0:0:0:0:
419,69,91147,5,0,1:2:0:0:
312,97,91492,2,0,P|232:70|138:84,1,165,8|0,0:0|1:2,0:0:0:0:
102,98,92181,1,8,0:0:0:0:
9,157,92526,1,0,1:2:0:0:
27,265,92871,2,0,L|198:260,1,165,8|0,0:0|1:2,0:0:0:0:
236,292,93561,1,8,0:0:0:0:
333,341,93906,5,0,1:2:0:0:
368,237,94250,2,0,P|351:160|377:75,1,165,8|0,0:0|1:2,0:0:0:0:
417,44,94940,1,8,0:0:0:0:
506,108,95285,1,0,1:2:0:0:
478,214,95630,1,8,0:0:0:0:
409,363,96147,2,0,L|330:355,1,55,0|8,1:2|0:0,0:0:0:0:
283,272,96664,5,0,1:2:0:0:
182,322,97009,2,0,B|129:309|79:336|79:336|47:343|10:317,1,165,8|0,0:0|1:2,0:0:0:0:
1,274,97699,1,8,0:0:0:0:
79,197,98044,1,0,1:2:0:0:
55,89,98388,2,0,L|239:96,1,165,8|0,0:0|1:2,0:0:0:0:
261,58,99078,2,0,L|331:66,1,55,8|0,0:0|1:2,0:0:0:0:
358,99,99423,5,4,1:2:0:0:
457,51,99768,2,0,P|465:109|410:210,1,165,8|0,0:0|1:2,0:0:0:0:
370,226,100457,1,8,0:0:0:0:
285,155,100802,1,0,1:2:0:0:
179,187,101147,1,8,0:0:0:0:
195,351,101664,2,0,L|125:347,1,55,0|8,1:2|0:0,0:0:0:0:
30,362,102181,5,0,1:2:0:0:
7,254,102526,2,0,L|4:77,1,165,8|0,0:0|1:2,0:0:0:0:
27,39,103216,1,8,0:0:0:0:
122,92,103561,1,0,1:2:0:0:
209,31,103906,2,0,P|224:85|181:195,1,165,8|0,0:0|1:2,0:0:0:0:
146,218,104595,1,8,0:0:0:0:
87,311,104940,5,0,1:2:0:0:
182,365,105285,2,0,L|360:362,1,165,8|0,0:0|1:2,0:0:0:0:
399,379,105975,1,8,0:0:0:0:
474,299,106319,1,0,1:2:0:0:
400,217,106664,1,8,0:0:0:0:
487,77,107181,2,0,L|490:12,1,55,0|8,1:2|0:0,0:0:0:0:
256,192,107699,12,0,109423,0:0:0:0:
117,341,110457,6,0,L|124:165,1,165,2|2,0:0|0:0,0:0:0:0:
208,34,111492,2,0,P|306:1|430:41,1,220,2|2,0:0|0:0,0:0:0:0:
463,218,113044,1,2,0:0:0:0:
463,218,113216,6,0,L|291:206,1,165,2|2,0:0|0:0,0:0:0:0:
141,256,114250,2,0,P|186:235|92:156,1,220,2|2,0:0|0:0,0:0:0:0:
26,360,115802,1,2,0:0:0:0:
26,360,115975,6,0,L|208:351,1,165,2|2,0:0|0:0,0:0:0:0:
355,341,117009,2,0,P|367:300|355:213,1,110,2|0,0:0|0:0,0:0:0:0:
307,130,117699,2,0,L|436:130,1,110,2|2,0:0|0:0,0:0:0:0:
472,132,118216,1,0,0:0:0:0:
507,27,118561,1,2,0:0:0:0:
507,27,118733,1,2,0:0:0:0:
42,39,121147,5,2,0:0:0:0:
48,148,121492,1,2,0:0:0:0:
48,148,122181,2,0,L|54:278,1,110,2|2,0:0|0:0,0:0:0:0:
28,365,122871,1,2,0:0:0:0:
167,277,123388,2,0,P|207:267|276:279,1,110,2|2,0:0|0:0,0:0:0:0:
369,343,124078,1,2,0:0:0:0:
369,343,124250,6,0,B|402:283|382:215|370:235|355:179|377:128,1,220,2|2,0:0|0:0,0:0:0:0:
448,16,125285,2,0,L|372:20,1,55,2|2,0:0|0:0,0:0:0:0:
340,34,125630,2,0,P|280:6|176:50,1,165,2|2,0:0|0:0,0:0:0:0:
148,136,126492,1,2,0:0:0:0:
228,220,126837,1,2,0:0:0:0:
228,220,127009,6,0,P|270:198|203:283,1,440,2|0,0:0|0:0,0:0:0:0:
107,242,128733,2,0,L|98:366,2,110,2|2|2,0:0|0:0|0:0,0:0:0:0:
56,143,129768,2,0,P|104:132|175:146,1,110,2|0,0:0|0:0,0:0:0:0:
213,118,130285,2,0,L|413:124,1,192.5
256,192,130975,12,0,132526,0:0:0:0:
