osu file format v14

[General]
AudioFilename: audio.mp3
AudioLeadIn: 0
PreviewTime: 43561
Countdown: 0
SampleSet: Soft
StackLeniency: 0.5
Mode: 0
LetterboxInBreaks: 0
WidescreenStoryboard: 0

[Editor]
Bookmarks: 110457
DistanceSpacing: 1.3
BeatDivisor: 12
GridSize: 4
TimelineZoom: 1.9

[Metadata]
Title:Cold Green Eyes feat. Roos Denayer (Cut Ver.)
TitleUnicode:Cold Green Eyes feat. Roos Denayer (Cut Ver.)
Artist:Station Earth
ArtistUnicode:Station Earth
Creator:Xayah
Version:Dreamy Skies
Source:
Tags:electronic english drum and bass dnb version galaxy of dreams 2 liquicity glaceon elicz1 featured artist fa
BeatmapID:1947164
BeatmapSetID:932624

[Difficulty]
HPDrainRate:6
CircleSize:4
OverallDifficulty:8.8
ApproachRate:9
SliderMultiplier:1.9
SliderTickRate:1

[Events]
//Background and Video events
0,0,"coldgreen_eyes.jpg",0,0
//Break Periods
//Storyboard Layer 0 (Background)
//Storyboard Layer 1 (Fail)
//Storyboard Layer 2 (Pass)
//Storyboard Layer 3 (Foreground)
//Storyboard Layer 4 (Overlay)
//Storyboard Sound Samples

[TimingPoints]
113,344.827586206897,4,2,1,50,1,0
22181,-142.857142857143,4,2,1,50,0,0
38733,-142.857142857143,4,2,1,65,0,0
44250,-100,4,2,5,80,0,1
44279,-100,4,2,1,80,0,1
45888,-100,4,2,1,5,0,1
45975,-100,4,2,1,80,0,1
47009,-100,4,2,3,80,0,1
47038,-100,4,2,1,80,0,1
49768,-100,4,2,4,80,0,1
49796,-100,4,2,1,80,0,1
51406,-100,4,2,1,5,0,1
51492,-100,4,2,1,80,0,1
52526,-100,4,2,2,80,0,1
52555,-100,4,2,1,80,0,1
54940,-100,4,2,7,80,0,1
54969,-100,4,2,1,80,0,1
55285,-100,4,2,6,80,0,1
55314,-100,4,2,1,80,0,1
56923,-100,4,2,1,5,0,1
57009,-100,4,2,1,80,0,1
58044,-100,4,2,3,80,0,1
58072,-100,4,2,1,80,0,1
60802,-100,4,2,4,80,0,1
60831,-100,4,2,1,80,0,1
62440,-100,4,2,1,5,0,1
62526,-100,4,2,1,80,0,1
63561,-100,4,2,2,80,0,1
63590,-100,4,2,1,80,0,1
66319,-111.111111111111,4,2,5,65,0,0
66348,-111.111111111111,4,2,1,65,0,0
69078,-111.111111111111,4,2,3,65,0,0
69107,-111.111111111111,4,2,1,65,0,0
71837,-111.111111111111,4,2,4,65,0,0
71865,-111.111111111111,4,2,1,65,0,0
73475,-100,4,2,1,5,0,0
73561,-111.111111111111,4,2,1,65,0,0
74595,-111.111111111111,4,2,2,65,0,0
74624,-111.111111111111,4,2,1,65,0,0
77009,-111.111111111111,4,2,7,65,0,0
77038,-111.111111111111,4,2,1,65,0,0
77354,-111.111111111111,4,2,6,65,0,0
77383,-111.111111111111,4,2,1,65,0,0
80113,-111.111111111111,4,2,3,65,0,0
80141,-111.111111111111,4,2,1,65,0,0
80371,-100,4,2,1,5,0,0
80457,-111.111111111111,4,2,1,65,0,0
81750,-100,4,2,1,5,0,0
81836,-111.111111111111,4,2,1,65,0,0
82871,-111.111111111111,4,2,4,65,0,0
82900,-111.111111111111,4,2,1,65,0,0
85630,-111.111111111111,4,2,2,65,0,0
85658,-111.111111111111,4,2,1,65,0,0
88388,-142.857142857143,4,2,1,50,0,0
94164,-142.857142857143,4,2,1,5,0,0
94250,-142.857142857143,4,2,1,50,0,0
96923,-142.857142857143,4,2,1,5,0,0
97009,-142.857142857143,4,2,1,50,0,0
105199,-142.857142857143,4,2,1,5,0,0
105285,-142.857142857143,4,2,1,50,0,0
106578,-142.857142857143,4,2,1,5,0,0
106664,-142.857142857143,4,2,1,50,0,0
110285,-142.857142857143,4,2,1,5,0,0
110457,-200,4,2,5,45,0,0
110486,-200,4,2,1,45,0,0
113216,-200,4,2,3,45,0,0
113245,-200,4,2,1,45,0,0
115975,-200,4,2,4,45,0,0
116003,-200,4,2,1,45,0,0
118733,-285.714285714286,4,2,2,45,0,0
118762,-285.714285714286,4,2,1,45,0,0
121147,-200,4,2,7,45,0,0
121176,-200,4,2,1,45,0,0
121492,-200,4,2,6,45,0,0
121521,-200,4,2,1,45,0,0
124250,-200,4,2,3,45,0,0
124279,-200,4,2,1,45,0,0
127009,-200,4,2,4,45,0,0
127037,-200,4,2,1,45,0,0
129768,-200,4,2,2,45,0,0
129797,-200,4,2,1,45,0,0
130227,-200,4,2,1,5,0,0
130342,-200,4,2,1,45,0,0
130802,-200,4,2,1,5,0,0
130917,-200,4,2,1,45,0,0
132181,-200,4,2,7,45,0,0
132210,-200,4,2,1,45,0,0
132526,-200,4,2,1,5,0,0

[Colours]
Combo1 : 228,94,232
Combo2 : 38,214,223
Combo3 : 60,117,213
Combo4 : 181,84,205

[HitObjects]
256,192,11147,12,0,15285,0:0:0:0:
256,192,16664,12,0,20802,0:0:0:0:
121,145,22181,6,0,P|190:176|182:236,1,132.999995941162,2|0,0:2|0:0,0:0:0:0:
128,328,22699,2,0,P|203:309|285:297,1,132.999995941162,2|0,0:2|0:0,0:0:0:0:
397,372,23216,2,0,P|360:339|347:298,1,66.4999979705811,2|0,0:2|0:0,0:0:0:0:
368,224,23561,5,0,0:0:0:0:
368,224,23906,2,0,P|408:235|439:247,2,66.4999979705811,2|0|0,0:2|0:0|0:0,0:0:0:0:
284,248,24423,1,0,0:0:0:0:
214,184,24595,1,0,0:0:0:0:
214,184,24768,1,2,0:2:0:0:
402,15,24940,6,0,P|386:111|379:172,1,132.999995941162,2|0,0:2|0:0,0:0:0:0:
456,284,25457,2,0,P|419:232|338:249,1,132.999995941162,2|0,0:2|0:0,0:0:0:0:
280,344,25975,2,0,L|191:360,1,66.4999979705811,2|0,0:2|0:0,0:0:0:0:
112,286,26319,5,0,0:0:0:0:
112,286,26664,2,0,P|124:242|135:214,1,66.4999979705811,2|0,0:2|0:0,0:0:0:0:
211,257,27009,2,0,P|237:219|257:197,1,66.4999979705811
162,146,27354,1,0,0:0:0:0:
162,146,27526,1,2,0:2:0:0:
232,19,27699,6,0,P|149:38|92:2,1,132.999995941162,2|0,0:2|0:0,0:0:0:0:
24,129,28216,2,0,P|81:191|79:258,1,132.999995941162,2|0,0:2|0:0,0:0:0:0:
244,312,28733,2,0,B|139:296|156:366|43:347,1,199.499993911743,2|0,0:2|0:0,0:0:0:0:
61,222,29423,2,0,P|49:184|34:155,2,66.4999979705811,2|2|2,0:2|0:2|0:2,0:0:0:0:
169,170,29940,2,0,P|222:171|253:174,1,66.4999979705811,2|0,0:2|0:0,0:0:0:0:
309,309,30285,6,0,L|323:159,1,132.999995941162,2|0,0:2|0:0,0:0:0:0:
365,78,30802,2,0,P|408:96|448:96,1,66.4999979705811
285,16,31147,2,0,P|242:34|202:34,1,66.4999979705811
208,135,31492,2,0,P|165:117|125:117,1,66.4999979705811
0,193,31837,5,2,0:2:0:0:
25,103,32009,1,0,0:0:0:0:
101,202,32181,2,0,P|101:224|98:270,1,66.4999979705811
38,109,32526,2,0,P|35:75|35:42,1,66.4999979705811
114,192,32871,1,0,0:0:0:0:
114,192,33044,1,0,0:0:0:0:
241,63,33216,6,0,B|318:51|299:96|368:86,2,132.999995941162,2|0|2,0:2|0:0|0:2,0:0:0:0:
172,149,34078,1,2,0:2:0:0:
300,211,34250,2,0,P|275:166|260:151,1,66.4999979705811,2|2,0:2|0:2,0:0:0:0:
91,254,34595,6,0,L|199:229,1,99.7499969558717,2|2,0:2|0:2,0:0:0:0:
331,345,35113,2,0,B|297:339|265:335,1,66.4999979705811,2|0,0:2|0:0,0:0:0:0:
374,242,35457,2,0,B|341:246|308:251,2,66.4999979705811,2|0|2,0:2|0:0|0:2,0:0:0:0:
449,153,35975,5,2,0:2:0:0:
453,157,36664,1,2,0:2:0:0:
453,157,36837,1,2,0:2:0:0:
372,226,37009,1,2,0:2:0:0:
372,226,37182,1,2,0:2:0:0:
401,334,37354,6,0,P|349:319|259:306,1,132.999995941162,2|2,0:2|0:2,0:0:0:0:
86,320,37871,2,0,P|118:300|147:270,1,66.4999979705811,2|0,0:2|0:0,0:0:0:0:
57,163,38216,2,0,P|60:196|66:228,1,66.4999979705811,2|0,0:2|0:0,0:0:0:0:
180,123,38561,1,2,0:2:0:0:
54,46,38733,6,0,P|171:24|202:24,1,132.999995941162,0|0,1:2|1:2,0:0:0:0:
282,160,39423,2,0,P|165:138|134:138,1,132.999995941162,0|0,1:2|1:2,0:0:0:0:
41,262,40113,2,0,P|158:240|189:240,1,132.999995941162,0|2,1:2|1:2,0:0:0:0:
240,309,40630,1,2,0:2:0:0:
330,214,40802,1,2,1:2:0:0:
302,129,40975,1,2,0:2:0:0:
253,299,41147,1,2,1:2:0:0:
225,384,41320,1,2,0:2:0:0:
477,349,41492,6,0,P|406:348|368:299,1,132.999995941162,2|0,1:2|1:2,0:0:0:0:
389,94,42009,2,0,P|421:153|398:211,1,132.999995941162,2|0,0:2|0:0,0:0:0:0:
234,243,42526,2,0,L|310:232,1,66.4999979705811,2|0,1:2|0:0,0:0:0:0:
76,252,42871,5,2,0:2:0:0:
163,297,43043,1,2,0:2:0:0:
58,161,43216,1,2,0:2:0:0:
24,333,43388,1,2,0:2:0:0:
152,207,43560,5,2,0:2:0:0:
128,124,43733,1,2,0:2:0:0:
253,40,43905,1,2,0:2:0:0:
229,133,44078,1,2,0:2:0:0:
165,343,44250,6,0,L|280:328,1,95,6|0,1:2|0:0,0:0:0:0:
512,217,44595,2,0,B|401:236|433:175|328:189,1,190,8|0,0:2|0:0,0:0:0:0:
147,358,45113,1,0,1:2:0:0:
199,139,45285,2,0,P|221:187|224:242,1,95,8|0,0:2|0:0,0:0:0:0:
28,73,45630,6,0,P|93:52|191:64,1,142.5,0|0,1:2|0:0,0:0:0:0:
249,37,45975,2,0,P|170:56|202:140,1,190,8|0,0:2|0:0,0:0:0:0:
355,226,46492,1,0,1:2:0:0:
422,49,46664,2,0,P|367:67|325:101,1,95,8|0,0:2|0:0,0:0:0:0:
451,264,47009,5,2,1:2:0:0:
414,175,47181,1,0,0:0:0:0:
294,350,47354,2,0,B|403:329|377:404|473:385,1,190,8|0,0:2|0:0,0:0:0:0:
282,362,47871,1,0,1:2:0:0:
333,181,48044,2,0,P|399:228|412:251,1,95,8|0,0:2|0:0,0:0:0:0:
157,244,48388,5,2,1:2:0:0:
259,65,48561,1,0,0:0:0:0:
350,288,48733,1,10,0:2:0:0:
275,167,48906,1,0,0:0:0:0:
89,352,49078,5,2,0:2:0:0:
175,382,49250,1,0,1:2:0:0:
382,264,49423,1,10,0:2:0:0:
469,300,49595,1,0,0:0:0:0:
205,301,49768,6,0,P|222:227|227:181,1,95,6|0,1:2|0:0,0:0:0:0:
2,137,50113,2,0,P|90:117|128:199,1,190,8|0,0:2|0:0,0:0:0:0:
0,247,50630,1,0,1:2:0:0:
50,23,50802,2,0,P|76:95|81:127,1,95,8|0,0:2|0:0,0:0:0:0:
314,248,51147,6,0,P|267:237|166:237,1,142.5,0|0,1:2|0:0,0:0:0:0:
97,269,51492,2,0,P|150:239|183:114,1,190,8|0,0:2|0:0,0:0:0:0:
20,29,52009,1,0,1:2:0:0:
185,234,52181,2,0,P|232:231|275:211,1,95,8|0,0:2|0:0,0:0:0:0:
94,66,52526,5,2,1:2:0:0:
6,124,52699,1,0,0:0:0:0:
264,26,52871,2,0,B|234:136|305:115|269:231,1,190,8|0,0:2|0:0,0:0:0:0:
178,335,53388,1,0,1:2:0:0:
78,144,53561,2,0,P|124:136|166:156,1,95,8|0,0:2|0:0,0:0:0:0:
331,384,53906,5,2,1:2:0:0:
127,295,54078,1,0,0:0:0:0:
383,197,54250,1,10,0:2:0:0:
252,316,54422,1,0,0:0:0:0:
159,142,54595,5,2,0:2:0:0:
182,48,54768,1,0,1:2:0:0:
74,239,54940,1,10,0:2:0:0:
98,334,55113,1,0,1:2:0:0:
14,115,55285,6,0,P|69:106|111:81,1,95,6|0,1:2|0:0,0:0:0:0:
251,231,55630,2,0,P|191:192|228:88,1,190,8|0,0:2|0:0,0:0:0:0:
339,16,56147,1,0,1:2:0:0:
472,210,56319,2,0,P|391:187|361:183,1,95,8|0,0:2|0:0,0:0:0:0:
109,343,56664,6,0,P|247:320|276:313,1,142.5,0|0,1:2|0:0,0:0:0:0:
358,349,57009,2,0,P|286:336|255:218,1,190,8|0,0:2|0:0,0:0:0:0:
357,121,57526,1,0,1:2:0:0:
125,8,57699,2,0,L|151:137,1,95,8|0,0:2|0:0,0:0:0:0:
29,250,58044,5,2,1:2:0:0:
78,384,58216,1,0,0:0:0:0:
180,185,58388,2,0,B|73:201|102:130|-1:149,1,190,8|0,0:2|0:0,0:0:0:0:
181,324,58906,1,0,1:2:0:0:
295,114,59078,2,0,P|256:87|209:85,1,95,8|0,0:2|0:0,0:0:0:0:
271,317,59423,5,2,1:2:0:0:
423,104,59595,1,0,0:0:0:0:
474,384,59768,1,10,0:2:0:0:
297,121,59940,1,0,0:0:0:0:
250,378,60113,5,2,0:2:0:0:
342,342,60285,1,0,1:2:0:0:
147,256,60457,1,10,0:2:0:0:
57,224,60629,1,0,0:0:0:0:
291,168,60802,6,0,P|368:190|404:204,1,95,6|0,1:2|0:0,0:0:0:0:
130,74,61147,2,0,P|221:81|287:16,1,190,8|0,0:2|0:0,0:0:0:0:
156,220,61664,1,0,1:2:0:0:
51,13,61837,2,0,P|32:120|40:150,1,95,8|0,0:2|0:0,0:0:0:0:
240,239,62181,6,0,P|148:242|122:291,1,142.5,0|0,1:2|0:0,0:0:0:0:
49,320,62526,2,0,L|257:346,1,190,8|0,0:2|0:0,0:0:0:0:
343,208,63044,1,0,1:2:0:0:
446,377,63216,2,0,P|456:313|465:247,1,95,8|0,0:2|0:0,0:0:0:0:
244,203,63561,5,2,1:2:0:0:
352,245,63733,1,0,0:0:0:0:
386,16,63906,2,0,P|301:18|294:117,1,190,8|0,0:2|0:0,0:0:0:0:
470,247,64423,1,0,1:2:0:0:
489,84,64595,2,0,P|444:99|397:101,1,95,8|0,0:2|0:0,0:0:0:0:
133,22,64940,5,2,1:2:0:0:
272,280,65113,1,0,0:0:0:0:
353,27,65285,1,10,0:2:0:0:
231,155,65457,1,0,0:0:0:0:
462,326,65630,5,2,0:2:0:0:
471,244,65802,1,0,1:2:0:0:
324,115,65975,1,10,0:2:0:0:
315,33,66147,1,0,1:2:0:0:
252,263,66319,6,0,P|217:202|123:203,1,170.999994781494,6|8,1:2|0:2,0:0:0:0:
26,320,66837,2,0,P|75:303|132:289,1,85.4999973907472,2|0,0:0|0:0,0:0:0:0:
274,375,67181,1,0,1:2:0:0:
314,201,67354,2,0,P|265:184|208:170,1,85.4999973907472,10|0,0:2|0:0,0:0:0:0:
465,375,67699,6,0,L|477:277,1,85.4999973907472,0|0,1:2|0:0,0:0:0:0:
379,85,68044,2,0,P|400:166|492:163,1,170.999994781494,10|0,0:2|0:0,0:0:0:0:
369,79,68561,1,0,1:2:0:0:
330,288,68733,1,8,0:2:0:0:
258,158,68906,1,2,0:0:0:0:
206,364,69078,6,0,P|104:361|28:348,1,170.999994781494,2|8,1:2|0:2,0:0:0:0:
17,166,69595,2,0,P|119:169|116:244,1,170.999994781494,2|0,0:0|1:2,0:0:0:0:
10,32,70113,2,0,P|87:21|120:29,1,85.4999973907472,10|0,0:2|0:0,0:0:0:0:
303,190,70457,6,0,P|261:144|260:106,1,85.4999973907472,0|0,1:2|0:0,0:0:0:0:
139,296,70802,2,0,P|153:192|183:106,1,170.999994781494,10|0,0:2|0:0,0:0:0:0:
260,365,71319,1,0,1:2:0:0:
338,166,71492,1,8,0:2:0:0:
387,286,71664,1,2,0:0:0:0:
89,201,71837,6,0,P|172:201|218:288,1,170.999994781494,2|8,1:2|0:2,0:0:0:0:
4,348,72354,2,0,P|69:334|109:312,1,85.4999973907472,2|0,0:0|0:0,0:0:0:0:
202,162,72699,1,0,1:2:0:0:
35,72,72871,2,0,L|14:173,1,85.4999973907472,10|0,0:2|0:0,0:0:0:0:
282,43,73216,6,0,P|210:48|126:69,1,128.249996086121,0|0,1:2|0:0,0:0:0:0:
129,101,73561,1,10,0:2:0:0:
240,220,73733,1,2,0:0:0:0:
308,32,73906,2,0,P|276:78|268:120,1,85.4999973907472,2|2,0:0|1:2,0:0:0:0:
344,261,74250,1,8,0:2:0:0:
400,135,74423,1,2,0:0:0:0:
495,371,74595,5,2,1:2:0:0:
443,237,74768,1,0,0:0:0:0:
244,372,74940,2,0,P|149:365|116:295,1,170.999994781494,8|0,0:2|0:0,0:0:0:0:
130,175,75457,1,0,1:2:0:0:
310,168,75630,2,0,L|303:262,1,85.4999973907472,8|0,0:2|0:0,0:0:0:0:
433,43,75975,5,2,1:2:0:0:
317,160,76147,1,0,0:0:0:0:
488,306,76319,1,10,0:2:0:0:
417,126,76492,1,0,0:0:0:0:
198,321,76664,5,2,0:2:0:0:
286,292,76837,1,0,1:2:0:0:
496,221,77009,1,10,0:2:0:0:
413,196,77182,1,0,1:2:0:0:
253,102,77354,6,0,P|324:99|365:87,1,85.4999973907472,6|0,1:2|0:0,0:0:0:0:
116,34,77699,2,0,P|73:27|31:27,1,85.4999973907472,8|0,0:2|0:0,0:0:0:0:
192,208,78044,1,2,0:0:0:0:
253,102,78216,1,2,1:2:0:0:
57,206,78388,2,0,P|59:248|73:288,1,85.4999973907472,10|2,0:2|0:0,0:0:0:0:
253,191,78733,5,2,1:2:0:0:
154,17,78906,2,0,P|181:75|188:119,1,85.4999973907472,2|8,0:0|0:2,0:0:0:0:
0,226,79250,2,0,P|11:184|31:147,1,85.4999973907472,2|0,0:0|0:0,0:0:0:0:
215,319,79595,2,0,P|203:277|183:240,1,85.4999973907472,2|8,1:2|0:2,0:0:0:0:
64,371,79940,1,2,0:0:0:0:
261,229,80113,6,0,B|175:220|123:194|122:194,1,128.249996086121,2|0,1:2|0:0,0:0:0:0:
41,210,80457,2,0,P|105:209|167:218,1,85.4999973907472,8|0,0:2|0:0,0:0:0:0:
266,379,80802,1,2,0:0:0:0:
319,250,80975,1,2,1:2:0:0:
143,162,81147,1,10,0:2:0:0:
202,283,81319,1,2,0:0:0:0:
263,61,81492,6,0,B|190:39|124:47,1,128.249996086121,2|0,1:2|0:0,0:0:0:0:
117,60,81837,1,10,0:2:0:0:
29,227,82009,2,0,L|127:205,1,85.4999973907472,2|0,0:0|0:0,0:0:0:0:
266,75,82354,1,2,1:2:0:0:
227,267,82526,2,0,P|217:224|212:165,1,85.4999973907472,8|2,0:2|0:0,0:0:0:0:
406,56,82871,5,2,1:2:0:0:
373,213,83044,1,0,0:0:0:0:
142,116,83216,2,0,P|218:85|288:171,1,170.999994781494,8|0,0:2|0:0,0:0:0:0:
339,322,83733,1,0,1:2:0:0:
125,245,83906,2,0,P|238:231|248:232,1,85.4999973907472,8|0,0:2|0:0,0:0:0:0:
419,361,84250,5,0,1:2:0:0:
419,361,84595,5,10,0:2:0:0:
445,262,84768,1,2,0:0:0:0:
474,164,84940,1,2,0:0:0:0:
510,328,85113,1,2,1:2:0:0:
257,276,85285,2,0,P|341:265|368:255,1,85.4999973907472,10|2,0:2|0:0,0:0:0:0:
161,147,85630,6,0,B|61:164|94:99|-1:114,1,170.999994781494,2|8,1:2|0:2,0:0:0:0:
15,358,86147,2,0,P|62:286|156:301,1,170.999994781494,2|0,0:0|1:2,0:0:0:0:
276,378,86664,2,0,P|250:319|259:278,1,85.4999973907472,10|0,0:2|0:0,0:0:0:0:
318,106,87009,5,2,1:2:0:0:
397,256,87181,1,0,0:0:0:0:
460,33,87354,1,10,0:2:0:0:
426,145,87526,1,0,0:0:0:0:
174,53,87699,5,2,0:2:0:0:
263,24,87871,1,0,1:2:0:0:
421,156,88044,1,10,0:2:0:0:
510,127,88216,1,0,1:2:0:0:
269,168,88388,6,0,P|276:200|282:233,1,66.4999979705811,4|0,1:2|0:0,0:0:0:0:
300,377,88733,2,0,P|255:330|191:338,1,132.999995941162,8|0,0:0|0:0,0:0:0:0:
81,309,89250,1,0,1:2:0:0:
81,309,89337,1,0,1:2:0:0:
81,309,89423,2,0,L|101:394,1,66.4999979705811,8|0,0:0|0:0,0:0:0:0:
293,369,89768,6,0,P|294:335|300:303,1,66.4999979705811,0|0,1:2|0:0,0:0:0:0:
417,239,90113,2,0,P|349:208|267:191,1,132.999995941162,8|0,0:0|0:0,0:0:0:0:
173,109,90630,1,0,1:2:0:0:
173,109,90716,1,0,1:2:0:0:
173,109,90802,1,8,0:0:0:0:
211,233,90975,1,0,0:0:0:0:
324,88,91147,6,0,L|313:22,1,66.4999979705811,0|0,1:2|0:0,0:0:0:0:
485,210,91492,2,0,P|432:172|368:185,1,132.999995941162,8|0,0:0|0:0,0:0:0:0:
260,171,92009,1,0,1:2:0:0:
260,171,92095,1,0,1:2:0:0:
260,171,92181,2,0,P|271:202|278:234,1,66.4999979705811,8|0,0:0|0:0,0:0:0:0:
323,383,92526,6,0,P|289:381|256:381,1,66.4999979705811,0|0,1:2|0:0,0:0:0:0:
64,359,92871,2,0,P|122:325|112:255,1,132.999995941162,8|0,0:0|0:0,0:0:0:0:
65,172,93388,1,0,1:2:0:0:
65,172,93475,1,0,1:2:0:0:
65,172,93561,2,0,P|34:184|4:198,1,66.4999979705811,8|0,0:0|0:0,0:0:0:0:
274,308,93906,6,0,L|295:210,1,99.7499969558717,0|0,1:2|0:0,0:0:0:0:
364,151,94250,2,0,P|291:81|300:43,1,132.999995941162,8|0,0:0|0:0,0:0:0:0:
477,205,94768,1,0,1:2:0:0:
477,205,94854,1,0,1:2:0:0:
477,205,94940,2,0,P|487:239|494:269,1,66.4999979705811,8|0,0:0|0:0,0:0:0:0:
272,317,95285,5,0,1:2:0:0:
340,262,95457,1,0,0:0:0:0:
172,372,95630,2,0,P|162:324|170:231,1,132.999995941162,8|0,0:0|0:0,0:0:0:0:
295,152,96147,1,0,1:2:0:0:
295,152,96233,1,0,1:2:0:0:
295,152,96319,2,0,B|316:153|369:147,1,66.4999979705811,8|0,0:0|0:0,0:0:0:0:
453,368,96664,6,0,P|458:316|468:254,1,99.7499969558717,0|0,1:2|0:0,0:0:0:0:
379,306,97009,2,0,P|373:239|364:173,1,132.999995941162,8|0,0:0|0:0,0:0:0:0:
431,46,97526,1,0,1:2:0:0:
431,46,97613,1,0,1:2:0:0:
431,46,97699,1,8,0:0:0:0:
355,162,97871,1,0,0:0:0:0:
203,22,98044,6,0,P|180:76|173:107,1,66.4999979705811,0|0,1:2|0:0,0:0:0:0:
35,174,98388,2,0,P|95:191|124:279,1,132.999995941162,8|0,0:0|0:0,0:0:0:0:
98,369,98906,1,0,1:2:0:0:
98,369,98992,1,0,1:2:0:0:
98,369,99078,1,8,0:0:0:0:
210,319,99250,1,0,1:2:0:0:
31,190,99423,6,0,P|24:137|20:110,1,66.4999979705811,4|0,1:2|0:0,0:0:0:0:
166,41,99768,2,0,P|103:55|56:12,1,132.999995941162,8|0,0:0|0:0,0:0:0:0:
316,101,100285,1,0,1:2:0:0:
316,101,100371,1,0,1:2:0:0:
316,101,100457,2,0,P|281:96|253:107,1,66.4999979705811,8|0,0:0|0:0,0:0:0:0:
293,277,100802,6,0,L|305:185,1,66.4999979705811,0|0,1:2|0:0,0:0:0:0:
502,281,101147,2,0,P|454:238|391:252,1,132.999995941162,8|0,0:0|0:0,0:0:0:0:
265,376,101664,1,0,1:2:0:0:
265,376,101750,1,0,1:2:0:0:
265,376,101837,2,0,P|260:343|251:311,1,66.4999979705811,8|0,0:0|0:0,0:0:0:0:
44,298,102181,5,0,1:2:0:0:
119,256,102354,1,0,0:0:0:0:
251,384,102526,2,0,P|200:337|225:270,1,132.999995941162,8|0,0:0|0:0,0:0:0:0:
307,185,103044,1,0,1:2:0:0:
307,185,103130,1,0,1:2:0:0:
307,185,103216,1,8,0:0:0:0:
218,265,103388,1,0,0:0:0:0:
401,351,103561,6,0,L|393:273,1,66.4999979705811,0|0,1:2|0:0,0:0:0:0:
495,205,103906,2,0,B|417:213|440:176|367:176,1,132.999995941162,8|0,0:0|0:0,0:0:0:0:
245,170,104423,1,0,1:2:0:0:
245,170,104509,1,0,1:2:0:0:
245,170,104595,2,0,P|249:137|261:106,1,66.4999979705811,8|0,0:0|0:0,0:0:0:0:
112,324,104940,6,0,P|99:222|93:197,1,99.7499969558717,0|0,1:2|0:0,0:0:0:0:
16,185,105285,2,0,P|72:185|109:113,1,132.999995941162,8|0,0:0|0:0,0:0:0:0:
65,32,105802,1,0,1:2:0:0:
65,32,105888,1,0,1:2:0:0:
65,32,105975,1,8,0:0:0:0:
191,129,106147,1,0,0:0:0:0:
94,299,106319,6,0,P|157:281|196:271,1,99.7499969558717,0|0,1:2|0:0,0:0:0:0:
280,260,106664,2,0,P|275:342|327:380,1,132.999995941162,8|0,0:0|0:0,0:0:0:0:
400,236,107181,1,0,1:2:0:0:
400,236,107268,1,0,1:2:0:0:
400,236,107354,2,0,P|389:204|369:178,1,66.4999979705811,8|0,0:0|0:0,0:0:0:0:
451,80,107699,1,0,1:0:0:0:
256,192,107785,12,0,110285,0:0:0:0:
294,284,110457,6,0,P|242:276|184:268,1,95,2|0,0:0|0:0,0:0:0:0:
125,196,110975,2,0,P|177:188|235:180,1,95,2|0,0:0|0:0,0:0:0:0:
110,331,111492,2,0,P|101:279|13:253,1,142.5,2|0,0:0|0:0,0:0:0:0:
21,132,112181,2,0,B|141:145|102:83|214:93,1,190,2|0,0:0|0:0,0:0:0:0:
275,168,113044,1,2,0:0:0:0:
367,119,113216,6,0,P|350:70|343:24,1,95,2|0,0:0|0:0,0:0:0:0:
463,106,113733,2,0,P|455:152|440:198,1,95,2|0,0:0|0:0,0:0:0:0:
355,297,114250,2,0,P|431:297|502:272,1,142.5,2|0,0:0|0:0,0:0:0:0:
382,184,114940,2,0,P|381:105|284:69,1,190,2|0,0:0|0:0,0:0:0:0:
220,144,115802,1,2,0:0:0:0:
35,46,115975,6,0,P|75:72|86:124,1,95,2|0,0:0|0:0,0:0:0:0:
220,144,116492,2,0,P|180:170|169:222,1,95,2|0,0:0|0:0,0:0:0:0:
124,309,117009,2,0,P|182:322|241:269,1,142.5,2|0,0:0|0:0,0:0:0:0:
155,175,117699,2,0,L|137:114,1,47.5,2|2,0:0|0:0,0:0:0:0:
266,182,118044,2,0,L|250:258,2,71.25,2|0|2,0:0|0:0|0:0,0:0:0:0:
383,273,118733,5,2,0:0:0:0:
383,273,121147,2,0,L|400:341,1,47.5,2|0,0:0|0:0,0:0:0:0:
260,301,121492,6,0,P|275:225|283:142,1,142.5,2|0,0:0|0:0,0:0:0:0:
189,80,122181,2,0,P|157:102|134:113,2,47.5,2|2|2,0:0|0:0|0:0,0:0:0:0:
293,166,122699,1,2,0:0:0:0:
366,92,122871,6,0,P|360:51|344:3,1,71.25,2|0,0:0|0:0,0:0:0:0:
414,187,123388,2,0,P|466:194|505:214,2,95,2|2|2,0:0|0:0|0:0,0:0:0:0:
316,340,124250,6,0,P|400:339|425:280,1,142.5,2|0,0:0|0:0,0:0:0:0:
328,188,124940,1,2,0:0:0:0:
269,134,125113,1,2,0:0:0:0:
200,195,125285,2,0,L|210:257,1,47.5,2|2,0:0|0:0,0:0:0:0:
67,363,125630,6,0,P|100:325|92:268,1,95,2|0,0:0|0:0,0:0:0:0:
130,182,126147,2,0,P|82:182|41:160,2,95,2|2|2,0:0|0:0|0:0,0:0:0:0:
233,95,127009,5,2,0:0:0:0:
217,154,128733,2,0,P|252:142|271:140,1,47.5,2|2,0:0|0:0,0:0:0:0:
343,39,129078,2,0,P|335:75|328:92,1,47.5,2|2,0:0|0:0,0:0:0:0:
379,205,129423,2,0,P|351:180|339:165,1,47.5,2|2,0:0|0:0,0:0:0:0:
429,304,129768,6,0,P|370:317|310:287,1,126.666666666667,2|0,0:0|0:0,0:0:0:0:
268,311,130342,2,0,P|209:298|149:328,1,126.666666666667
87,287,130917,1,0,0:0:0:0:
256,192,130975,12,0,132526,0:0:0:0:
