osu file format v14

[General]
AudioFilename: audio.mp3
AudioLeadIn: 0
PreviewTime: 80025
Countdown: 0
SampleSet: Soft
StackLeniency: 0.9
Mode: 0
LetterboxInBreaks: 0
WidescreenStoryboard: 0

[Editor]
Bookmarks: 44650
DistanceSpacing: 1
BeatDivisor: 4
GridSize: 32
TimelineZoom: 0.5999999

[Metadata]
Title:Little Rain Drop
TitleUnicode:Little Rain Drop
Artist:StaticP & nyansai
ArtistUnicode:StaticP & nyansai
Creator:Lorkee
Version:Easy
Source:Einshine Theme Song
Tags:StaticP & nyansai Little Rain Drop Einshine Theme Song
BeatmapID:1205377
BeatmapSetID:567935

[Difficulty]
HPDrainRate:2
CircleSize:3
OverallDifficulty:2
ApproachRate:3
SliderMultiplier:0.899999999999999
SliderTickRate:1

[Events]
//Background and Video events
0,0,"bg.jpg",0,0
//Break Periods
2,48140,54710
2,64350,78710
//Storyboard Layer 0 (Background)
//Storyboard Layer 1 (Fail)
//Storyboard Layer 2 (Pass)
//Storyboard Layer 3 (Foreground)
//Storyboard Sound Samples

[TimingPoints]
150,500,4,2,0,60,1,0
56150,-100,4,2,0,30,0,0
80150,-100,4,2,0,60,0,1
96150,-100,4,2,0,60,0,0

[Colours]
Combo1 : 254,253,197
Combo2 : 57,44,135
Combo3 : 236,121,145
Combo4 : 44,133,119

[HitObjects]
453,64,150,6,0,L|319:83,1,135,2|0,0:0|0:0,0:0:0:0:
185,101,1650,1,2,0:0:0:0:
210,187,2150,2,0,L|343:206,1,135,2|0,0:0|0:0,0:0:0:0:
477,223,3650,1,2,0:0:0:0:
418,291,4150,6,0,P|355:313|289:299,1,135,2|0,0:0|0:0,0:0:0:0:
210,187,5650,1,2,0:0:0:0:
179,102,6150,2,0,P|142:127|123:167,1,89.9999999999999,2|0,0:0|0:0,0:0:0:0:
121,257,7150,1,0,0:0:0:0:
210,257,7650,1,2,0:0:0:0:
298,256,8150,6,0,P|363:241|404:189,1,135,2|0,0:0|0:0,0:0:0:0:
445,61,9650,1,2,0:0:0:0:
355,61,10150,2,0,L|220:61,1,135,2|0,0:0|0:0,0:0:0:0:
87,87,11650,1,2,0:0:0:0:
85,175,12150,6,0,P|152:183|214:159,1,135,2|0,0:0|0:0,0:0:0:0:
340,110,13650,1,2,0:0:0:0:
429,126,14150,2,0,L|445:60,2,67.4999999999999,2|0|2,0:0|0:0|0:0,0:0:0:0:
216,203,16150,6,0,L|84:174,1,135,4|0,0:3|0:0,0:0:0:0:
187,87,17650,2,0,L|275:106,1,89.9999999999999,4|2,0:3|0:3,0:0:0:0:
362,127,18650,5,0,0:0:0:0:
449,149,19150,1,0,0:0:0:0:
386,213,19650,1,4,0:3:0:0:
462,258,20150,6,0,P|431:289|389:302,1,89.9999999999999,4|2,0:3|0:3,0:0:0:0:
308,264,21150,2,0,P|263:263|224:284,1,89.9999999999999,0|4,0:0|0:3,0:0:0:0:
153,340,22150,2,0,L|82:283,1,89.9999999999999,4|4,0:3|0:3,0:0:0:0:
40,204,23150,5,0,0:0:0:0:
94,132,23650,1,4,0:3:0:0:
149,60,24150,1,8,0:0:0:0:
188,140,24650,6,0,B|232:154|232:154|274:144,1,89.9999999999999
348,94,25650,2,0,P|388:75|428:94,1,89.9999999999999,4|4,0:3|0:3,0:0:0:0:
472,172,26650,5,0,0:3:0:0:
464,261,27150,1,0,0:0:0:0:
402,325,27650,1,4,0:3:0:0:
312,307,28150,6,0,P|280:277|268:234,1,89.9999999999999,4|4,0:3|0:3,0:0:0:0:
274,144,29150,1,0,0:0:0:0:
214,76,29650,1,4,0:3:0:0:
123,76,30150,6,0,L|76:151,1,89.9999999999999,4|4,0:3|0:3,0:0:0:0:
55,239,31150,1,0,0:0:0:0:
108,311,31650,1,0,0:0:0:0:
181,258,32150,6,0,L|267:232,1,89.9999999999999,4|0,0:3|0:0,0:0:0:0:
273,142,33150,2,0,L|186:167,1,89.9999999999999,0|2,0:0|0:3,0:0:0:0:
92,171,34150,6,0,P|76:129|86:85,1,89.9999999999999,4|0,0:3|0:0,0:0:0:0:
162,38,35150,1,0,0:0:0:0:
241,80,35650,1,2,0:3:0:0:
330,80,36150,6,0,L|420:80,1,89.9999999999999,4|0,0:3|0:0,0:0:0:0:
456,164,37150,2,0,P|427:197|385:212,1,89.9999999999999,0|2,0:0|0:3,0:0:0:0:
295,224,38150,5,4,0:3:0:0:
205,214,38650,1,0,0:0:0:0:
235,128,39151,2,0,P|191:125|150:142,1,89.9999999999999,0|2,0:0|0:3,0:0:0:0:
104,219,40150,5,4,0:3:0:0:
154,293,40650,1,0,0:0:0:0:
205,214,41150,2,0,P|249:206|294:202,1,89.9999999999999,0|4,0:0|0:3,0:0:0:0:
384,201,42150,6,0,P|421:176|444:138,1,89.9999999999999,4|0,0:3|0:0,0:0:0:0:
427,50,43150,2,0,P|383:41|338:44,1,89.9999999999999,0|2,0:0|0:3,0:0:0:0:
250,66,44150,5,4,0:3:0:0:
160,54,44650,1,0,0:0:0:0:
88,108,45150,2,0,P|67:97|49:84,2,45
170,140,46150,6,0,P|234:161|302:159,1,135,4|0,0:3|0:0,0:0:0:0:
236,99,56150,6,0,P|386:127|303:255,1,360
302,163,60150,6,0,P|454:184|382:320,1,360
203,291,63150,2,0,P|162:274|125:248,1,89.9999999999999
70,177,64150,1,0,0:0:0:0:
447,192,80150,6,0,L|317:228,1,135,2|0,0:3|0:0,0:0:0:0:
199,160,81650,1,0,0:0:0:0:
222,73,82150,6,0,P|308:54|366:124,1,180,6|0,0:3|0:0,0:0:0:0:
294,172,83650,1,0,0:0:0:0:
205,186,84150,2,0,P|166:209|147:249,1,89.9999999999999,0|2,0:0|0:0,0:0:0:0:
58,257,85150,5,0,0:0:0:0:
46,167,85650,1,2,0:3:0:0:
67,78,86150,6,0,P|105:56|150:49,1,89.9999999999999,0|2,0:0|0:3,0:0:0:0:
239,60,87150,2,0,P|278:79|323:80,1,89.9999999999999,0|4,0:0|0:3,0:0:0:0:
412,60,88150,6,0,B|430:97|430:97|435:190,1,135
364,306,89650,1,4,0:3:0:0:
279,336,90150,6,0,P|235:346|190:344,1,89.9999999999999,0|4,0:3|0:0,0:0:0:0:
108,311,91150,1,0,0:0:0:0:
39,252,91650,1,4,0:3:0:0:
119,212,92150,6,0,P|135:170|131:125,1,89.9999999999999,0|4,0:0|0:3,0:0:0:0:
90,44,93150,2,0,P|133:34|175:46,1,89.9999999999999,0|2,0:0|0:3,0:0:0:0:
248,97,94150,6,0,P|309:127|375:142,1,135
455,251,95650,1,4,0:3:0:0:
389,312,96150,5,0,0:0:0:0:
301,331,96650,2,0,P|256:337|211:332,1,89.9999999999999,2|0,0:0|0:0,0:0:0:0:
131,289,97650,2,0,P|91:309|48:321,2,89.9999999999999,4|0|2,0:3|0:0|0:3,0:0:0:0:
103,202,99150,2,0,P|137:174|181:166,1,89.9999999999999
248,224,100150,6,0,P|255:267|284:301,1,89.9999999999999,8|0,0:3|0:0,0:0:0:0:
372,283,101150,1,0,0:0:0:0:
407,200,101650,1,4,0:3:0:0:
409,110,102150,6,0,P|382:74|341:56,1,89.9999999999999,2|0,0:3|0:0,0:0:0:0:
252,64,103150,1,0,0:0:0:0:
165,37,103650,1,0,0:0:0:0:
82,72,104150,6,0,P|94:114|122:149,1,89.9999999999999,4|0,0:3|0:0,0:0:0:0:
200,193,105150,1,2,0:0:0:0:
262,258,105650,2,0,P|291:291|330:314,1,89.9999999999999,2|0,0:3|0:0,0:0:0:0:
417,290,106650,2,0,P|454:315|486:346,2,89.9999999999999,4|0|2,0:3|0:0|0:0,0:0:0:0:
351,225,108150,6,0,P|322:192|305:151,1,89.9999999999999,0|4,0:0|0:3,0:0:0:0:
249,80,109150,1,0,0:0:0:0:
159,80,109650,1,2,0:3:0:0:
75,112,110150,6,0,L|57:200,1,89.9999999999999,2|2,0:0|0:3,0:0:0:0:
133,249,111150,2,0,L|150:160,2,89.9999999999999,0|2|0,0:0|0:3|0:0,0:0:0:0:
