osu file format v14

[General]
AudioFilename: 15 - New Gravity.mp3
AudioLeadIn: 0
PreviewTime: 55123
Countdown: 0
SampleSet: Soft
StackLeniency: 0.7
Mode: 3
LetterboxInBreaks: 0
SpecialStyle: 0
WidescreenStoryboard: 0

[Editor]
DistanceSpacing: 1
BeatDivisor: 4
GridSize: 4
TimelineZoom: 0.9999998

[Metadata]
Title:New Gravity
TitleUnicode:New Gravity
Artist:Starving Trancer
ArtistUnicode:Starving Trancer
Creator:bilqiscutee
Version:4K Hyper
Source:Dance Dance Revolution 2013
Tags:ddr jubeat saucer DE-CADE puxtu [Shana Lesus] Remillion Cross LordRaika ExUsagi Takane6
BeatmapID:517284
BeatmapSetID:221085

[Difficulty]
HPDrainRate:8
CircleSize:4
OverallDifficulty:7.5
ApproachRate:5
SliderMultiplier:1.4
SliderTickRate:1

[Events]
//Background and Video events
0,0,"new gravity.jpg",0,0
//Break Periods
//Storyboard Layer 0 (Background)
//Storyboard Layer 1 (Fail)
//Storyboard Layer 2 (Pass)
//Storyboard Layer 3 (Foreground)
//Storyboard Sound Samples

[TimingPoints]
578,389.61038961039,4,2,0,30,1,0
55123,-100,4,2,0,30,0,1
67590,-100,4,2,0,30,0,0
82006,-100,4,2,0,30,0,1
94084,-100,4,2,0,30,0,0

[HitObjects]
192,192,578,5,2,0:0:0:0:
320,192,578,1,0,0:0:0:0:
64,192,772,1,2,0:0:0:0:
192,192,967,1,2,0:0:0:0:
320,192,1162,1,2,0:0:0:0:
448,192,1552,1,2,0:0:0:0:
320,192,1941,1,2,0:0:0:0:
64,192,2331,1,2,0:0:0:0:
448,192,2720,1,2,0:0:0:0:
192,192,3110,1,2,0:0:0:0:
192,192,3694,1,2,0:0:0:0:
320,192,3694,1,0,0:0:0:0:
64,192,3889,1,2,0:0:0:0:
192,192,4084,1,2,0:0:0:0:
320,192,4279,1,2,0:0:0:0:
448,192,4668,1,2,0:0:0:0:
320,192,5058,1,2,0:0:0:0:
64,192,5448,1,2,0:0:0:0:
448,192,5837,1,2,0:0:0:0:
192,192,6227,1,2,0:0:0:0:
320,192,6616,1,2,0:0:0:0:
448,192,6811,1,0,0:0:0:40:normal-hitnormal.wav
64,192,6811,1,0,0:0:0:0:
192,192,7006,1,0,0:0:0:40:normal-hitnormal.wav
64,192,7201,1,0,0:0:0:0:
448,192,7201,1,0,0:0:0:40:drum-hitnormal3.wav
320,192,7396,1,0,0:0:0:40:normal-hitnormal.wav
192,192,7785,1,0,0:0:0:40:normal-hitnormal.wav
448,192,7980,1,0,0:0:0:0:
64,192,7980,1,0,0:0:0:40:drum-hitnormal3.wav
320,192,8175,1,0,0:0:0:40:normal-hitnormal.wav
64,192,8370,1,0,0:0:0:40:normal-hitnormal.wav
192,192,8370,1,0,0:0:0:0:
320,192,8565,1,0,0:0:0:40:normal-hitnormal.wav
192,192,8759,1,0,0:0:0:0:
448,192,8759,1,0,0:0:0:40:drum-hitnormal3.wav
320,192,8954,1,0,0:0:0:40:normal-hitnormal.wav
64,192,9344,1,0,0:0:0:40:normal-hitnormal.wav
192,192,9539,1,0,0:0:0:0:
448,192,9539,1,0,0:0:0:40:drum-hitnormal3.wav
320,192,9733,1,0,0:0:0:40:normal-hitnormal.wav
448,192,9928,128,0,10513:0:0:0:0:
192,192,9928,1,0,0:0:0:60:normal-hitclap.wav
64,192,10318,1,0,0:0:0:0:
192,192,10318,1,0,0:0:0:40:drum-hitnormal3.wav
320,192,10513,1,0,0:0:0:40:normal-hitnormal.wav
192,192,10610,1,0,0:0:0:40:normal-hitnormal.wav
64,192,10707,128,0,11292:0:0:0:40:normal-hitnormal.wav
320,192,10902,1,0,0:0:0:40:normal-hitnormal.wav
192,192,11097,1,0,0:0:0:0:
448,192,11097,1,0,0:0:0:40:drum-hitnormal3.wav
320,192,11292,1,0,0:0:0:40:normal-hitnormal.wav
192,192,11487,1,0,0:0:0:60:normal-hitclap.wav
448,192,11487,1,0,0:0:0:0:
64,192,11681,1,0,0:0:0:40:normal-hitnormal.wav
192,192,11876,1,0,0:0:0:40:normal-hitnormal.wav
448,192,11876,1,0,0:0:0:40:drum-hitnormal3.wav
320,192,12071,1,0,0:0:0:40:normal-hitnormal.wav
64,192,12266,1,0,0:0:0:40:normal-hitnormal.wav
192,192,12461,1,0,0:0:0:40:normal-hitnormal.wav
320,192,12655,1,0,0:0:0:40:normal-hitnormal.wav
192,192,12850,1,0,0:0:0:40:normal-hitnormal.wav
64,192,13045,1,0,0:0:0:0:
448,192,13045,1,4,0:0:0:0:
320,192,13045,1,0,0:0:0:0:
192,192,13240,1,0,0:0:0:40:snare.wav
448,192,13435,1,0,0:0:0:40:snare.wav
320,192,13629,1,0,0:0:0:40:snare.wav
192,192,13824,1,0,0:0:0:40:snare.wav
448,192,14019,1,0,0:0:0:40:snare.wav
192,192,14214,1,0,0:0:0:40:snare.wav
320,192,14409,1,0,0:0:0:40:snare.wav
64,192,14603,1,0,0:0:0:40:drum-hitnormal3.wav
448,192,14603,1,0,0:0:0:0:
320,192,14993,1,0,0:0:0:0:snare.wav
192,192,14993,1,0,0:0:0:40:drum-hitnormal3.wav
64,192,15383,1,0,0:0:0:40:snare.wav
448,192,15383,1,0,0:0:0:0:
192,192,15480,1,0,0:0:0:40:snare.wav
448,192,15578,1,0,0:0:0:40:snare.wav
320,192,15626,1,0,0:0:0:40:snare.wav
192,192,15675,1,0,0:0:0:40:snare.wav
64,192,15772,1,0,0:0:0:40:snare.wav
448,192,15772,1,0,0:0:0:0:
192,192,15870,1,0,0:0:0:40:snare.wav
320,192,15967,1,0,0:0:0:40:snare.wav
448,192,16065,1,0,0:0:0:40:snare.wav
320,192,16162,1,0,0:0:0:40:normal-hitnormal.wav
192,192,16162,1,0,0:0:0:0:
64,192,16357,1,0,0:0:0:40:normal-hitnormal.wav
192,192,16552,1,0,0:0:0:0:
448,192,16552,1,0,0:0:0:40:drum-hitnormal3.wav
320,192,16746,1,0,0:0:0:60:normal-hitclap.wav
64,192,16941,1,0,0:0:0:60:normal-hitclap.wav
448,192,16941,1,0,0:0:0:0:
192,192,17039,1,0,0:0:0:60:normal-hitclap.wav
320,192,17136,1,0,0:0:0:60:normal-hitclap.wav
64,192,17331,1,0,0:0:0:0:
448,192,17331,1,0,0:0:0:40:drum-hitnormal3.wav
320,192,17526,1,0,0:0:0:40:normal-hitnormal.wav
192,192,17720,1,0,0:0:0:0:
448,192,17720,1,0,0:0:0:80:normal-hitclap.wav
64,192,17915,1,0,0:0:0:40:normal-hitnormal.wav
192,192,18110,1,0,0:0:0:0:
448,192,18110,1,0,0:0:0:40:drum-hitnormal3.wav
320,192,18305,1,0,0:0:0:70:normal-hitclap.wav
64,192,18500,1,0,0:0:0:70:normal-hitclap.wav
448,192,18500,1,0,0:0:0:0:
192,192,18597,1,0,0:0:0:70:normal-hitclap.wav
320,192,18694,1,0,0:0:0:70:normal-hitclap.wav
64,192,18889,1,0,0:0:0:0:
448,192,18889,1,0,0:0:0:50:drum-hitnormal3.wav
320,192,19084,1,0,0:0:0:40:normal-hitnormal.wav
192,192,19279,1,0,0:0:0:0:
448,192,19279,1,0,0:0:0:70:normal-hitclap.wav
320,192,19474,1,0,0:0:0:40:normal-hitnormal.wav
64,192,19668,1,0,0:0:0:40:drum-hitnormal3.wav
448,192,19668,1,0,0:0:0:0:
192,192,19863,1,0,0:0:0:70:normal-hitclap.wav
448,192,20058,1,0,0:0:0:70:normal-hitclap.wav
64,192,20058,1,0,0:0:0:0:
320,192,20155,1,0,0:0:0:70:normal-hitclap.wav
192,192,20253,1,0,0:0:0:70:normal-hitclap.wav
448,192,20448,1,0,0:0:0:0:
64,192,20448,1,0,0:0:0:40:drum-hitnormal3.wav
192,192,20642,1,0,0:0:0:40:normal-hitnormal.wav
320,192,20837,1,0,0:0:0:80:normal-hitclap.wav
64,192,20837,1,0,0:0:0:0:
448,192,21032,1,0,0:0:0:40:normal-hitnormal.wav
192,192,21227,1,0,0:0:0:0:
320,192,21227,1,0,0:0:0:40:drum-hitnormal3.wav
64,192,21422,1,0,0:0:0:90:normal-hitclap.wav
192,192,21616,1,0,0:0:0:0:
448,192,21616,1,0,0:0:0:90:normal-hitclap.wav
320,192,21714,1,0,0:0:0:90:normal-hitclap.wav
192,192,21811,1,0,0:0:0:90:normal-hitclap.wav
448,192,22006,1,0,0:0:0:40:drum-hitnormal3.wav
64,192,22006,1,0,0:0:0:0:
320,192,22103,1,0,0:0:0:45:soft-hitnormal.wav
192,192,22201,1,0,0:0:0:45:soft-hitnormal.wav
320,192,22298,1,0,0:0:0:45:soft-hitnormal.wav
448,192,22396,1,0,0:0:0:80:normal-hitclap.wav
64,192,22396,1,0,0:0:0:0:
192,192,22590,1,0,0:0:0:40:normal-hitnormal.wav
448,192,22785,1,0,0:0:0:40:drum-hitnormal3.wav
64,192,22785,1,0,0:0:0:0:
192,192,22980,1,0,0:0:0:90:normal-hitclap.wav
320,192,23175,1,0,0:0:0:0:
64,192,23175,1,0,0:0:0:40:normal-hitnormal.wav
448,192,23370,1,0,0:0:0:90:normal-hitclap.wav
192,192,23565,1,0,0:0:0:0:
320,192,23565,1,0,0:0:0:40:drum-hitnormal3.wav
64,192,23759,1,0,0:0:0:40:normal-hitnormal.wav
192,192,23954,1,0,0:0:0:0:
448,192,23954,1,0,0:0:0:80:normal-hitclap.wav
320,192,24149,1,0,0:0:0:40:normal-hitnormal.wav
64,192,24344,1,0,0:0:0:0:
448,192,24344,1,0,0:0:0:40:drum-hitnormal3.wav
192,192,24539,1,0,0:0:0:90:normal-hitclap.wav
320,192,24733,1,0,0:0:0:40:normal-hitnormal.wav
64,192,24733,1,0,0:0:0:0:
192,192,24928,1,0,0:0:0:90:normal-hitclap.wav
448,192,25123,1,0,0:0:0:40:drum-hitnormal3.wav
64,192,25123,1,0,0:0:0:0:
320,192,25318,1,0,0:0:0:40:normal-hitnormal.wav
448,192,25513,128,0,25902:0:0:0:0:
192,192,25513,1,0,0:0:0:80:normal-hitclap.wav
320,192,25707,1,0,0:0:0:40:normal-hitnormal.wav
64,192,25902,1,0,0:0:0:45:soft-hitnormal.wav
448,192,26097,1,0,0:0:0:45:soft-hitnormal.wav
320,192,26194,1,0,0:0:0:45:soft-hitnormal.wav
64,192,26292,128,0,26681:0:0:0:0:
192,192,26292,1,0,0:0:0:45:soft-hitnormal.wav
320,192,26487,1,0,0:0:0:45:soft-hitnormal.wav
448,192,26681,1,0,0:0:0:45:soft-hitnormal.wav
64,192,26876,1,0,0:0:0:45:soft-hitnormal.wav
320,192,26876,128,0,27266:0:0:0:0:
448,192,27071,1,0,0:0:0:45:soft-hitnormal.wav
64,192,27266,1,0,0:0:0:45:soft-hitnormal.wav
192,192,27266,128,0,27655:0:0:0:45:soft-hitnormal.wav
448,192,27461,1,0,0:0:0:45:soft-hitnormal.wav
320,192,27655,1,0,0:0:0:45:soft-hitnormal.wav
64,192,27850,1,0,0:0:0:0:
448,192,27850,1,0,0:0:0:45:soft-hitnormal.wav
320,192,28045,1,0,0:0:0:45:soft-hitnormal.wav
64,192,28240,1,0,0:0:0:45:soft-hitnormal.wav
448,192,28240,1,0,0:0:0:0:
192,192,28337,1,0,0:0:0:45:soft-hitnormal.wav
320,192,28435,1,0,0:0:0:45:soft-hitnormal.wav
64,192,28629,128,0,30188:0:0:0:0:
448,192,28629,1,0,0:0:0:40:normal-hitnormal.wav
320,192,28824,1,0,0:0:0:40:normal-hitnormal.wav
192,192,29019,1,0,0:0:0:0:
448,192,29019,1,0,0:0:0:40:drum-hitnormal3.wav
320,192,29214,1,0,0:0:0:90:normal-hitclap.wav
320,192,29409,1,0,0:0:0:40:normal-hitnormal.wav
448,192,29506,1,0,0:0:0:40:normal-hitnormal.wav
320,192,29603,1,0,0:0:0:40:normal-hitnormal.wav
192,192,29701,1,0,0:0:0:40:normal-hitnormal.wav
448,192,29798,1,0,0:0:0:0:
320,192,29798,1,0,0:0:0:40:drum-hitnormal3.wav
192,192,29993,1,0,0:0:0:40:normal-hitnormal.wav
320,192,30188,1,0,0:0:0:40:normal-hitnormal.wav
192,192,30383,1,0,0:0:0:40:normal-hitnormal.wav
64,192,30578,1,0,0:0:0:40:drum-hitnormal3.wav
448,192,30578,1,0,0:0:0:0:
320,192,30772,1,0,0:0:0:90:normal-hitclap.wav
192,192,30967,1,0,0:0:0:80:normal-hitnormal.wav
448,192,31065,1,0,0:0:0:40:normal-hitnormal.wav
64,192,31162,1,0,0:0:0:90:normal-hitclap.wav
320,192,31259,1,0,0:2:0:40:normal-hitnormal.wav
64,192,31357,1,0,0:0:0:40:drum-hitnormal3.wav
448,192,31357,1,0,0:0:0:0:
192,192,31552,1,0,0:0:0:40:normal-hitnormal.wav
64,192,31746,1,0,0:0:0:0:
448,192,31746,1,0,0:0:0:40:normal-hitnormal.wav
320,192,31941,1,0,0:0:0:70:normal-hitnormal.wav
64,192,32136,1,0,0:0:0:40:drum-hitnormal3.wav
448,192,32136,1,0,0:0:0:0:
192,192,32331,1,0,0:0:0:90:normal-hitclap.wav
320,192,32526,1,0,0:0:0:40:normal-hitnormal.wav
64,192,32623,1,0,0:0:0:40:normal-hitnormal.wav
448,192,32720,1,0,0:0:0:90:normal-hitclap.wav
192,192,32818,1,0,0:0:0:40:normal-hitnormal.wav
64,192,32915,1,0,0:0:0:40:drum-hitnormal3.wav
448,192,32915,1,0,0:0:0:0:
320,192,33110,1,0,0:0:0:40:normal-hitnormal.wav
64,192,33305,1,0,0:0:0:0:
448,192,33305,1,0,0:0:0:40:normal-hitnormal.wav
192,192,33500,1,0,0:0:0:40:normal-hitnormal.wav
448,192,33694,1,0,0:0:0:40:drum-hitnormal3.wav
64,192,33694,1,0,0:0:0:0:
320,192,33889,1,0,0:0:0:90:normal-hitclap.wav
192,192,34084,1,0,0:0:0:40:normal-hitnormal.wav
448,192,34181,1,0,0:0:0:40:normal-hitnormal.wav
64,192,34279,1,0,0:0:0:90:normal-hitclap.wav
320,192,34376,1,0,0:0:0:40:normal-hitnormal.wav
64,192,34474,1,0,0:0:0:0:
448,192,34474,1,0,0:0:0:40:drum-hitnormal3.wav
320,192,34668,1,0,0:0:0:0:
192,192,34668,1,0,0:0:0:55:snare.wav
64,192,34863,1,4,0:0:0:40:drum-hitnormal3.wav
448,192,34863,1,0,0:0:0:0:
320,192,35058,1,0,0:0:0:40:normal-hitnormal.wav
64,192,35253,1,0,0:0:0:40:drum-hitnormal3.wav
448,192,35253,1,0,0:0:0:0:
192,192,35448,1,0,0:0:0:90:normal-hitclap.wav
320,192,35642,1,0,0:0:0:0:normal-hitclap.wav
64,192,35740,1,0,0:0:0:40:drum-hitnormal3.wav
448,192,35837,1,0,0:0:0:90:normal-hitclap.wav
192,192,35935,1,0,0:0:0:40:normal-hitnormal.wav
448,192,36032,1,0,0:0:0:0:
64,192,36032,1,0,0:0:0:40:drum-hitnormal3.wav
320,192,36227,1,0,0:0:0:40:normal-hitnormal.wav
192,192,36422,1,0,0:0:0:40:normal-hitnormal.wav
64,192,36422,1,0,0:0:0:0:
320,192,36616,1,0,0:0:0:40:normal-hitnormal.wav
448,192,36811,1,0,0:0:0:40:drum-hitnormal3.wav
64,192,36811,1,0,0:0:0:0:
192,192,37006,1,0,0:0:0:90:normal-hitclap.wav
320,192,37201,1,0,0:0:0:40:normal-hitnormal.wav
448,192,37298,1,0,0:0:0:40:drum-hitnormal3.wav
64,192,37396,1,0,0:0:0:90:normal-hitclap.wav
320,192,37493,1,0,0:0:0:40:normal-hitnormal.wav
448,192,37590,1,0,0:0:0:40:drum-hitnormal3.wav
192,192,37590,1,0,0:0:0:0:
320,192,37785,1,0,0:0:0:40:normal-hitnormal.wav
448,192,37980,1,0,0:0:0:40:normal-hitnormal.wav
64,192,37980,1,0,0:0:0:0:
192,192,38175,1,0,0:0:0:40:normal-hitnormal.wav
448,192,38370,1,0,0:0:0:40:drum-hitnormal3.wav
320,192,38370,1,0,0:0:0:0:
64,192,38565,1,0,0:0:0:90:normal-hitclap.wav
192,192,38662,1,0,0:0:0:40:normal-hitnormal.wav
320,192,38759,1,0,0:0:0:40:normal-hitnormal.wav
448,192,38857,1,0,0:0:0:40:drum-hitnormal3.wav
64,192,38954,1,0,0:0:0:90:normal-hitclap.wav
320,192,39052,1,0,0:0:0:40:normal-hitnormal.wav
64,192,39149,1,0,0:0:0:0:
448,192,39149,1,0,0:0:0:40:drum-hitnormal3.wav
320,192,39344,1,0,0:0:0:0:
192,192,39539,1,0,0:0:0:0:
64,192,39539,1,4,0:0:0:0:
448,192,39733,1,0,0:0:0:40:normal-hitnormal.wav
320,192,39928,1,0,0:0:0:40:normal-hitnormal.wav
192,192,40123,1,0,0:0:0:45:soft-hitnormal.wav
320,192,40220,1,0,0:0:0:45:soft-hitnormal.wav
448,192,40318,1,0,0:0:0:45:soft-hitnormal.wav
64,192,40318,1,0,0:0:0:45:soft-hitnormal.wav
192,192,40415,1,0,0:0:0:45:soft-hitnormal.wav
320,192,40513,1,0,0:0:0:45:soft-hitnormal.wav
192,192,40610,1,0,0:0:0:45:soft-hitnormal.wav
320,192,40707,1,0,0:0:0:45:soft-hitnormal.wav
448,192,40805,1,0,0:0:0:45:soft-hitnormal.wav
320,192,40902,1,0,0:0:0:45:soft-hitnormal.wav
192,192,41000,1,0,0:0:0:45:soft-hitnormal.wav
64,192,41097,1,0,0:0:0:60:normal-hitnormal.wav
448,192,41097,128,0,41876:0:0:0:60:normal-hitnormal.wav
192,192,41292,1,0,0:0:0:60:normal-hitnormal.wav
320,192,41487,1,0,0:0:0:40:drum-hitnormal3.wav
64,192,41487,1,0,0:0:0:0:
64,192,41681,1,0,0:0:0:90:normal-hitclap.wav
64,192,41876,128,0,42655:0:0:0:0:
192,192,41876,1,0,0:0:0:60:normal-hitnormal.wav
320,192,42071,1,0,0:0:0:90:normal-hitclap.wav
448,192,42266,1,0,0:0:0:40:drum-hitnormal3.wav
192,192,42266,1,0,0:0:0:0:
320,192,42461,1,0,0:0:0:60:normal-hitnormal.wav
320,192,42655,128,0,43435:0:0:0:60:normal-hitnormal.wav
192,192,42850,1,0,0:0:0:60:normal-hitnormal.wav
448,192,43045,1,0,0:0:0:0:
64,192,43045,1,0,0:0:0:40:drum-hitnormal3.wav
192,192,43240,1,0,0:0:0:90:normal-hitclap.wav
192,192,43435,128,0,44214:0:0:0:60:normal-hitnormal.wav
320,192,43629,1,0,0:0:0:90:normal-hitclap.wav
448,192,43824,1,0,0:0:0:0:
64,192,43824,1,0,0:0:0:40:drum-hitnormal3.wav
448,192,44019,1,0,0:0:0:60:normal-hitnormal.wav
320,192,44116,1,0,0:0:0:60:normal-hitnormal.wav
448,192,44214,128,0,44993:0:0:0:0:
64,192,44214,1,0,0:0:0:60:normal-hitnormal.wav
192,192,44409,1,0,0:0:0:60:normal-hitnormal.wav
320,192,44603,1,0,0:0:0:40:drum-hitnormal3.wav
64,192,44603,1,0,0:0:0:0:
64,192,44798,1,0,0:0:0:90:normal-hitclap.wav
64,192,44993,128,0,45772:0:0:0:0:
192,192,44993,1,0,0:0:0:60:normal-hitnormal.wav
320,192,45188,1,0,0:0:0:90:normal-hitclap.wav
448,192,45383,1,0,0:0:0:40:drum-hitnormal3.wav
192,192,45383,1,0,0:0:0:0:
320,192,45578,1,0,0:0:0:80:normal-hitnormal.wav
320,192,45772,128,0,46552:0:0:0:60:normal-hitnormal.wav
192,192,45967,1,0,0:0:0:80:normal-hitnormal.wav
448,192,46162,1,0,0:0:0:40:drum-hitnormal3.wav
64,192,46162,1,0,0:0:0:0:
64,192,46357,1,0,0:0:0:90:normal-hitclap.wav
192,192,46552,128,0,47331:0:0:0:70:normal-hitnormal.wav
320,192,46746,1,0,0:0:0:90:normal-hitclap.wav
448,192,46941,1,0,0:0:0:40:drum-hitnormal3.wav
64,192,46941,1,0,0:0:0:0:
448,192,47136,1,0,0:0:0:80:normal-hitnormal.wav
320,192,47233,1,0,0:0:0:80:normal-hitnormal.wav
64,192,47331,1,0,0:0:0:40:drum-hitnormal3.wav
448,192,47331,1,0,0:0:0:0:
320,192,47526,1,0,0:0:0:45:normal-hitnormal.wav
64,192,47720,1,0,0:0:0:40:drum-hitnormal3.wav
448,192,47720,1,0,0:0:0:0:
320,192,47915,1,0,0:0:0:90:normal-hitclap.wav
64,192,48013,1,0,0:0:0:40:drum-hitnormal3.wav
64,192,48207,1,0,0:0:0:0:normal-hitclap.wav
320,192,48305,1,0,0:0:0:40:drum-hitnormal3.wav
448,192,48305,1,0,0:0:0:0:
192,192,48500,1,0,0:0:0:40:drum-hitnormal3.wav
320,192,48500,1,0,0:0:0:0:
448,192,48694,1,0,0:0:0:45:normal-hitnormal.wav
64,192,48889,1,0,0:0:0:40:drum-hitnormal3.wav
320,192,48889,1,0,0:0:0:0:
192,192,49084,1,0,0:0:0:45:normal-hitnormal.wav
64,192,49279,1,0,0:0:0:40:drum-hitnormal3.wav
448,192,49279,1,0,0:0:0:0:
320,192,49474,1,0,0:0:0:90:normal-hitclap.wav
64,192,49571,1,0,0:0:0:40:drum-hitnormal3.wav
320,192,49766,1,0,0:0:0:0:normal-hitclap.wav
64,192,49863,1,0,0:0:0:40:drum-hitnormal3.wav
448,192,49863,1,0,0:0:0:0:
192,192,50058,1,0,0:0:0:40:drum-hitnormal3.wav
320,192,50253,1,0,0:0:0:45:normal-hitnormal.wav
448,192,50448,1,0,0:0:0:30:drum-hitnormal3.wav
64,192,50448,1,0,0:0:0:50:soft-hitclap.wav
320,192,50642,1,0,0:0:0:30:drum-hitnormal3.wav
192,192,50837,1,0,0:0:0:50:soft-hitclap.wav
448,192,50837,1,0,0:0:0:30:drum-hitnormal3.wav
192,192,51032,1,0,0:0:0:30:drum-hitnormal3.wav
448,192,51227,1,0,0:0:0:30:drum-hitnormal3.wav
64,192,51227,1,0,0:0:0:50:soft-hitclap.wav
192,192,51422,1,0,0:0:0:30:drum-hitnormal3.wav
64,192,51616,1,0,0:0:0:30:drum-hitnormal3.wav
320,192,51616,1,0,0:0:0:50:soft-hitclap.wav
320,192,51811,1,0,0:0:0:30:drum-hitnormal3.wav
448,192,52006,1,0,0:0:0:70:snare.wav
64,192,52006,1,0,0:0:0:0:
320,192,52103,1,0,0:0:0:45:soft-hitclap.wav
192,192,52201,1,0,0:0:0:45:soft-hitclap.wav
448,192,52298,1,0,0:0:0:45:soft-hitclap.wav
64,192,52396,1,0,0:0:0:45:soft-hitclap.wav
320,192,52493,1,0,0:0:0:45:soft-hitclap.wav
448,192,52590,1,0,0:0:0:45:soft-hitclap.wav
192,192,52688,1,0,0:0:0:45:soft-hitclap.wav
448,192,52785,1,0,0:0:0:70:snare.wav
64,192,52785,1,0,0:0:0:0:
320,192,52883,1,0,0:0:0:45:soft-hitclap.wav
192,192,52980,1,0,0:0:0:45:soft-hitclap.wav
448,192,53078,1,0,0:0:0:45:soft-hitclap.wav
64,192,53175,1,0,0:0:0:0:
320,192,53272,1,0,0:0:0:45:soft-hitclap.wav
448,192,53370,1,0,0:0:0:45:soft-hitclap.wav
192,192,53467,1,0,0:0:0:45:soft-hitclap.wav
448,192,53565,1,0,0:0:0:70:snare.wav
64,192,53565,1,0,0:0:0:0:
320,192,53759,1,0,0:0:0:45:normal-hitnormal.wav
448,192,53954,1,0,0:0:0:40:drum-hitnormal3.wav
64,192,53954,1,0,0:0:0:0:
192,192,54149,1,0,0:0:0:45:LR3_Kick BBDL.wav
64,192,54344,1,0,0:0:0:50:soft-hitclap.wav
448,192,54344,128,0,54733:0:0:0:0:soft-hitclap.wav
192,192,54441,1,0,0:0:0:50:soft-hitclap.wav
320,192,54539,1,0,0:0:0:50:soft-hitclap.wav
192,192,54636,1,0,0:0:0:50:soft-hitclap.wav
64,192,54733,1,0,0:0:0:50:soft-hitclap.wav
320,192,54733,1,0,0:0:0:0:
320,192,55123,1,4,0:0:0:0:
192,192,55123,1,0,0:0:0:0:
64,192,55318,1,0,0:0:0:70:normal-hitclap.wav
320,192,55513,1,0,0:0:0:40:drum-hitnormal3.wav
192,192,55513,1,0,0:0:0:0:
448,192,55707,1,0,0:0:0:90:normal-hitclap.wav
64,192,55902,1,0,0:0:0:45:soft-hitnormal.wav
320,192,55902,1,0,0:0:0:0:
192,192,56000,1,0,0:0:0:45:soft-hitnormal.wav
448,192,56097,1,0,0:0:0:90:normal-hitclap.wav
320,192,56292,1,0,0:0:0:40:drum-hitnormal3.wav
192,192,56292,1,0,0:0:0:0:
448,192,56487,1,0,0:0:0:45:normal-hitnormal.wav
192,192,56681,1,0,0:0:0:0:
320,192,56681,1,0,0:0:0:45:soft-hitnormal.wav
64,192,56876,1,0,0:0:0:70:normal-hitclap.wav
192,192,57071,1,0,0:0:0:0:
448,192,57071,1,0,0:0:0:40:drum-hitnormal3.wav
320,192,57266,1,0,0:0:0:90:normal-hitclap.wav
192,192,57461,1,0,0:0:0:45:soft-hitnormal.wav
64,192,57461,1,0,0:0:0:0:
448,192,57558,1,0,0:0:0:45:soft-hitnormal.wav
192,192,57655,1,0,0:0:0:90:normal-hitclap.wav
448,192,57850,1,0,0:0:0:40:drum-hitnormal3.wav
64,192,57850,1,0,0:0:0:0:
448,192,58045,1,0,0:0:0:40:normal-hitnormal.wav
320,192,58240,1,0,0:0:0:45:soft-hitnormal.wav
192,192,58240,1,0,0:0:0:0:
64,192,58435,1,0,0:0:0:40:normal-hitnormal.wav
320,192,58629,1,0,0:0:0:40:drum-hitnormal3.wav
192,192,58629,1,0,0:0:0:0:
448,192,58824,1,0,0:0:0:90:normal-hitclap.wav
320,192,59019,1,0,0:0:0:45:soft-hitnormal.wav
64,192,59019,1,0,0:0:0:0:
448,192,59116,1,0,0:0:0:45:soft-hitnormal.wav
64,192,59214,1,0,0:0:0:90:normal-hitclap.wav
320,192,59409,1,0,0:0:0:0:
192,192,59409,1,0,0:0:0:50:drum-hitnormal3.wav
448,192,59603,1,0,0:0:0:40:normal-hitnormal.wav
320,192,59798,1,0,0:0:0:45:soft-hitnormal.wav
192,192,59798,1,0,0:0:0:0:
64,192,59993,1,0,0:0:0:40:normal-hitnormal.wav
448,192,60188,1,0,0:0:0:40:drum-hitnormal3.wav
192,192,60188,1,0,0:0:0:0:
320,192,60383,1,0,0:0:0:90:normal-hitclap.wav
448,192,60578,1,0,0:0:0:40:drum-hitnormal3.wav
64,192,60578,1,0,0:0:0:0:
192,192,60675,1,0,0:0:0:45:soft-hitnormal.wav
320,192,60772,1,0,0:0:0:45:soft-hitnormal.wav
64,192,60967,1,0,0:0:0:40:drum-hitnormal3.wav
448,192,60967,1,0,0:0:0:0:
320,192,61065,1,0,0:0:0:45:soft-hitnormal.wav
192,192,61162,1,0,0:0:0:45:soft-hitnormal.wav
320,192,61357,5,0,0:0:0:0:
448,192,61357,1,4,0:0:0:0:
192,192,61552,1,0,0:0:0:40:normal-hitnormal.wav
320,192,61746,1,0,0:0:0:0:
64,192,61746,1,0,0:0:0:40:drum-hitnormal3.wav
448,192,61941,1,0,0:0:0:90:normal-hitclap.wav
320,192,62136,1,0,0:0:0:45:soft-hitnormal.wav
64,192,62136,1,0,0:0:0:0:
448,192,62233,1,0,0:0:0:45:soft-hitnormal.wav
64,192,62331,1,0,0:0:0:90:normal-hitclap.wav
192,192,62526,1,0,0:0:0:40:drum-hitnormal3.wav
320,192,62526,1,0,0:0:0:0:
448,192,62720,1,0,0:0:0:40:normal-hitnormal.wav
192,192,62915,1,0,0:0:0:0:
320,192,62915,1,0,0:0:0:45:soft-hitnormal.wav
64,192,63110,1,0,0:0:0:40:normal-hitnormal.wav
192,192,63305,1,0,0:0:0:0:
448,192,63305,1,0,0:0:0:40:drum-hitnormal3.wav
320,192,63500,1,0,0:0:0:90:normal-hitclap.wav
64,192,63694,1,0,0:0:0:40:normal-hitnormal.wav
192,192,63694,1,0,0:0:0:0:
448,192,63792,1,0,0:0:0:45:soft-hitnormal.wav
320,192,63889,1,0,0:0:0:45:soft-hitnormal.wav
192,192,64084,1,0,0:0:0:0:
448,192,64084,1,0,0:0:0:40:drum-hitnormal3.wav
320,192,64279,1,0,0:0:0:40:normal-hitnormal.wav
64,192,64474,1,4,0:0:0:0:
448,192,64474,1,0,0:0:0:0:
192,192,64474,1,0,0:0:0:0:
320,192,64668,1,0,0:0:0:45:normal-hitnormal.wav
448,192,64863,1,0,0:0:0:40:drum-hitnormal3.wav
64,192,64863,1,0,0:0:0:0:
320,192,65058,1,0,0:0:0:90:normal-hitclap.wav
192,192,65155,1,0,0:0:0:90:normal-hitclap.wav
64,192,65253,1,0,0:0:0:90:normal-hitclap.wav
320,192,65448,1,0,0:0:0:90:normal-hitclap.wav
448,192,65642,1,0,0:0:0:40:drum-hitnormal3.wav
64,192,65642,1,0,0:0:0:0:
320,192,65837,1,0,0:0:0:45:normal-hitnormal.wav
64,192,66032,1,0,0:0:0:0:
448,192,66032,1,0,0:0:0:45:soft-hitnormal.wav
192,192,66129,1,0,0:0:0:45:soft-hitnormal.wav
320,192,66227,1,0,0:0:0:45:soft-hitnormal.wav
64,192,66324,1,0,0:0:0:45:soft-hitnormal.wav
448,192,66422,1,0,0:0:0:45:soft-hitnormal.wav
192,192,66422,1,0,0:0:0:0:
192,192,66616,1,0,0:0:0:70:normal-hitclap.wav
448,192,66811,1,0,0:0:0:70:normal-hitclap.wav
320,192,66811,1,0,0:0:0:0:
320,192,67006,1,0,0:0:0:70:normal-hitclap.wav
192,192,67006,1,0,0:0:0:0:
192,192,67201,1,0,0:0:0:70:normal-hitclap.wav
64,192,67201,1,0,0:0:0:0:
320,192,67396,1,0,0:0:0:70:normal-hitclap.wav
192,192,67396,1,0,0:0:0:0:
448,192,67590,128,0,69149:0:0:0:0:
320,192,67590,1,4,0:0:0:0:
64,192,67590,128,0,69149:0:0:0:0:
192,192,69149,1,0,0:0:0:45:normal-hitnormal.wav
320,192,69344,1,0,0:0:0:45:normal-hitnormal.wav
448,192,69539,1,0,0:0:0:40:drum-hitnormal3.wav
192,192,69539,1,0,0:0:0:0:
64,192,69733,1,0,0:0:0:90:normal-hitclap.wav
192,192,69928,1,0,0:0:0:0:
448,192,70026,1,0,0:0:0:40:drum-hitnormal3.wav
64,192,70123,1,0,0:0:0:90:normal-hitclap.wav
320,192,70220,1,0,0:0:0:0:
448,192,70318,1,0,0:0:0:40:drum-hitnormal3.wav
64,192,70318,1,0,0:0:0:0:
192,192,70513,1,0,0:0:0:45:normal-hitnormal.wav
64,192,70707,1,0,0:0:0:0:
320,192,70707,1,4,0:0:0:0:
448,192,70902,1,0,0:0:0:45:normal-hitnormal.wav
192,192,71097,1,0,0:0:0:0:
320,192,71097,1,0,0:0:0:40:drum-hitnormal3.wav
64,192,71292,1,0,0:0:0:90:normal-hitclap.wav
192,192,71487,1,0,0:0:0:45:normal-hitnormal.wav
448,192,71584,1,0,0:0:0:45:normal-hitnormal.wav
64,192,71681,1,0,0:0:0:90:normal-hitclap.wav
320,192,71779,1,0,0:0:0:0:
64,192,71876,1,0,0:0:0:0:
448,192,71876,1,0,0:0:0:50:drum-hitnormal3.wav
192,192,72071,1,0,0:0:0:45:soft-hitnormal.wav
320,192,72168,1,0,0:0:0:45:soft-hitnormal.wav
448,192,72266,1,4,0:0:0:0:
64,192,72266,1,0,0:0:0:0:
320,192,72461,1,0,0:0:0:45:normal-hitnormal.wav
192,192,72655,1,0,0:0:0:0:
448,192,72655,1,0,0:0:0:40:drum-hitnormal3.wav
64,192,72850,1,0,0:0:0:90:normal-hitclap.wav
192,192,73045,1,0,0:0:0:45:normal-hitnormal.wav
448,192,73142,1,0,0:0:0:40:drum-hitnormal3.wav
64,192,73240,1,0,0:0:0:90:normal-hitclap.wav
320,192,73337,1,0,0:0:0:0:
64,192,73435,1,0,0:0:0:0:
448,192,73435,1,0,0:0:0:40:drum-hitnormal3.wav
192,192,73629,1,0,0:0:0:45:normal-hitnormal.wav
64,192,73727,1,0,0:0:0:0:
320,192,73824,1,0,0:0:0:45:normal-hitnormal.wav
448,192,73824,1,4,0:0:0:0:
64,192,73922,1,0,0:0:0:45:normal-hitnormal.wav
448,192,74019,1,0,0:0:0:45:normal-hitnormal.wav
192,192,74116,1,0,0:0:0:45:normal-hitnormal.wav
320,192,74214,1,0,0:0:0:0:
448,192,74214,1,0,0:0:0:40:drum-hitnormal3.wav
64,192,74409,1,0,0:0:0:90:normal-hitclap.wav
320,192,74506,1,0,0:0:0:45:normal-hitnormal.wav
192,192,74603,1,0,0:0:0:45:normal-hitnormal.wav
448,192,74701,1,0,0:0:0:40:drum-hitnormal3.wav
64,192,74798,1,0,0:0:0:90:normal-hitclap.wav
320,192,74896,1,0,0:0:0:45:normal-hitnormal.wav
64,192,74993,1,0,0:0:0:45:normal-hitnormal.wav
448,192,74993,1,0,0:0:0:40:drum-hitnormal3.wav
192,192,75188,1,0,0:0:0:45:soft-hitnormal.wav
320,192,75285,1,0,0:0:0:45:soft-hitnormal.wav
64,192,75383,1,0,0:0:0:0:
448,192,75383,1,0,0:0:0:60:snare.wav
192,192,75578,1,0,0:0:0:70:normal-hitclap.wav
448,192,75675,1,0,0:0:0:70:normal-hitclap.wav
64,192,75772,1,0,0:0:0:70:soft-hitclap.wav
320,192,75772,1,0,0:0:0:0:
448,192,75870,1,0,0:0:0:45:normal-hitnormal.wav
192,192,75967,1,0,0:0:0:70:normal-hitclap.wav
320,192,76065,1,0,0:0:0:70:normal-hitclap.wav
64,192,76162,1,0,0:0:0:45:normal-hitnormal.wav
320,192,76259,1,0,0:0:0:70:normal-hitclap.wav
192,192,76357,1,0,0:0:0:70:normal-hitclap.wav
448,192,76454,1,0,0:0:0:45:normal-hitnormal.wav
64,192,76552,1,0,0:0:0:70:soft-hitclap.wav
320,192,76552,1,0,0:0:0:0:
448,192,76649,1,0,0:0:0:45:normal-hitnormal.wav
192,192,76746,1,0,0:0:0:70:normal-hitclap.wav
320,192,76844,1,0,0:0:0:70:normal-hitclap.wav
64,192,76941,1,0,0:0:0:45:normal-hitnormal.wav
320,192,77039,1,0,0:0:0:70:normal-hitclap.wav
192,192,77136,1,0,0:0:0:70:normal-hitclap.wav
448,192,77233,1,0,0:0:0:0:soft-hitnormal.wav
64,192,77331,1,0,0:0:0:70:soft-hitclap.wav
320,192,77331,1,0,0:0:0:0:
448,192,77428,1,0,0:0:0:40:normal-hitclap.wav
192,192,77526,1,0,0:0:0:70:normal-hitclap.wav
320,192,77623,1,0,0:0:0:70:normal-hitclap.wav
192,192,77720,1,0,0:0:0:70:normal-hitclap.wav
320,192,77818,1,0,0:0:0:70:normal-hitclap.wav
64,192,77915,1,0,0:0:0:0:soft-hitnormal.wav
320,192,78013,1,0,0:0:0:45:soft-hitnormal.wav
64,192,78110,1,0,0:0:0:70:soft-hitclap.wav
448,192,78110,1,0,0:0:0:0:
192,192,78305,1,0,0:0:0:70:normal-hitclap.wav
320,192,78402,1,0,0:0:0:70:normal-hitclap.wav
64,192,78500,1,0,0:0:0:0:
448,192,78500,1,0,0:0:0:40:drum-hitnormal3.wav
320,192,78694,1,0,0:0:0:0:
192,192,78694,1,0,0:0:0:40:drum-hitnormal3.wav
64,192,78889,1,0,0:0:0:0:
448,192,78889,1,0,0:0:0:40:drum-hitnormal3.wav
192,192,79084,1,0,0:0:0:0:
320,192,79084,1,0,0:0:0:40:drum-hitnormal3.wav
64,192,79279,1,0,0:0:0:0:
192,192,79279,1,0,0:0:0:40:drum-hitnormal3.wav
448,192,79474,1,0,0:0:0:40:drum-hitnormal3.wav
320,192,79474,1,0,0:0:0:0:
192,192,79668,1,0,0:0:0:40:drum-hitnormal3.wav
64,192,79668,1,0,0:0:0:0:
448,192,79863,1,0,0:0:0:0:
320,192,79863,1,0,0:0:0:40:drum-hitnormal3.wav
64,192,80058,1,0,0:0:0:0:
192,192,80058,1,0,0:0:0:40:drum-hitnormal3.wav
320,192,80155,1,0,0:0:0:40:drum-hitnormal3.wav
448,192,80253,1,0,0:0:0:40:drum-hitnormal3.wav
320,192,80350,1,0,0:0:0:40:drum-hitnormal3.wav
192,192,80448,1,0,0:0:0:40:drum-hitnormal3.wav
64,192,80545,1,0,0:0:0:40:drum-hitnormal3.wav
192,192,80642,1,0,0:0:0:40:drum-hitnormal3.wav
320,192,80740,1,0,0:0:0:40:drum-hitnormal3.wav
448,192,80837,1,0,0:0:0:40:drum-hitnormal3.wav
320,192,80935,1,0,0:0:0:70:soft-hitclap.wav
192,192,81032,1,0,0:0:0:70:soft-hitclap.wav
64,192,81129,1,0,0:0:0:70:soft-hitclap.wav
192,192,81227,1,0,0:0:0:70:soft-hitclap.wav
320,192,81324,1,0,0:0:0:70:soft-hitclap.wav
448,192,81422,1,0,0:0:0:70:soft-hitclap.wav
320,192,81519,1,0,0:0:0:70:soft-hitclap.wav
64,192,81616,1,0,0:0:0:0:
192,192,81616,1,4,0:0:0:0:
320,192,82006,1,0,0:0:0:40:drum-hitnormal3.wav
192,192,82006,1,0,0:0:0:0:
64,192,82201,1,0,0:0:0:0:
448,192,82201,1,0,0:0:0:90:normal-hitclap.wav
192,192,82396,1,0,0:0:0:45:normal-hitnormal.wav
320,192,82590,1,0,0:0:0:90:normal-hitclap.wav
448,192,82785,1,0,0:0:0:40:drum-hitnormal3.wav
64,192,82785,1,0,0:0:0:0:
192,192,82980,1,0,0:0:0:45:normal-hitnormal.wav
320,192,83175,1,0,0:0:0:45:normal-hitnormal.wav
64,192,83370,1,0,0:0:0:45:normal-hitnormal.wav
320,192,83565,1,0,0:0:0:40:drum-hitnormal3.wav
192,192,83565,1,0,0:0:0:0:
448,192,83759,1,0,0:0:0:90:normal-hitclap.wav
64,192,83954,1,0,0:0:0:45:normal-hitnormal.wav
448,192,84052,1,0,0:0:0:0:normal-hitclap.wav
192,192,84149,1,0,0:0:0:90:normal-hitclap.wav
64,192,84344,1,0,0:0:0:0:
448,192,84344,1,0,0:0:0:40:drum-hitnormal3.wav
192,192,84539,1,0,0:0:0:45:normal-hitnormal.wav
320,192,84733,1,0,0:0:0:45:normal-hitnormal.wav
64,192,84733,1,0,0:0:0:0:
448,192,84928,1,0,0:0:0:45:normal-hitnormal.wav
320,192,85123,1,0,0:0:0:40:drum-hitnormal3.wav
192,192,85123,1,0,0:0:0:0:
64,192,85318,1,0,0:0:0:90:normal-hitclap.wav
192,192,85513,1,0,0:0:0:45:normal-hitnormal.wav
448,192,85610,1,0,0:0:0:40:normal-hitnormal.wav
64,192,85707,1,0,0:0:0:90:normal-hitclap.wav
192,192,85902,1,0,0:0:0:0:
448,192,85902,1,0,0:0:0:40:drum-hitnormal3.wav
64,192,86097,1,0,0:0:0:45:normal-hitnormal.wav
448,192,86292,1,0,0:0:0:45:normal-hitnormal.wav
320,192,86487,1,0,0:0:0:45:normal-hitnormal.wav
192,192,86681,1,0,0:0:0:40:drum-hitnormal3.wav
64,192,86681,1,0,0:0:0:0:
320,192,86876,1,0,0:0:0:90:normal-hitclap.wav
448,192,87071,1,0,0:0:0:45:normal-hitnormal.wav
320,192,87168,1,0,0:0:0:45:normal-hitnormal.wav
192,192,87266,1,0,0:0:0:45:normal-hitnormal.wav
64,192,87363,1,0,0:0:0:45:normal-hitnormal.wav
192,192,87461,1,0,0:0:0:45:normal-hitnormal.wav
320,192,87558,1,0,0:0:0:45:normal-hitnormal.wav
448,192,87655,1,4,0:0:0:45:normal-hitnormal.wav
192,192,87655,1,0,0:0:0:0:
320,192,87850,1,0,0:0:0:50:snare.wav
64,192,87850,1,0,0:0:0:0:
192,192,88045,1,0,0:0:0:45:normal-hitnormal.wav
320,192,88240,1,0,0:0:0:0:
64,192,88240,1,0,0:0:0:40:drum-hitnormal3.wav
448,192,88435,1,0,0:0:0:0:
192,192,88435,1,0,0:0:0:90:normal-hitclap.wav
320,192,88629,1,0,0:0:0:45:normal-hitnormal.wav
64,192,88727,1,0,0:0:0:40:normal-hitnormal.wav
192,192,88824,1,0,0:0:0:40:normal-hitnormal.wav
320,192,89019,1,0,0:0:0:0:
64,192,89019,1,0,0:0:0:40:drum-hitnormal3.wav
448,192,89214,1,0,0:0:0:45:normal-hitnormal.wav
320,192,89409,1,0,0:0:0:45:normal-hitnormal.wav
192,192,89603,1,0,0:0:0:45:normal-hitnormal.wav
64,192,89798,1,0,0:0:0:0:
448,192,89798,1,0,0:0:0:40:drum-hitnormal3.wav
192,192,89993,1,0,0:0:0:90:normal-hitclap.wav
320,192,90188,1,0,0:0:0:45:normal-hitnormal.wav
192,192,90285,1,0,0:0:0:45:normal-hitnormal.wav
320,192,90383,1,0,0:0:0:90:normal-hitclap.wav
64,192,90578,1,0,0:0:0:0:
448,192,90578,1,0,0:0:0:40:drum-hitnormal3.wav
192,192,90772,1,0,0:0:0:45:normal-hitnormal.wav
320,192,90870,1,0,0:0:0:45:normal-hitnormal.wav
448,192,90967,128,0,91357:0:0:0:45:normal-hitnormal.wav
64,192,90967,1,0,0:0:0:50:snare.wav
192,192,91162,1,0,0:0:0:50:normal-hitclap.wav
64,192,91357,1,0,0:0:0:0:
320,192,91357,1,0,0:0:0:50:normal-hitclap.wav
192,192,91552,1,0,0:0:0:45:soft-hitnormal.wav
320,192,91649,1,0,0:0:0:45:soft-hitnormal.wav
192,192,91746,128,0,92136:0:0:0:0:
64,192,91746,1,0,0:0:0:50:snare.wav
320,192,91941,1,0,0:0:0:50:normal-hitclap.wav
448,192,92136,1,0,0:0:0:50:normal-hitclap.wav
64,192,92136,1,0,0:0:0:0:
320,192,92331,1,0,0:0:0:45:normal-hitnormal.wav
64,192,92526,1,4,0:0:0:0:
448,192,92526,1,0,0:0:0:45:normal-hitnormal.wav
320,192,92720,1,0,0:0:0:45:normal-hitnormal.wav
192,192,92818,1,0,0:0:0:45:normal-hitnormal.wav
64,192,92915,1,0,0:0:0:0:
448,192,92915,1,0,0:0:0:45:normal-hitnormal.wav
320,192,93110,1,0,0:0:0:45:normal-hitnormal.wav
448,192,93305,1,0,0:0:0:70:soft-hitclap.wav
320,192,93402,1,0,0:0:0:70:soft-hitclap.wav
64,192,93500,1,0,0:0:0:70:soft-hitclap.wav
192,192,93597,1,0,0:0:0:70:soft-hitclap.wav
448,192,93694,1,0,0:0:0:70:soft-hitclap.wav
320,192,93792,1,0,0:0:0:70:soft-hitclap.wav
64,192,93889,1,0,0:0:0:70:soft-hitclap.wav
192,192,94084,5,2,0:0:0:0:
320,192,94084,1,0,0:0:0:0:
64,192,94279,1,2,0:0:0:0:
320,192,94474,1,2,0:0:0:0:
192,192,94668,1,2,0:0:0:0:
448,192,95058,1,2,0:0:0:0:
320,192,95448,1,2,0:0:0:0:
64,192,95837,1,2,0:0:0:0:
448,192,96227,1,2,0:0:0:0:
64,192,96616,1,2,0:0:0:0:
192,192,96811,1,2,0:0:0:0:
448,192,97006,1,2,0:0:0:0:
320,192,97201,1,2,0:0:0:0:
320,192,97785,1,2,0:0:0:0:
192,192,97883,1,2,0:0:0:0:
320,192,97980,1,2,0:0:0:0:
64,192,98565,1,2,0:0:0:0:
320,192,98954,1,2,0:0:0:0:
64,192,99344,1,2,0:0:0:0:
192,192,99539,1,2,0:0:0:0:
320,192,99733,1,2,0:0:0:0:
448,192,99928,1,2,0:0:0:0:
192,192,100123,1,2,0:0:0:0:
