osu file format v14

[General]
AudioFilename: 15 - New Gravity.mp3
AudioLeadIn: 0
PreviewTime: 55123
Countdown: 0
SampleSet: Soft
StackLeniency: 0.7
Mode: 3
LetterboxInBreaks: 0
SpecialStyle: 0
WidescreenStoryboard: 1

[Editor]
DistanceSpacing: 1
BeatDivisor: 4
GridSize: 4
TimelineZoom: 1.6

[Metadata]
Title:New Gravity
TitleUnicode:New Gravity
Artist:Starving Trancer
ArtistUnicode:Starving Trancer
Creator:bilqiscutee
Version:4K Beginner
Source:Dance Dance Revolution 2013
Tags:ddr jubeat saucer DE-CADE puxtu [Shana Lesus] Remillion Cross LordRaika ExUsagi Takane6
BeatmapID:517316
BeatmapSetID:221085

[Difficulty]
HPDrainRate:7
CircleSize:4
OverallDifficulty:7
ApproachRate:5
SliderMultiplier:1.4
SliderTickRate:1

[Events]
//Background and Video events
0,0,"new gravity.jpg",0,0
//Break Periods
//Storyboard Layer 0 (Background)
//Storyboard Layer 1 (Fail)
//Storyboard Layer 2 (Pass)
//Storyboard Layer 3 (Foreground)
//Storyboard Sound Samples

[TimingPoints]
578,389.61038961039,4,2,0,30,1,0
55123,-100,4,2,0,30,0,1
67590,-100,4,2,0,30,0,0
82006,-100,4,2,0,30,0,1
94084,-100,4,2,0,30,0,0

[HitObjects]
448,192,578,5,2,0:0:0:0:
320,192,772,1,2,0:0:0:0:
64,192,967,1,2,0:0:0:0:
192,192,1162,1,2,0:0:0:0:
448,192,1552,1,2,0:0:0:0:
192,192,1941,1,2,0:0:0:0:
320,192,2331,1,2,0:0:0:0:
448,192,2720,1,2,0:0:0:0:
192,192,3110,1,2,0:0:0:0:
448,192,3694,1,2,0:0:0:0:
320,192,3889,1,2,0:0:0:0:
64,192,4084,1,2,0:0:0:0:
192,192,4279,1,2,0:0:0:0:
448,192,4668,1,2,0:0:0:0:
192,192,5058,1,2,0:0:0:0:
320,192,5448,1,2,0:0:0:0:
64,192,5837,1,2,0:0:0:0:
192,192,6227,1,2,0:0:0:0:
320,192,6616,1,2,0:0:0:0:
64,192,6811,1,0,0:0:0:40:normal-hitnormal.wav
448,192,6811,1,0,0:0:0:0:
192,192,7006,1,0,0:0:0:40:normal-hitnormal.wav
448,192,7201,1,0,0:0:0:40:drum-hitnormal3.wav
320,192,7396,1,0,0:0:0:40:normal-hitnormal.wav
64,192,7785,1,0,0:0:0:40:normal-hitnormal.wav
448,192,8175,1,0,0:0:0:40:normal-hitnormal.wav
192,192,8565,1,0,0:0:0:40:normal-hitnormal.wav
320,192,8954,1,0,0:0:0:40:normal-hitnormal.wav
192,192,9344,1,0,0:0:0:40:normal-hitnormal.wav
320,192,9539,1,0,0:0:0:40:drum-hitnormal3.wav
448,192,9733,1,0,0:0:0:40:normal-hitnormal.wav
64,192,9928,1,0,0:0:0:60:normal-hitclap.wav
448,192,10513,128,0,10707:0:0:0:40:normal-hitnormal.wav
320,192,10707,1,0,0:0:0:40:normal-hitnormal.wav
192,192,11292,1,0,0:0:0:40:normal-hitnormal.wav
320,192,11681,1,0,0:0:0:40:normal-hitnormal.wav
192,192,12071,1,0,0:0:0:40:normal-hitnormal.wav
64,192,12266,1,0,0:0:0:40:normal-hitnormal.wav
192,192,12461,1,0,0:0:0:40:normal-hitnormal.wav
320,192,12655,1,0,0:0:0:40:normal-hitnormal.wav
192,192,12850,1,0,0:0:0:40:normal-hitnormal.wav
64,192,13045,1,4,0:0:0:0:
448,192,13045,1,0,0:0:0:0:
448,192,14603,128,0,14993:0:0:0:40:drum-hitnormal3.wav
64,192,14603,1,0,0:0:0:0:
192,192,14993,1,0,0:0:0:40:drum-hitnormal3.wav
320,192,15383,1,0,0:0:0:40:snare.wav
64,192,15383,128,0,15772:0:0:0:0:
448,192,15772,1,0,0:0:0:40:snare.wav
448,192,16162,1,0,0:0:0:40:normal-hitnormal.wav
64,192,16162,1,0,0:0:0:0:
320,192,16357,1,0,0:0:0:40:normal-hitnormal.wav
64,192,16552,1,0,0:0:0:40:drum-hitnormal3.wav
192,192,16746,1,0,0:0:0:60:normal-hitclap.wav
448,192,17136,1,0,0:0:0:60:normal-hitclap.wav
64,192,17526,1,0,0:0:0:40:normal-hitnormal.wav
320,192,17915,1,0,0:0:0:40:normal-hitnormal.wav
192,192,18305,1,0,0:0:0:70:normal-hitclap.wav
448,192,18694,1,0,0:0:0:70:normal-hitclap.wav
192,192,19279,1,0,0:0:0:70:normal-hitclap.wav
448,192,19474,1,0,0:0:0:40:normal-hitnormal.wav
64,192,19668,1,0,0:0:0:40:drum-hitnormal3.wav
192,192,19863,1,0,0:0:0:70:normal-hitclap.wav
320,192,20253,1,0,0:0:0:70:normal-hitclap.wav
64,192,20642,1,0,0:0:0:40:normal-hitnormal.wav
448,192,21032,1,0,0:0:0:40:normal-hitnormal.wav
320,192,21422,1,0,0:0:0:90:normal-hitclap.wav
64,192,21811,1,0,0:0:0:90:normal-hitclap.wav
192,192,22201,1,0,0:0:0:45:soft-hitnormal.wav
448,192,22396,1,0,0:0:0:80:normal-hitclap.wav
320,192,22590,1,0,0:0:0:40:normal-hitnormal.wav
64,192,22785,1,0,0:0:0:40:drum-hitnormal3.wav
192,192,22980,1,0,0:0:0:90:normal-hitclap.wav
448,192,23370,1,0,0:0:0:90:normal-hitclap.wav
192,192,23759,1,0,0:0:0:40:normal-hitnormal.wav
320,192,24149,1,0,0:0:0:40:normal-hitnormal.wav
64,192,24539,1,0,0:0:0:90:normal-hitclap.wav
192,192,24928,1,0,0:0:0:90:normal-hitclap.wav
448,192,25123,1,0,0:0:0:40:drum-hitnormal3.wav
64,192,25318,1,0,0:0:0:40:normal-hitnormal.wav
320,192,25513,1,0,0:0:0:80:normal-hitclap.wav
448,192,26097,128,0,26292:0:0:0:45:soft-hitnormal.wav
320,192,26292,1,0,0:0:0:45:soft-hitnormal.wav
192,192,26876,1,0,0:0:0:45:soft-hitnormal.wav
320,192,27266,1,0,0:0:0:45:soft-hitnormal.wav
64,192,27655,1,0,0:0:0:45:soft-hitnormal.wav
192,192,27850,1,0,0:0:0:45:soft-hitnormal.wav
320,192,28045,1,0,0:0:0:45:soft-hitnormal.wav
448,192,28240,1,0,0:0:0:45:soft-hitnormal.wav
320,192,28435,1,0,0:0:0:45:soft-hitnormal.wav
64,192,28629,128,0,30188:0:0:0:40:normal-hitnormal.wav
192,192,28629,1,0,0:0:0:0:
448,192,29019,1,0,0:0:0:40:drum-hitnormal3.wav
320,192,29409,1,0,0:0:0:40:normal-hitnormal.wav
448,192,29798,1,0,0:0:0:40:drum-hitnormal3.wav
192,192,30188,1,0,0:0:0:40:normal-hitnormal.wav
448,192,30578,1,0,0:0:0:40:drum-hitnormal3.wav
320,192,30967,1,0,0:0:0:80:normal-hitnormal.wav
192,192,31162,1,0,0:0:0:90:normal-hitclap.wav
448,192,31357,1,0,0:0:0:40:drum-hitnormal3.wav
320,192,31746,1,0,0:0:0:40:normal-hitnormal.wav
192,192,32136,1,0,0:0:0:40:drum-hitnormal3.wav
64,192,32526,1,0,0:0:0:40:normal-hitnormal.wav
192,192,32915,1,0,0:0:0:40:drum-hitnormal3.wav
448,192,33305,1,0,0:0:0:40:normal-hitnormal.wav
320,192,33694,1,0,0:0:0:40:drum-hitnormal3.wav
192,192,34084,1,0,0:0:0:40:normal-hitnormal.wav
64,192,34474,1,0,0:0:0:40:drum-hitnormal3.wav
320,192,34668,1,0,0:0:0:55:snare.wav
192,192,34863,1,4,0:0:0:40:drum-hitnormal3.wav
448,192,34863,1,0,0:0:0:0:
64,192,35253,1,0,0:0:0:40:drum-hitnormal3.wav
320,192,35642,1,0,0:0:0:0:normal-hitclap.wav
192,192,36032,1,0,0:0:0:40:drum-hitnormal3.wav
448,192,36422,1,0,0:0:0:40:normal-hitnormal.wav
192,192,36811,1,0,0:0:0:40:drum-hitnormal3.wav
320,192,37201,1,0,0:0:0:40:normal-hitnormal.wav
64,192,37590,1,0,0:0:0:40:drum-hitnormal3.wav
320,192,37980,1,0,0:0:0:40:normal-hitnormal.wav
192,192,38370,1,0,0:0:0:40:drum-hitnormal3.wav
448,192,38759,1,0,0:0:0:40:normal-hitnormal.wav
192,192,39149,1,0,0:0:0:40:drum-hitnormal3.wav
64,192,39539,1,4,0:0:0:0:
448,192,39539,1,0,0:0:0:0:
192,192,39928,1,0,0:0:0:40:normal-hitnormal.wav
64,192,40318,1,0,0:0:0:45:soft-hitnormal.wav
448,192,40318,1,0,0:0:0:0:
192,192,40610,1,0,0:0:0:45:soft-hitnormal.wav
320,192,40902,1,0,0:0:0:45:soft-hitnormal.wav
448,192,41097,128,0,41876:0:0:0:60:normal-hitnormal.wav
192,192,41487,1,0,0:0:0:40:drum-hitnormal3.wav
64,192,41876,128,0,42655:0:0:0:60:normal-hitnormal.wav
320,192,42266,1,0,0:0:0:40:drum-hitnormal3.wav
192,192,42655,128,0,43435:0:0:0:60:normal-hitnormal.wav
448,192,43045,1,0,0:0:0:40:drum-hitnormal3.wav
320,192,43435,128,0,44214:0:0:0:60:normal-hitnormal.wav
64,192,43824,1,0,0:0:0:40:drum-hitnormal3.wav
448,192,44214,128,0,44993:0:0:0:60:normal-hitnormal.wav
192,192,44603,1,0,0:0:0:40:drum-hitnormal3.wav
64,192,44993,128,0,45772:0:0:0:60:normal-hitnormal.wav
192,192,45383,1,0,0:0:0:40:drum-hitnormal3.wav
320,192,45772,128,0,46552:0:0:0:60:normal-hitnormal.wav
448,192,46162,1,0,0:0:0:40:drum-hitnormal3.wav
192,192,46552,128,0,47331:0:0:0:70:normal-hitnormal.wav
64,192,46941,1,0,0:0:0:40:drum-hitnormal3.wav
448,192,47331,128,0,48110:0:0:0:40:drum-hitnormal3.wav
320,192,47720,1,0,0:0:0:40:drum-hitnormal3.wav
192,192,48110,128,0,48889:0:0:0:0:
64,192,48500,1,0,0:0:0:40:drum-hitnormal3.wav
320,192,48889,128,0,49668:0:0:0:40:drum-hitnormal3.wav
448,192,49279,1,0,0:0:0:40:drum-hitnormal3.wav
64,192,49668,128,0,50448:0:0:0:0:
448,192,50058,1,0,0:0:0:40:drum-hitnormal3.wav
320,192,50448,1,0,0:0:0:30:drum-hitnormal3.wav
320,192,50837,1,0,0:0:0:30:drum-hitnormal3.wav
64,192,51227,1,0,0:0:0:30:drum-hitnormal3.wav
64,192,51616,1,0,0:0:0:30:drum-hitnormal3.wav
448,192,52006,1,0,0:0:0:45:soft-hitclap.wav
320,192,52396,1,0,0:0:0:45:soft-hitclap.wav
64,192,52785,1,0,0:0:0:45:soft-hitclap.wav
192,192,53175,1,0,0:0:0:45:soft-hitclap.wav
64,192,53565,1,0,0:0:0:70:snare.wav
448,192,53565,1,0,0:0:0:0:
320,192,53954,1,0,0:0:0:40:drum-hitnormal3.wav
192,192,54344,1,0,0:0:0:50:soft-hitclap.wav
64,192,54539,1,0,0:0:0:50:soft-hitclap.wav
320,192,54733,1,0,0:0:0:50:soft-hitclap.wav
448,192,54733,1,0,0:0:0:0:
448,192,55123,1,4,0:0:0:0:
64,192,55123,1,0,0:0:0:0:
320,192,55318,1,0,0:0:0:70:normal-hitclap.wav
64,192,55513,1,0,0:0:0:40:drum-hitnormal3.wav
192,192,55707,1,0,0:0:0:90:normal-hitclap.wav
448,192,56097,1,0,0:0:0:90:normal-hitclap.wav
192,192,56487,1,0,0:0:0:45:normal-hitnormal.wav
320,192,56876,1,0,0:0:0:70:normal-hitclap.wav
64,192,57266,1,0,0:0:0:90:normal-hitclap.wav
320,192,57655,1,0,0:0:0:90:normal-hitclap.wav
448,192,58240,1,0,0:0:0:45:soft-hitnormal.wav
320,192,58435,1,0,0:0:0:40:normal-hitnormal.wav
64,192,58629,1,0,0:0:0:40:drum-hitnormal3.wav
192,192,58824,1,0,0:0:0:90:normal-hitclap.wav
448,192,59214,1,0,0:0:0:90:normal-hitclap.wav
192,192,59603,1,0,0:0:0:40:normal-hitnormal.wav
320,192,59993,1,0,0:0:0:40:normal-hitnormal.wav
64,192,60383,1,0,0:0:0:90:normal-hitclap.wav
320,192,60772,1,0,0:0:0:45:soft-hitnormal.wav
192,192,61162,1,0,0:0:0:45:soft-hitnormal.wav
64,192,61357,1,4,0:0:0:0:
448,192,61357,1,0,0:0:0:0:
320,192,61552,1,0,0:0:0:40:normal-hitnormal.wav
64,192,61746,1,0,0:0:0:40:drum-hitnormal3.wav
192,192,61941,1,0,0:0:0:90:normal-hitclap.wav
448,192,62331,1,0,0:0:0:90:normal-hitclap.wav
192,192,62720,1,0,0:0:0:40:normal-hitnormal.wav
320,192,63110,1,0,0:0:0:40:normal-hitnormal.wav
64,192,63500,1,0,0:0:0:90:normal-hitclap.wav
320,192,63889,1,0,0:0:0:45:soft-hitnormal.wav
192,192,64084,1,0,0:0:0:40:drum-hitnormal3.wav
320,192,64279,1,0,0:0:0:40:normal-hitnormal.wav
64,192,64474,1,4,0:0:0:0:
448,192,64474,1,0,0:0:0:0:
320,192,65058,128,0,65253:0:0:0:90:normal-hitclap.wav
448,192,65253,1,0,0:0:0:90:normal-hitclap.wav
192,192,65837,1,0,0:0:0:45:normal-hitnormal.wav
320,192,66227,1,0,0:0:0:45:soft-hitnormal.wav
448,192,66616,1,0,0:0:0:70:normal-hitclap.wav
320,192,66811,1,0,0:0:0:70:normal-hitclap.wav
192,192,67006,1,0,0:0:0:70:normal-hitclap.wav
64,192,67201,1,0,0:0:0:70:normal-hitclap.wav
192,192,67396,1,0,0:0:0:70:normal-hitclap.wav
320,192,67590,128,0,69149:0:0:0:0:
448,192,67590,1,4,0:0:0:0:
64,192,69149,128,0,69539:0:0:0:45:normal-hitnormal.wav
448,192,69539,1,0,0:0:0:40:drum-hitnormal3.wav
320,192,69928,1,0,0:0:0:45:normal-hitnormal.wav
192,192,70123,1,0,0:0:0:90:normal-hitclap.wav
320,192,70318,1,0,0:0:0:40:drum-hitnormal3.wav
64,192,70707,128,4,71097:0:0:0:0:
448,192,71097,1,0,0:0:0:40:drum-hitnormal3.wav
192,192,71487,1,0,0:0:0:45:normal-hitnormal.wav
320,192,71681,1,0,0:0:0:90:normal-hitclap.wav
192,192,71876,1,0,0:0:0:50:drum-hitnormal3.wav
448,192,72266,128,4,72655:0:0:0:45:normal-hitnormal.wav
64,192,72655,1,0,0:0:0:40:drum-hitnormal3.wav
320,192,73045,1,0,0:0:0:45:normal-hitnormal.wav
192,192,73240,1,0,0:0:0:90:normal-hitclap.wav
320,192,73435,1,0,0:0:0:40:drum-hitnormal3.wav
64,192,73824,128,4,74214:0:0:0:45:normal-hitnormal.wav
448,192,74214,1,0,0:0:0:40:drum-hitnormal3.wav
192,192,74603,1,0,0:0:0:45:normal-hitnormal.wav
320,192,74798,1,0,0:0:0:90:normal-hitclap.wav
192,192,74993,1,0,0:0:0:45:normal-hitnormal.wav
64,192,75188,1,0,0:0:0:45:soft-hitnormal.wav
448,192,75383,1,0,0:0:0:60:snare.wav
64,192,75772,1,0,0:0:0:70:soft-hitclap.wav
320,192,76162,1,0,0:0:0:45:normal-hitnormal.wav
192,192,76552,1,0,0:0:0:70:soft-hitclap.wav
448,192,76941,1,0,0:0:0:45:normal-hitnormal.wav
64,192,77331,1,0,0:0:0:70:soft-hitclap.wav
320,192,77720,1,0,0:0:0:70:normal-hitclap.wav
192,192,78110,1,0,0:0:0:70:soft-hitclap.wav
448,192,78500,1,0,0:0:0:40:drum-hitnormal3.wav
64,192,78694,1,0,0:0:0:40:drum-hitnormal3.wav
448,192,78889,1,0,0:0:0:40:drum-hitnormal3.wav
64,192,79084,1,0,0:0:0:40:drum-hitnormal3.wav
320,192,79279,1,0,0:0:0:40:drum-hitnormal3.wav
192,192,79474,1,0,0:0:0:40:drum-hitnormal3.wav
320,192,79668,1,0,0:0:0:40:drum-hitnormal3.wav
192,192,79863,1,0,0:0:0:40:drum-hitnormal3.wav
320,192,80058,128,0,80837:0:0:0:40:drum-hitnormal3.wav
192,192,80837,128,0,81616:0:0:0:40:drum-hitnormal3.wav
64,192,81616,5,4,0:0:0:0:
448,192,82006,1,0,0:0:0:40:drum-hitnormal3.wav
320,192,82006,1,0,0:0:0:0:
64,192,82201,1,0,0:0:0:90:normal-hitclap.wav
320,192,82590,1,0,0:0:0:90:normal-hitclap.wav
192,192,82980,1,0,0:0:0:45:normal-hitnormal.wav
320,192,83370,1,0,0:0:0:45:normal-hitnormal.wav
448,192,83759,1,0,0:0:0:90:normal-hitclap.wav
192,192,84149,1,0,0:0:0:90:normal-hitclap.wav
448,192,84733,1,0,0:0:0:45:normal-hitnormal.wav
320,192,84928,1,0,0:0:0:45:normal-hitnormal.wav
64,192,85123,1,0,0:0:0:40:drum-hitnormal3.wav
192,192,85318,1,0,0:0:0:90:normal-hitclap.wav
448,192,85707,1,0,0:0:0:90:normal-hitclap.wav
192,192,86097,1,0,0:0:0:45:normal-hitnormal.wav
448,192,86487,1,0,0:0:0:45:normal-hitnormal.wav
64,192,86876,1,0,0:0:0:90:normal-hitclap.wav
320,192,87266,1,0,0:0:0:45:normal-hitnormal.wav
192,192,87655,1,4,0:0:0:45:normal-hitnormal.wav
448,192,87850,1,0,0:0:0:50:snare.wav
320,192,88045,1,0,0:0:0:45:normal-hitnormal.wav
64,192,88240,1,0,0:0:0:40:drum-hitnormal3.wav
192,192,88435,1,0,0:0:0:90:normal-hitclap.wav
448,192,88824,1,0,0:0:0:40:normal-hitnormal.wav
192,192,89214,1,0,0:0:0:45:normal-hitnormal.wav
320,192,89603,1,0,0:0:0:45:normal-hitnormal.wav
64,192,89993,1,0,0:0:0:90:normal-hitclap.wav
192,192,90383,1,0,0:0:0:90:normal-hitclap.wav
448,192,90772,128,0,90967:0:0:0:45:normal-hitnormal.wav
64,192,90967,1,0,0:0:0:45:normal-hitnormal.wav
192,192,91552,128,0,91746:0:0:0:45:soft-hitnormal.wav
448,192,91746,1,0,0:0:0:50:snare.wav
320,192,92331,1,0,0:0:0:45:normal-hitnormal.wav
192,192,92720,1,0,0:0:0:45:normal-hitnormal.wav
448,192,92915,1,0,0:0:0:45:normal-hitnormal.wav
64,192,93110,1,0,0:0:0:45:normal-hitnormal.wav
320,192,93305,1,0,0:0:0:70:soft-hitclap.wav
448,192,93500,1,0,0:0:0:70:soft-hitclap.wav
192,192,93694,1,0,0:0:0:70:soft-hitclap.wav
320,192,93889,1,0,0:0:0:70:soft-hitclap.wav
192,192,94084,1,2,0:0:0:0:
448,192,94279,1,2,0:0:0:0:
64,192,94474,1,2,0:0:0:0:
192,192,94668,1,2,0:0:0:0:
320,192,95058,1,2,0:0:0:0:
64,192,95448,1,2,0:0:0:0:
448,192,95837,1,2,0:0:0:0:
192,192,96227,1,2,0:0:0:0:
64,192,96616,1,2,0:0:0:0:
192,192,96811,1,2,0:0:0:0:
448,192,97006,1,2,0:0:0:0:
320,192,97201,1,2,0:0:0:0:
64,192,97785,128,2,97980:0:0:0:0:
192,192,97980,1,2,0:0:0:0:
448,192,98565,1,2,0:0:0:0:
320,192,98954,1,2,0:0:0:0:
192,192,99344,1,2,0:0:0:0:
64,192,99539,1,2,0:0:0:0:
192,192,99733,1,2,0:0:0:0:
320,192,99928,1,2,0:0:0:0:
448,192,100123,1,2,0:0:0:0:
