osu file format v14

[General]
AudioFilename: audio.mp3
AudioLeadIn: 0
PreviewTime: 55131
Countdown: 1
SampleSet: Soft
StackLeniency: 0.7
Mode: 3
LetterboxInBreaks: 0
SpecialStyle: 0
WidescreenStoryboard: 0

[Editor]
DistanceSpacing: 1
BeatDivisor: 4
GridSize: 4
TimelineZoom: 1.8

[Metadata]
Title:New Gravity
TitleUnicode:New Gravity
Artist:Starving Trancer
ArtistUnicode:Starving Trancer
Creator:Jinjin
Version:LNsane
Source:Dance Dance Revolution 2013
Tags:
BeatmapID:1897125
BeatmapSetID:909095

[Difficulty]
HPDrainRate:7
CircleSize:7
OverallDifficulty:5
ApproachRate:5
SliderMultiplier:1.4
SliderTickRate:1

[Events]
//Background and Video events
0,0,"new gravity.jpg",0,0
//Break Periods
//Storyboard Layer 0 (Background)
//Storyboard Layer 1 (Fail)
//Storyboard Layer 2 (Pass)
//Storyboard Layer 3 (Foreground)
//Storyboard Layer 4 (Overlay)
//Storyboard Sound Samples

[TimingPoints]
586,389.61038961039,4,2,0,0,1,0

[HitObjects]
329,192,586,128,0,878:0:0:0:0:
109,192,586,128,0,780:0:0:0:0:
182,192,780,128,0,975:0:0:0:0:
329,192,975,128,0,1462:0:0:0:0:
36,192,975,128,0,1170:0:0:0:0:
475,192,1170,128,0,1852:0:0:0:0:
182,192,1170,128,0,1560:0:0:0:0:
109,192,1560,128,0,1754:0:0:0:0:
329,192,1560,128,0,1754:0:0:0:0:
475,192,1949,128,0,3605:0:0:0:0:
36,192,2144,128,0,2339:0:0:0:0:
402,192,2339,128,0,3605:0:0:0:0:
109,192,2339,128,0,2534:0:0:0:0:
182,192,2534,128,0,2728:0:0:0:0:
329,192,2728,128,0,3605:0:0:0:0:
36,192,2728,128,0,3118:0:0:0:0:
256,192,3118,128,0,3605:0:0:0:0:
109,192,3118,128,0,3313:0:0:0:0:
182,192,3313,128,0,3410:0:0:0:0:
182,192,3508,128,0,3605:0:0:0:0:
36,192,3702,128,0,4189:0:0:0:0:
329,192,3702,128,0,3897:0:0:0:0:
402,192,3897,128,0,4092:0:0:0:0:
182,192,4092,128,0,4579:0:0:0:0:
329,192,4092,128,0,4287:0:0:0:0:
36,192,4287,128,0,4969:0:0:0:0:
475,192,4287,128,0,4676:0:0:0:0:
402,192,4676,128,0,4871:0:0:0:0:
182,192,4676,128,0,4871:0:0:0:0:
36,192,5066,128,0,6722:0:0:0:0:
256,192,5261,128,0,5456:0:0:0:0:
109,192,5456,128,0,6722:0:0:0:0:
329,192,5456,128,0,5650:0:0:0:0:
402,192,5650,128,0,5845:0:0:0:0:
182,192,5845,128,0,6722:0:0:0:0:
329,192,5845,128,0,6235:0:0:0:0:
256,192,6235,128,0,6722:0:0:0:0:
402,192,6235,128,0,6624:0:0:0:0:
329,192,6624,128,0,6722:0:0:0:0:
475,192,6624,128,0,6722:0:0:0:0:
36,192,6819,128,0,7209:0:0:0:0:
182,192,6819,128,0,6917:0:0:0:0:
329,192,6819,128,0,6917:0:0:0:0:
475,192,6819,128,0,6917:0:0:0:0:
109,192,6819,128,0,7014:0:0:0:0:
256,192,6917,128,0,7014:0:0:0:0:
402,192,7014,128,0,7111:0:0:0:0:
475,192,7014,128,0,7111:0:0:0:0:
329,192,7111,128,0,7209:0:0:0:0:
182,192,7209,128,0,7404:0:0:0:0:
256,192,7209,128,0,7306:0:0:0:0:
109,192,7209,128,0,7306:0:0:0:0:
329,192,7306,128,0,7404:0:0:0:0:
475,192,7404,128,0,7793:0:0:0:0:
109,192,7404,128,0,7501:0:0:0:0:
36,192,7404,128,0,7501:0:0:0:0:
402,192,7404,128,0,7598:0:0:0:0:
256,192,7501,128,0,7598:0:0:0:0:
182,192,7598,128,0,7696:0:0:0:0:
36,192,7598,128,0,7696:0:0:0:0:
256,192,7696,128,0,7793:0:0:0:0:
329,192,7793,128,0,8183:0:0:0:0:
109,192,7793,128,0,7891:0:0:0:0:
36,192,7793,128,0,7891:0:0:0:0:
402,192,7793,128,0,7988:0:0:0:0:
182,192,7891,128,0,7988:0:0:0:0:
256,192,7988,128,0,8086:0:0:0:0:
36,192,7988,128,0,8086:0:0:0:0:
475,192,7988,128,0,8086:0:0:0:0:
182,192,8086,128,0,8183:0:0:0:0:
109,192,8183,128,0,8573:0:0:0:0:
402,192,8183,128,0,8280:0:0:0:0:
475,192,8183,128,0,8280:0:0:0:0:
256,192,8280,128,0,8378:0:0:0:0:
329,192,8378,128,0,8475:0:0:0:0:
475,192,8378,128,0,8475:0:0:0:0:
36,192,8378,128,0,8573:0:0:0:0:
402,192,8475,128,0,8573:0:0:0:0:
182,192,8573,128,0,8962:0:0:0:0:
475,192,8573,128,0,8670:0:0:0:0:
256,192,8573,128,0,8670:0:0:0:0:
329,192,8670,128,0,8767:0:0:0:0:
402,192,8767,128,0,8865:0:0:0:0:
109,192,8767,128,0,8865:0:0:0:0:
36,192,8767,128,0,8865:0:0:0:0:
329,192,8865,128,0,8962:0:0:0:0:
256,192,8962,128,0,9352:0:0:0:0:
402,192,8962,128,0,9060:0:0:0:0:
475,192,8962,128,0,9060:0:0:0:0:
109,192,8962,128,0,9060:0:0:0:0:
36,192,9060,128,0,9157:0:0:0:0:
182,192,9157,128,0,9254:0:0:0:0:
402,192,9157,128,0,9254:0:0:0:0:
109,192,9254,128,0,9352:0:0:0:0:
329,192,9352,128,0,9547:0:0:0:0:
36,192,9352,128,0,9449:0:0:0:0:
182,192,9352,128,0,9449:0:0:0:0:
475,192,9352,128,0,9449:0:0:0:0:
109,192,9449,128,0,9547:0:0:0:0:
402,192,9547,128,0,9741:0:0:0:0:
182,192,9547,128,0,9644:0:0:0:0:
256,192,9547,128,0,9644:0:0:0:0:
475,192,9547,128,0,9644:0:0:0:0:
36,192,9644,128,0,9741:0:0:0:0:
475,192,9741,128,0,9936:0:0:0:0:
109,192,9741,128,0,9839:0:0:0:0:
182,192,9741,128,0,9839:0:0:0:0:
256,192,9839,128,0,9936:0:0:0:0:
329,192,9936,128,0,10521:0:0:0:0:
402,192,9936,128,0,10034:0:0:0:0:
109,192,9936,128,0,10034:0:0:0:0:
36,192,9936,128,0,10034:0:0:0:0:
182,192,10034,128,0,10131:0:0:0:0:
109,192,10131,128,0,10228:0:0:0:0:
402,192,10131,128,0,10228:0:0:0:0:
256,192,10228,128,0,10326:0:0:0:0:
182,192,10326,128,0,10423:0:0:0:0:
36,192,10326,128,0,10423:0:0:0:0:
475,192,10326,128,0,10423:0:0:0:0:
402,192,10423,128,0,10521:0:0:0:0:
182,192,10521,128,0,10618:0:0:0:0:
36,192,10521,128,0,10715:0:0:0:0:
256,192,10521,128,0,10618:0:0:0:0:
475,192,10521,128,0,10618:0:0:0:0:
109,192,10618,128,0,10715:0:0:0:0:
329,192,10618,128,0,10715:0:0:0:0:
182,192,10715,128,0,11300:0:0:0:0:
402,192,10715,128,0,10813:0:0:0:0:
475,192,10715,128,0,10813:0:0:0:0:
256,192,10813,128,0,10910:0:0:0:0:
329,192,10910,128,0,11008:0:0:0:0:
402,192,10910,128,0,11008:0:0:0:0:
36,192,10910,128,0,11008:0:0:0:0:
109,192,11008,128,0,11105:0:0:0:0:
256,192,11105,128,0,11202:0:0:0:0:
329,192,11105,128,0,11202:0:0:0:0:
475,192,11105,128,0,11202:0:0:0:0:
109,192,11202,128,0,11300:0:0:0:0:
402,192,11300,128,0,11689:0:0:0:0:
36,192,11300,128,0,11397:0:0:0:0:
329,192,11300,128,0,11397:0:0:0:0:
475,192,11300,128,0,11689:0:0:0:0:
256,192,11397,128,0,11495:0:0:0:0:
182,192,11495,128,0,11592:0:0:0:0:
109,192,11495,128,0,11592:0:0:0:0:
36,192,11495,128,0,11592:0:0:0:0:
256,192,11592,128,0,11689:0:0:0:0:
329,192,11689,128,0,12079:0:0:0:0:
182,192,11689,128,0,11787:0:0:0:0:
109,192,11689,128,0,11787:0:0:0:0:
36,192,11787,128,0,11884:0:0:0:0:
109,192,11884,128,0,11982:0:0:0:0:
256,192,11884,128,0,11982:0:0:0:0:
475,192,11884,128,0,11982:0:0:0:0:
402,192,11982,128,0,12079:0:0:0:0:
182,192,12079,128,0,12274:0:0:0:0:
475,192,12079,128,0,12176:0:0:0:0:
256,192,12079,128,0,12176:0:0:0:0:
36,192,12079,128,0,12176:0:0:0:0:
329,192,12176,128,0,12274:0:0:0:0:
109,192,12274,128,0,12469:0:0:0:0:
402,192,12274,128,0,12371:0:0:0:0:
475,192,12274,128,0,12371:0:0:0:0:
36,192,12274,128,0,12469:0:0:0:0:
256,192,12371,128,0,12469:0:0:0:0:
182,192,12469,128,0,12663:0:0:0:0:
402,192,12469,128,0,12566:0:0:0:0:
475,192,12469,128,0,12566:0:0:0:0:
329,192,12469,128,0,12566:0:0:0:0:
36,192,12566,128,0,12663:0:0:0:0:
256,192,12663,128,0,12858:0:0:0:0:
109,192,12663,128,0,12761:0:0:0:0:
402,192,12663,128,0,12858:0:0:0:0:
475,192,12663,128,0,12858:0:0:0:0:
36,192,12761,128,0,12858:0:0:0:0:
329,192,12858,128,0,13053:0:0:0:0:
109,192,12858,128,0,12956:0:0:0:0:
182,192,12858,128,0,12956:0:0:0:0:
256,192,12956,128,0,13053:0:0:0:0:
475,192,13053,1,0,0:0:0:0:
402,192,13053,128,0,13345:0:0:0:0:
36,192,13053,1,0,0:0:0:0:
182,192,13053,128,0,13150:0:0:0:0:
329,192,13150,128,0,13345:0:0:0:0:
109,192,13150,128,0,13248:0:0:0:0:
256,192,13248,128,0,13345:0:0:0:0:
36,192,13248,128,0,13345:0:0:0:0:
182,192,13345,128,0,13443:0:0:0:0:
36,192,13443,128,0,13735:0:0:0:0:
256,192,13443,128,0,13540:0:0:0:0:
329,192,13443,128,0,13540:0:0:0:0:
402,192,13443,128,0,13540:0:0:0:0:
109,192,13540,128,0,13735:0:0:0:0:
475,192,13540,128,0,13637:0:0:0:0:
182,192,13637,128,0,13735:0:0:0:0:
402,192,13637,128,0,13735:0:0:0:0:
256,192,13735,128,0,13832:0:0:0:0:
475,192,13832,128,0,14124:0:0:0:0:
36,192,13832,128,0,13930:0:0:0:0:
109,192,13832,128,0,13930:0:0:0:0:
182,192,13832,128,0,13930:0:0:0:0:
329,192,13930,128,0,14124:0:0:0:0:
402,192,13930,128,0,14027:0:0:0:0:
182,192,14027,128,0,14124:0:0:0:0:
256,192,14027,128,0,14124:0:0:0:0:
36,192,14124,128,0,14222:0:0:0:0:
109,192,14222,128,0,14514:0:0:0:0:
182,192,14222,128,0,14319:0:0:0:0:
329,192,14222,128,0,14319:0:0:0:0:
475,192,14222,128,0,14319:0:0:0:0:
256,192,14319,128,0,14514:0:0:0:0:
402,192,14319,128,0,14417:0:0:0:0:
329,192,14417,128,0,14514:0:0:0:0:
182,192,14417,128,0,14514:0:0:0:0:
475,192,14514,128,0,14611:0:0:0:0:
36,192,14611,128,0,14806:0:0:0:0:
402,192,14611,128,0,14806:0:0:0:0:
109,192,14611,128,0,14709:0:0:0:0:
256,192,14611,128,0,14709:0:0:0:0:
182,192,14709,128,0,14904:0:0:0:0:
329,192,14709,128,0,14904:0:0:0:0:
109,192,14806,128,0,15001:0:0:0:0:
475,192,14806,128,0,15001:0:0:0:0:
256,192,14904,128,0,15098:0:0:0:0:
36,192,14904,128,0,15098:0:0:0:0:
402,192,15001,128,0,15196:0:0:0:0:
329,192,15001,128,0,15196:0:0:0:0:
182,192,15098,128,0,15293:0:0:0:0:
109,192,15098,128,0,15293:0:0:0:0:
256,192,15196,128,0,15391:0:0:0:0:
475,192,15196,128,0,15391:0:0:0:0:
36,192,15293,128,0,15488:0:0:0:0:
329,192,15293,128,0,15488:0:0:0:0:
109,192,15391,128,0,15586:0:0:0:0:
402,192,15391,128,0,15586:0:0:0:0:
182,192,15488,128,0,15683:0:0:0:0:
475,192,15488,128,0,15683:0:0:0:0:
256,192,15586,128,0,15780:0:0:0:0:
36,192,15586,128,0,15683:0:0:0:0:
329,192,15683,128,0,15878:0:0:0:0:
109,192,15683,128,0,15780:0:0:0:0:
402,192,15780,128,0,15975:0:0:0:0:
182,192,15780,128,0,15878:0:0:0:0:
475,192,15878,128,0,16073:0:0:0:0:
256,192,15878,128,0,15975:0:0:0:0:
329,192,15975,128,0,16073:0:0:0:0:
36,192,15975,128,0,16073:0:0:0:0:
109,192,15975,128,0,16073:0:0:0:0:
402,192,16073,128,0,16170:0:0:0:0:
182,192,16073,128,0,16170:0:0:0:0:
36,192,16170,128,0,16267:0:0:0:0:
109,192,16170,128,0,16267:0:0:0:0:
256,192,16170,128,0,16267:0:0:0:0:
475,192,16170,128,0,16365:0:0:0:0:
329,192,16267,128,0,16365:0:0:0:0:
402,192,16267,128,0,16365:0:0:0:0:
182,192,16365,128,0,16462:0:0:0:0:
109,192,16365,128,0,16462:0:0:0:0:
256,192,16462,128,0,16560:0:0:0:0:
402,192,16462,128,0,16560:0:0:0:0:
329,192,16560,128,0,16657:0:0:0:0:
475,192,16560,128,0,16657:0:0:0:0:
109,192,16560,128,0,16657:0:0:0:0:
36,192,16560,128,0,16657:0:0:0:0:
182,192,16657,128,0,16754:0:0:0:0:
256,192,16657,128,0,16754:0:0:0:0:
36,192,16754,128,0,16852:0:0:0:0:
109,192,16754,128,0,16852:0:0:0:0:
402,192,16754,128,0,16949:0:0:0:0:
475,192,16754,128,0,16949:0:0:0:0:
256,192,16852,128,0,16949:0:0:0:0:
329,192,16852,128,0,16949:0:0:0:0:
182,192,16949,128,0,17047:0:0:0:0:
36,192,16949,128,0,17144:0:0:0:0:
109,192,17047,128,0,17144:0:0:0:0:
329,192,17047,128,0,17144:0:0:0:0:
256,192,17144,128,0,17241:0:0:0:0:
182,192,17144,128,0,17241:0:0:0:0:
475,192,17144,128,0,17339:0:0:0:0:
402,192,17144,128,0,17241:0:0:0:0:
109,192,17241,128,0,17339:0:0:0:0:
36,192,17241,128,0,17339:0:0:0:0:
256,192,17339,128,0,17436:0:0:0:0:
402,192,17339,128,0,17436:0:0:0:0:
182,192,17436,128,0,17534:0:0:0:0:
329,192,17436,128,0,17534:0:0:0:0:
475,192,17534,128,0,17728:0:0:0:0:
256,192,17534,128,0,17631:0:0:0:0:
109,192,17534,128,0,17631:0:0:0:0:
36,192,17534,128,0,17631:0:0:0:0:
329,192,17631,128,0,17728:0:0:0:0:
402,192,17631,128,0,17728:0:0:0:0:
182,192,17728,128,0,17826:0:0:0:0:
36,192,17728,128,0,17826:0:0:0:0:
256,192,17826,128,0,17923:0:0:0:0:
329,192,17826,128,0,17923:0:0:0:0:
402,192,17923,128,0,18118:0:0:0:0:
475,192,17923,128,0,18118:0:0:0:0:
109,192,17923,128,0,18021:0:0:0:0:
36,192,17923,128,0,18021:0:0:0:0:
182,192,18021,128,0,18118:0:0:0:0:
329,192,18021,128,0,18118:0:0:0:0:
256,192,18118,128,0,18215:0:0:0:0:
109,192,18118,128,0,18215:0:0:0:0:
329,192,18215,128,0,18313:0:0:0:0:
475,192,18215,128,0,18313:0:0:0:0:
402,192,18313,128,0,18508:0:0:0:0:
36,192,18313,128,0,18508:0:0:0:0:
109,192,18313,128,0,18410:0:0:0:0:
182,192,18313,128,0,18410:0:0:0:0:
256,192,18410,128,0,18508:0:0:0:0:
329,192,18410,128,0,18508:0:0:0:0:
109,192,18508,128,0,18605:0:0:0:0:
182,192,18508,128,0,18605:0:0:0:0:
256,192,18605,128,0,18702:0:0:0:0:
402,192,18605,128,0,18702:0:0:0:0:
475,192,18702,128,0,18897:0:0:0:0:
36,192,18702,128,0,18897:0:0:0:0:
109,192,18702,128,0,18800:0:0:0:0:
182,192,18702,128,0,18800:0:0:0:0:
256,192,18800,128,0,18897:0:0:0:0:
329,192,18800,128,0,18897:0:0:0:0:
402,192,18897,128,0,18995:0:0:0:0:
182,192,18897,128,0,18995:0:0:0:0:
109,192,18897,128,0,18995:0:0:0:0:
256,192,18995,128,0,19092:0:0:0:0:
329,192,18995,128,0,19092:0:0:0:0:
182,192,19092,128,0,19189:0:0:0:0:
109,192,19092,128,0,19189:0:0:0:0:
329,192,19189,128,0,19287:0:0:0:0:
402,192,19189,128,0,19287:0:0:0:0:
475,192,19287,128,0,19482:0:0:0:0:
256,192,19287,128,0,19482:0:0:0:0:
182,192,19287,128,0,19384:0:0:0:0:
109,192,19287,128,0,19384:0:0:0:0:
36,192,19287,128,0,19384:0:0:0:0:
329,192,19384,128,0,19482:0:0:0:0:
402,192,19384,128,0,19482:0:0:0:0:
36,192,19482,128,0,19579:0:0:0:0:
182,192,19482,128,0,19579:0:0:0:0:
256,192,19579,128,0,19676:0:0:0:0:
402,192,19579,128,0,19676:0:0:0:0:
329,192,19676,128,0,19871:0:0:0:0:
182,192,19676,128,0,19774:0:0:0:0:
109,192,19676,128,0,19774:0:0:0:0:
36,192,19676,128,0,19774:0:0:0:0:
402,192,19774,128,0,19871:0:0:0:0:
475,192,19774,128,0,19871:0:0:0:0:
256,192,19871,128,0,20066:0:0:0:0:
182,192,19871,128,0,19969:0:0:0:0:
109,192,19871,128,0,19969:0:0:0:0:
36,192,19871,128,0,19969:0:0:0:0:
329,192,19969,128,0,20066:0:0:0:0:
475,192,19969,128,0,20066:0:0:0:0:
109,192,20066,128,0,20163:0:0:0:0:
182,192,20066,128,0,20163:0:0:0:0:
256,192,20163,128,0,20261:0:0:0:0:
402,192,20163,128,0,20261:0:0:0:0:
475,192,20261,128,0,20456:0:0:0:0:
36,192,20261,128,0,20456:0:0:0:0:
182,192,20261,128,0,20358:0:0:0:0:
329,192,20261,128,0,20358:0:0:0:0:
256,192,20358,128,0,20456:0:0:0:0:
109,192,20358,128,0,20456:0:0:0:0:
182,192,20456,128,0,20553:0:0:0:0:
402,192,20456,128,0,20553:0:0:0:0:
329,192,20553,128,0,20650:0:0:0:0:
256,192,20553,128,0,20650:0:0:0:0:
182,192,20650,128,0,20845:0:0:0:0:
475,192,20650,128,0,20845:0:0:0:0:
109,192,20650,128,0,20748:0:0:0:0:
36,192,20650,128,0,20748:0:0:0:0:
329,192,20748,128,0,20845:0:0:0:0:
402,192,20748,128,0,20845:0:0:0:0:
256,192,20845,128,0,20943:0:0:0:0:
109,192,20845,128,0,20943:0:0:0:0:
36,192,20845,128,0,20943:0:0:0:0:
182,192,20943,128,0,21040:0:0:0:0:
329,192,20943,128,0,21040:0:0:0:0:
36,192,21040,128,0,21235:0:0:0:0:
256,192,21040,128,0,21235:0:0:0:0:
109,192,21040,128,0,21137:0:0:0:0:
402,192,21040,128,0,21137:0:0:0:0:
329,192,21137,128,0,21235:0:0:0:0:
475,192,21137,128,0,21235:0:0:0:0:
402,192,21235,128,0,21332:0:0:0:0:
182,192,21235,128,0,21332:0:0:0:0:
109,192,21235,128,0,21332:0:0:0:0:
256,192,21332,128,0,21430:0:0:0:0:
329,192,21332,128,0,21430:0:0:0:0:
36,192,21430,128,0,21624:0:0:0:0:
182,192,21430,128,0,21624:0:0:0:0:
475,192,21430,128,0,21624:0:0:0:0:
109,192,21430,128,0,21527:0:0:0:0:
329,192,21527,128,0,21624:0:0:0:0:
402,192,21527,128,0,21624:0:0:0:0:
256,192,21624,128,0,21722:0:0:0:0:
109,192,21624,128,0,21722:0:0:0:0:
182,192,21722,128,0,21819:0:0:0:0:
329,192,21722,128,0,21819:0:0:0:0:
256,192,21819,128,0,22014:0:0:0:0:
475,192,21819,128,0,22014:0:0:0:0:
36,192,21819,128,0,22014:0:0:0:0:
402,192,21819,128,0,21917:0:0:0:0:
109,192,21917,128,0,22014:0:0:0:0:
182,192,21917,128,0,22014:0:0:0:0:
329,192,22014,128,0,22111:0:0:0:0:
402,192,22014,128,0,22111:0:0:0:0:
256,192,22111,128,0,22209:0:0:0:0:
182,192,22111,128,0,22209:0:0:0:0:
109,192,22209,128,0,22306:0:0:0:0:
36,192,22209,128,0,22306:0:0:0:0:
402,192,22209,128,0,22306:0:0:0:0:
475,192,22209,128,0,22306:0:0:0:0:
182,192,22306,128,0,22404:0:0:0:0:
329,192,22306,128,0,22404:0:0:0:0:
109,192,22404,128,0,22598:0:0:0:0:
36,192,22404,128,0,22598:0:0:0:0:
475,192,22404,128,0,22501:0:0:0:0:
402,192,22404,128,0,22501:0:0:0:0:
256,192,22404,128,0,22501:0:0:0:0:
182,192,22501,128,0,22598:0:0:0:0:
329,192,22501,128,0,22598:0:0:0:0:
256,192,22598,128,0,22696:0:0:0:0:
402,192,22598,128,0,22696:0:0:0:0:
109,192,22696,128,0,22793:0:0:0:0:
36,192,22696,128,0,22793:0:0:0:0:
402,192,22793,128,0,22988:0:0:0:0:
475,192,22793,128,0,22891:0:0:0:0:
256,192,22793,128,0,22891:0:0:0:0:
182,192,22793,128,0,22891:0:0:0:0:
109,192,22891,128,0,22988:0:0:0:0:
329,192,22891,128,0,22988:0:0:0:0:
182,192,22988,128,0,23086:0:0:0:0:
36,192,22988,128,0,23183:0:0:0:0:
475,192,22988,128,0,23086:0:0:0:0:
256,192,22988,128,0,23086:0:0:0:0:
329,192,23086,128,0,23183:0:0:0:0:
402,192,23086,128,0,23183:0:0:0:0:
109,192,23183,128,0,23280:0:0:0:0:
182,192,23183,128,0,23280:0:0:0:0:
256,192,23280,128,0,23378:0:0:0:0:
402,192,23280,128,0,23378:0:0:0:0:
475,192,23378,128,0,23573:0:0:0:0:
109,192,23378,128,0,23573:0:0:0:0:
36,192,23378,128,0,23475:0:0:0:0:
329,192,23378,128,0,23475:0:0:0:0:
402,192,23475,128,0,23573:0:0:0:0:
182,192,23475,128,0,23573:0:0:0:0:
256,192,23573,128,0,23670:0:0:0:0:
36,192,23573,128,0,23670:0:0:0:0:
109,192,23670,128,0,23767:0:0:0:0:
329,192,23670,128,0,23767:0:0:0:0:
402,192,23767,128,0,23962:0:0:0:0:
475,192,23767,128,0,23962:0:0:0:0:
256,192,23767,128,0,23865:0:0:0:0:
182,192,23767,128,0,23865:0:0:0:0:
329,192,23865,128,0,23962:0:0:0:0:
36,192,23865,128,0,23962:0:0:0:0:
182,192,23962,128,0,24060:0:0:0:0:
109,192,23962,128,0,24060:0:0:0:0:
256,192,24060,128,0,24157:0:0:0:0:
402,192,24060,128,0,24157:0:0:0:0:
329,192,24157,128,0,24352:0:0:0:0:
475,192,24157,128,0,24352:0:0:0:0:
109,192,24157,128,0,24254:0:0:0:0:
36,192,24157,128,0,24254:0:0:0:0:
182,192,24254,128,0,24352:0:0:0:0:
256,192,24254,128,0,24352:0:0:0:0:
109,192,24352,128,0,24449:0:0:0:0:
36,192,24352,128,0,24449:0:0:0:0:
329,192,24449,128,0,24547:0:0:0:0:
475,192,24449,128,0,24547:0:0:0:0:
256,192,24547,128,0,24741:0:0:0:0:
182,192,24547,128,0,24644:0:0:0:0:
36,192,24547,128,0,24644:0:0:0:0:
402,192,24547,128,0,24644:0:0:0:0:
329,192,24644,128,0,24741:0:0:0:0:
475,192,24644,128,0,24741:0:0:0:0:
182,192,24741,128,0,24839:0:0:0:0:
36,192,24741,128,0,24839:0:0:0:0:
109,192,24839,128,0,24936:0:0:0:0:
256,192,24839,128,0,24936:0:0:0:0:
475,192,24936,128,0,25131:0:0:0:0:
402,192,24936,128,0,25034:0:0:0:0:
329,192,24936,128,0,25034:0:0:0:0:
182,192,24936,128,0,25034:0:0:0:0:
256,192,25034,128,0,25131:0:0:0:0:
109,192,25034,128,0,25131:0:0:0:0:
402,192,25131,128,0,25326:0:0:0:0:
36,192,25131,128,0,25228:0:0:0:0:
182,192,25131,128,0,25228:0:0:0:0:
329,192,25131,128,0,25228:0:0:0:0:
256,192,25228,128,0,25326:0:0:0:0:
475,192,25228,128,0,25326:0:0:0:0:
329,192,25326,128,0,25423:0:0:0:0:
182,192,25326,128,0,25423:0:0:0:0:
109,192,25326,128,0,25423:0:0:0:0:
36,192,25326,128,0,25423:0:0:0:0:
402,192,25423,128,0,25521:0:0:0:0:
475,192,25423,128,0,25521:0:0:0:0:
109,192,25521,128,0,25813:0:0:0:0:
36,192,25521,128,0,26008:0:0:0:0:
182,192,25521,128,0,25618:0:0:0:0:
256,192,25521,128,0,25618:0:0:0:0:
329,192,25521,128,0,25618:0:0:0:0:
402,192,25618,128,0,25715:0:0:0:0:
475,192,25618,128,0,26105:0:0:0:0:
182,192,25715,128,0,25813:0:0:0:0:
256,192,25715,128,0,25813:0:0:0:0:
329,192,25813,128,0,25910:0:0:0:0:
402,192,25813,128,0,26105:0:0:0:0:
109,192,25910,128,0,26008:0:0:0:0:
182,192,25910,128,0,26008:0:0:0:0:
256,192,26008,128,0,26105:0:0:0:0:
329,192,26008,128,0,26105:0:0:0:0:
182,192,26105,128,0,26202:0:0:0:0:
109,192,26105,128,0,26202:0:0:0:0:
36,192,26105,128,0,26202:0:0:0:0:
329,192,26202,128,0,26300:0:0:0:0:
402,192,26202,128,0,26495:0:0:0:0:
475,192,26202,128,0,26689:0:0:0:0:
182,192,26300,128,0,26397:0:0:0:0:
109,192,26300,128,0,26397:0:0:0:0:
36,192,26300,128,0,26787:0:0:0:0:
256,192,26397,128,0,26495:0:0:0:0:
329,192,26397,128,0,26495:0:0:0:0:
109,192,26495,128,0,26787:0:0:0:0:
182,192,26495,128,0,26592:0:0:0:0:
329,192,26592,128,0,26689:0:0:0:0:
402,192,26592,128,0,26689:0:0:0:0:
182,192,26689,128,0,26787:0:0:0:0:
256,192,26689,128,0,26787:0:0:0:0:
402,192,26787,128,0,26884:0:0:0:0:
475,192,26787,128,0,26884:0:0:0:0:
329,192,26884,128,0,26982:0:0:0:0:
256,192,26884,128,0,26982:0:0:0:0:
182,192,26884,128,0,26982:0:0:0:0:
109,192,26884,128,0,26982:0:0:0:0:
36,192,26884,128,0,26982:0:0:0:0:
402,192,26982,128,0,27079:0:0:0:0:
475,192,26982,128,0,27079:0:0:0:0:
36,192,27079,128,0,27176:0:0:0:0:
109,192,27079,128,0,27176:0:0:0:0:
182,192,27079,128,0,27176:0:0:0:0:
256,192,27079,128,0,27176:0:0:0:0:
329,192,27079,128,0,27176:0:0:0:0:
256,192,27274,128,0,27761:0:0:0:0:
182,192,27274,128,0,27371:0:0:0:0:
36,192,27274,128,0,27371:0:0:0:0:
402,192,27274,128,0,27371:0:0:0:0:
475,192,27274,128,0,27371:0:0:0:0:
182,192,27663,128,0,27956:0:0:0:0:
109,192,27663,128,0,27761:0:0:0:0:
36,192,27663,128,0,27761:0:0:0:0:
329,192,27663,128,0,27761:0:0:0:0:
475,192,27663,128,0,27761:0:0:0:0:
402,192,27858,128,0,28150:0:0:0:0:
256,192,27858,128,0,27956:0:0:0:0:
475,192,27858,128,0,27956:0:0:0:0:
109,192,27858,128,0,27956:0:0:0:0:
36,192,27858,128,0,27956:0:0:0:0:
256,192,28053,128,0,28345:0:0:0:0:
182,192,28053,128,0,28150:0:0:0:0:
36,192,28053,128,0,28150:0:0:0:0:
329,192,28053,128,0,28150:0:0:0:0:
475,192,28053,128,0,28150:0:0:0:0:
36,192,28248,128,0,28540:0:0:0:0:
109,192,28248,128,0,28345:0:0:0:0:
182,192,28248,128,0,28345:0:0:0:0:
329,192,28248,128,0,28345:0:0:0:0:
402,192,28248,128,0,28345:0:0:0:0:
182,192,28443,128,0,28637:0:0:0:0:
109,192,28443,128,0,28540:0:0:0:0:
402,192,28443,128,0,28540:0:0:0:0:
475,192,28443,128,0,28540:0:0:0:0:
256,192,28443,128,0,28637:0:0:0:0:
475,192,28637,128,0,30780:0:0:0:0:
402,192,28637,128,0,29027:0:0:0:0:
36,192,28637,128,0,29027:0:0:0:0:
109,192,28637,128,0,28832:0:0:0:0:
329,192,28637,128,0,28832:0:0:0:0:
256,192,28832,128,0,29027:0:0:0:0:
182,192,28930,128,0,29027:0:0:0:0:
329,192,29027,128,0,29417:0:0:0:0:
109,192,29027,128,0,29417:0:0:0:0:
182,192,29222,128,0,29417:0:0:0:0:
256,192,29222,128,0,29417:0:0:0:0:
36,192,29417,128,0,29806:0:0:0:0:
402,192,29417,128,0,29806:0:0:0:0:
329,192,29611,128,0,29806:0:0:0:0:
182,192,29611,128,0,29709:0:0:0:0:
109,192,29611,128,0,29709:0:0:0:0:
256,192,29709,128,0,29806:0:0:0:0:
182,192,29806,128,0,30196:0:0:0:0:
109,192,29806,128,0,30196:0:0:0:0:
329,192,30001,128,0,30196:0:0:0:0:
402,192,30001,128,0,30196:0:0:0:0:
36,192,30196,128,0,30586:0:0:0:0:
256,192,30196,128,0,30586:0:0:0:0:
329,192,30391,128,0,30586:0:0:0:0:
109,192,30391,128,0,30488:0:0:0:0:
182,192,30391,128,0,30488:0:0:0:0:
402,192,30488,128,0,30586:0:0:0:0:
182,192,30586,128,0,30780:0:0:0:0:
109,192,30586,128,0,30780:0:0:0:0:
402,192,30780,128,0,31170:0:0:0:0:
36,192,30780,128,0,30975:0:0:0:0:
256,192,30780,128,0,31170:0:0:0:0:
109,192,30975,128,0,31170:0:0:0:0:
182,192,30975,128,0,31170:0:0:0:0:
329,192,31170,128,0,31560:0:0:0:0:
36,192,31170,128,0,31560:0:0:0:0:
475,192,31170,128,0,31365:0:0:0:0:
182,192,31365,128,0,31560:0:0:0:0:
109,192,31365,128,0,31560:0:0:0:0:
402,192,31462,128,0,31560:0:0:0:0:
475,192,31560,128,0,34092:0:0:0:0:
256,192,31560,128,0,31754:0:0:0:0:
36,192,31754,128,0,32047:0:0:0:0:
402,192,31754,128,0,31949:0:0:0:0:
329,192,31754,128,0,31949:0:0:0:0:
109,192,31949,128,0,32241:0:0:0:0:
256,192,31949,128,0,32144:0:0:0:0:
182,192,32144,128,0,32436:0:0:0:0:
36,192,32144,128,0,32241:0:0:0:0:
402,192,32339,128,0,32534:0:0:0:0:
109,192,32339,128,0,32436:0:0:0:0:
36,192,32534,128,0,32826:0:0:0:0:
182,192,32534,128,0,32631:0:0:0:0:
329,192,32728,128,0,32923:0:0:0:0:
109,192,32728,128,0,33021:0:0:0:0:
182,192,32923,128,0,33215:0:0:0:0:
36,192,32923,128,0,33021:0:0:0:0:
402,192,33118,128,0,33313:0:0:0:0:
256,192,33118,128,0,33313:0:0:0:0:
109,192,33118,128,0,33215:0:0:0:0:
109,192,33313,128,0,34092:0:0:0:0:
36,192,33313,128,0,34092:0:0:0:0:
329,192,33313,128,0,34092:0:0:0:0:
182,192,33313,128,0,33410:0:0:0:0:
182,192,33508,128,0,33702:0:0:0:0:
402,192,33508,128,0,33702:0:0:0:0:
256,192,33702,128,0,33897:0:0:0:0:
182,192,33897,128,0,34092:0:0:0:0:
402,192,33897,128,0,34092:0:0:0:0:
256,192,34092,128,0,34871:0:0:0:0:
109,192,34189,128,0,34287:0:0:0:0:
182,192,34189,128,0,34287:0:0:0:0:
402,192,34287,128,0,34384:0:0:0:0:
329,192,34287,128,0,34384:0:0:0:0:
182,192,34384,128,0,34482:0:0:0:0:
36,192,34482,128,0,34871:0:0:0:0:
475,192,34482,128,0,34579:0:0:0:0:
329,192,34579,128,0,34676:0:0:0:0:
109,192,34676,128,0,34871:0:0:0:0:
475,192,34676,128,0,34774:0:0:0:0:
182,192,34676,128,0,34871:0:0:0:0:
329,192,34774,128,0,34871:0:0:0:0:
402,192,34871,128,0,35163:0:0:0:0:
475,192,34871,1,0,0:0:0:0:
182,192,34969,128,0,35066:0:0:0:0:
329,192,35066,128,0,35358:0:0:0:0:
109,192,35066,128,0,35163:0:0:0:0:
36,192,35066,128,0,35163:0:0:0:0:
256,192,35163,128,0,35261:0:0:0:0:
182,192,35261,128,0,35553:0:0:0:0:
402,192,35261,128,0,35358:0:0:0:0:
475,192,35261,128,0,35358:0:0:0:0:
36,192,35358,128,0,35456:0:0:0:0:
109,192,35456,128,0,35748:0:0:0:0:
329,192,35456,128,0,35553:0:0:0:0:
402,192,35456,128,0,35553:0:0:0:0:
475,192,35553,128,0,35650:0:0:0:0:
329,192,35650,128,0,35943:0:0:0:0:
182,192,35650,128,0,35748:0:0:0:0:
256,192,35650,128,0,35748:0:0:0:0:
475,192,35748,128,0,35845:0:0:0:0:
402,192,35845,128,0,36137:0:0:0:0:
182,192,35845,128,0,35943:0:0:0:0:
109,192,35845,128,0,35943:0:0:0:0:
36,192,35943,128,0,36040:0:0:0:0:
109,192,36040,128,0,36332:0:0:0:0:
256,192,36040,128,0,36137:0:0:0:0:
329,192,36040,128,0,36137:0:0:0:0:
475,192,36137,128,0,36235:0:0:0:0:
182,192,36235,128,0,36527:0:0:0:0:
402,192,36235,128,0,36332:0:0:0:0:
329,192,36235,128,0,36332:0:0:0:0:
256,192,36332,128,0,36430:0:0:0:0:
329,192,36430,128,0,36722:0:0:0:0:
109,192,36430,128,0,36527:0:0:0:0:
36,192,36430,128,0,36527:0:0:0:0:
475,192,36527,128,0,36624:0:0:0:0:
402,192,36624,128,0,36917:0:0:0:0:
109,192,36624,128,0,36722:0:0:0:0:
182,192,36624,128,0,36722:0:0:0:0:
256,192,36722,128,0,36819:0:0:0:0:
182,192,36819,128,0,37111:0:0:0:0:
36,192,36819,128,0,36917:0:0:0:0:
329,192,36819,128,0,36917:0:0:0:0:
256,192,36917,128,0,37014:0:0:0:0:
109,192,37014,128,0,37306:0:0:0:0:
402,192,37014,128,0,37111:0:0:0:0:
475,192,37014,128,0,37111:0:0:0:0:
329,192,37111,128,0,37209:0:0:0:0:
36,192,37209,128,0,37891:0:0:0:0:
182,192,37209,128,0,37306:0:0:0:0:
475,192,37209,128,0,37306:0:0:0:0:
256,192,37306,128,0,37404:0:0:0:0:
109,192,37404,128,0,37501:0:0:0:0:
402,192,37404,128,0,37501:0:0:0:0:
182,192,37501,128,0,37891:0:0:0:0:
329,192,37501,128,0,37598:0:0:0:0:
256,192,37598,128,0,37696:0:0:0:0:
475,192,37598,128,0,37793:0:0:0:0:
402,192,37696,128,0,37793:0:0:0:0:
329,192,37793,128,0,37988:0:0:0:0:
256,192,37793,128,0,37891:0:0:0:0:
109,192,37793,128,0,37891:0:0:0:0:
402,192,37891,128,0,37988:0:0:0:0:
475,192,37988,128,0,38670:0:0:0:0:
182,192,37988,128,0,38086:0:0:0:0:
36,192,37988,128,0,38086:0:0:0:0:
329,192,38086,128,0,38280:0:0:0:0:
256,192,38086,1,0,0:0:0:0:
109,192,38183,128,0,38280:0:0:0:0:
36,192,38183,128,0,38280:0:0:0:0:
256,192,38280,128,0,38475:0:0:0:0:
182,192,38280,1,0,0:0:0:0:
402,192,38378,128,0,38670:0:0:0:0:
36,192,38378,128,0,38475:0:0:0:0:
182,192,38475,128,0,38670:0:0:0:0:
109,192,38475,1,0,0:0:0:0:
329,192,38573,128,0,38767:0:0:0:0:
256,192,38573,1,0,0:0:0:0:
109,192,38670,128,0,38767:0:0:0:0:
36,192,38670,128,0,38767:0:0:0:0:
256,192,38767,128,0,41105:0:0:0:0:
402,192,38767,1,0,0:0:0:0:
475,192,38767,128,0,38962:0:0:0:0:
109,192,38865,1,0,0:0:0:0:
182,192,38865,128,0,39060:0:0:0:0:
329,192,38962,1,0,0:0:0:0:
402,192,38962,128,0,39157:0:0:0:0:
36,192,39060,1,0,0:0:0:0:
109,192,39060,128,0,39254:0:0:0:0:
475,192,39157,1,0,0:0:0:0:
329,192,39157,128,0,39352:0:0:0:0:
182,192,39254,1,0,0:0:0:0:
36,192,39254,128,0,39449:0:0:0:0:
402,192,39352,1,0,0:0:0:0:
475,192,39352,128,0,39547:0:0:0:0:
182,192,39449,1,0,0:0:0:0:
109,192,39449,128,0,39644:0:0:0:0:
329,192,39547,1,0,0:0:0:0:
402,192,39547,128,0,39741:0:0:0:0:
36,192,39644,1,0,0:0:0:0:
182,192,39644,128,0,39839:0:0:0:0:
475,192,39741,1,0,0:0:0:0:
329,192,39741,128,0,39936:0:0:0:0:
109,192,39839,1,0,0:0:0:0:
36,192,39839,128,0,40034:0:0:0:0:
475,192,39936,1,0,0:0:0:0:
402,192,39936,128,0,40131:0:0:0:0:
109,192,40034,1,0,0:0:0:0:
182,192,40034,128,0,40228:0:0:0:0:
329,192,40131,1,0,0:0:0:0:
475,192,40131,128,0,40326:0:0:0:0:
109,192,40228,1,0,0:0:0:0:
36,192,40228,1,0,0:0:0:0:
182,192,40326,128,0,40618:0:0:0:0:
329,192,40326,128,0,40618:0:0:0:0:
402,192,40326,128,0,40423:0:0:0:0:
109,192,40423,128,0,40521:0:0:0:0:
36,192,40521,128,0,40618:0:0:0:0:
109,192,40618,128,0,40910:0:0:0:0:
402,192,40618,128,0,40910:0:0:0:0:
475,192,40618,128,0,40715:0:0:0:0:
329,192,40715,128,0,40813:0:0:0:0:
182,192,40813,128,0,40910:0:0:0:0:
36,192,40910,128,0,41105:0:0:0:0:
475,192,40910,128,0,41105:0:0:0:0:
329,192,40910,128,0,41008:0:0:0:0:
182,192,41008,128,0,41105:0:0:0:0:
109,192,41105,128,0,41202:0:0:0:0:
402,192,41105,128,0,41202:0:0:0:0:
329,192,41105,128,0,41202:0:0:0:0:
256,192,41202,128,0,41495:0:0:0:0:
402,192,41300,128,0,41495:0:0:0:0:
36,192,41300,128,0,41397:0:0:0:0:
109,192,41397,128,0,41787:0:0:0:0:
329,192,41495,128,0,41884:0:0:0:0:
182,192,41495,1,0,0:0:0:70:snare.wav
475,192,41495,1,0,0:0:0:0:
475,192,41689,128,0,42274:0:0:0:0:
256,192,41689,1,0,0:0:0:0:
402,192,41689,1,0,0:0:0:0:
36,192,41787,128,0,42079:0:0:0:0:
182,192,41884,128,0,42079:0:0:0:0:
256,192,41884,128,0,42079:0:0:0:0:
329,192,41982,128,0,42176:0:0:0:0:
109,192,42079,128,0,42469:0:0:0:0:
402,192,42079,128,0,42176:0:0:0:0:
256,192,42176,128,0,42371:0:0:0:0:
402,192,42274,128,0,42663:0:0:0:0:
36,192,42274,1,0,0:0:0:0:
182,192,42274,1,0,0:0:0:0:
256,192,42469,128,0,42761:0:0:0:0:
329,192,42469,1,0,0:0:0:0:
475,192,42469,1,0,0:0:0:0:
109,192,42566,128,0,42858:0:0:0:0:
329,192,42663,128,0,42956:0:0:0:0:
36,192,42663,128,0,42761:0:0:0:0:
182,192,42761,128,0,43150:0:0:0:0:
36,192,42858,128,0,43150:0:0:0:0:
402,192,42858,128,0,42956:0:0:0:0:
475,192,42956,128,0,43248:0:0:0:0:
256,192,43053,1,0,0:0:0:70:snare.wav
402,192,43053,1,0,0:0:0:0:
329,192,43053,128,0,43248:0:0:0:0:
402,192,43248,128,0,43443:0:0:0:0:
36,192,43248,1,0,0:0:0:0:
182,192,43248,1,0,0:0:0:0:
256,192,43345,128,0,43540:0:0:0:0:
109,192,43443,128,0,43637:0:0:0:0:
36,192,43443,1,0,0:0:0:0:
182,192,43443,1,0,0:0:0:0:
402,192,43540,128,0,43930:0:0:0:0:
475,192,43540,128,0,43637:0:0:0:0:
329,192,43637,128,0,43735:0:0:0:0:
256,192,43637,128,0,44027:0:0:0:0:
109,192,43735,128,0,43930:0:0:0:0:
182,192,43735,128,0,43832:0:0:0:0:
475,192,43832,128,0,44027:0:0:0:0:
36,192,43832,128,0,44027:0:0:0:0:
109,192,44027,128,0,44222:0:0:0:0:
402,192,44027,128,0,44222:0:0:0:0:
182,192,44027,128,0,44222:0:0:0:0:
329,192,44027,128,0,44222:0:0:0:0:
36,192,44222,128,0,44514:0:0:0:0:
256,192,44222,128,0,44319:0:0:0:0:
475,192,44222,128,0,44319:0:0:0:0:
182,192,44319,128,0,44514:0:0:0:0:
475,192,44417,128,0,44611:0:0:0:0:
402,192,44417,128,0,44514:0:0:0:0:
329,192,44514,128,0,44611:0:0:0:0:
182,192,44611,128,0,45001:0:0:0:0:
36,192,44611,128,0,44709:0:0:0:0:
256,192,44611,128,0,44709:0:0:0:0:
475,192,44709,1,0,0:0:0:0:
329,192,44806,128,0,45001:0:0:0:0:
402,192,44806,1,0,0:0:0:0:
109,192,44806,1,0,0:0:0:0:
36,192,44904,128,0,45196:0:0:0:0:
256,192,44904,1,0,0:0:0:0:
475,192,45001,128,0,45293:0:0:0:0:
109,192,45001,1,0,0:0:0:0:
329,192,45098,128,0,45293:0:0:0:0:
182,192,45196,128,0,45488:0:0:0:0:
256,192,45196,128,0,45293:0:0:0:0:
36,192,45293,128,0,45586:0:0:0:0:
402,192,45391,128,0,45780:0:0:0:0:
475,192,45391,1,0,0:0:0:0:
329,192,45391,1,0,0:0:0:0:
256,192,45488,1,0,0:0:0:0:
182,192,45586,128,0,45975:0:0:0:0:
109,192,45586,1,0,0:0:0:0:
475,192,45586,1,0,0:0:0:0:
36,192,45683,128,0,45878:0:0:0:0:
256,192,45683,1,0,0:0:0:0:
329,192,45780,128,0,46073:0:0:0:0:
109,192,45780,1,0,0:0:0:0:
475,192,45878,128,0,46073:0:0:0:0:
36,192,45975,128,0,46560:0:0:0:0:
256,192,45975,128,0,46073:0:0:0:0:
182,192,46073,128,0,46462:0:0:0:0:
329,192,46170,128,0,46365:0:0:0:0:
109,192,46170,1,0,0:0:0:0:
402,192,46170,1,0,0:0:0:0:
256,192,46267,1,0,0:0:0:0:
109,192,46365,1,0,0:0:0:0:
475,192,46365,128,0,46560:0:0:0:0:
256,192,46462,1,0,0:0:0:0:
329,192,46462,128,0,46560:0:0:0:0:
402,192,46560,1,0,0:0:0:0:
109,192,46560,128,0,46754:0:0:0:0:
182,192,46560,128,0,46657:0:0:0:0:
256,192,46657,128,0,46852:0:0:0:0:
329,192,46657,128,0,46754:0:0:0:0:
402,192,46754,128,0,46949:0:0:0:0:
475,192,46754,128,0,46852:0:0:0:0:
109,192,46852,128,0,47047:0:0:0:0:
36,192,46852,128,0,46949:0:0:0:0:
256,192,46949,128,0,47144:0:0:0:0:
182,192,46949,128,0,47047:0:0:0:0:
329,192,46949,128,0,47047:0:0:0:0:
402,192,47047,128,0,47241:0:0:0:0:
475,192,47047,128,0,47144:0:0:0:0:
109,192,47144,128,0,47339:0:0:0:0:
36,192,47144,128,0,47241:0:0:0:0:
256,192,47241,128,0,47339:0:0:0:0:
182,192,47241,128,0,47339:0:0:0:0:
475,192,47339,128,0,47728:0:0:0:0:
402,192,47339,128,0,47631:0:0:0:0:
329,192,47436,128,0,47534:0:0:0:0:
256,192,47534,128,0,47631:0:0:0:0:
329,192,47631,128,0,47728:0:0:0:0:
36,192,47728,128,0,48118:0:0:0:0:
109,192,47728,128,0,48021:0:0:0:0:
402,192,47728,128,0,48118:0:0:0:0:
182,192,47826,128,0,47923:0:0:0:0:
256,192,47923,128,0,48021:0:0:0:0:
182,192,48021,128,0,48118:0:0:0:0:
256,192,48118,128,0,48508:0:0:0:0:
109,192,48118,128,0,48215:0:0:0:0:
329,192,48118,128,0,48410:0:0:0:0:
36,192,48215,128,0,48313:0:0:0:0:
402,192,48215,128,0,48313:0:0:0:0:
475,192,48313,128,0,48410:0:0:0:0:
182,192,48313,128,0,48508:0:0:0:0:
402,192,48410,128,0,48508:0:0:0:0:
329,192,48508,128,0,48897:0:0:0:0:
36,192,48508,128,0,48897:0:0:0:0:
109,192,48508,128,0,48800:0:0:0:0:
182,192,48605,128,0,48702:0:0:0:0:
256,192,48702,128,0,48800:0:0:0:0:
402,192,48702,128,0,48897:0:0:0:0:
182,192,48800,128,0,48897:0:0:0:0:
475,192,48897,128,0,49482:0:0:0:0:
109,192,48897,128,0,48995:0:0:0:0:
402,192,48995,128,0,49384:0:0:0:0:
36,192,48995,128,0,49092:0:0:0:0:
329,192,49092,128,0,49287:0:0:0:0:
109,192,49092,128,0,49189:0:0:0:0:
182,192,49189,128,0,49287:0:0:0:0:
36,192,49287,128,0,49676:0:0:0:0:
256,192,49287,128,0,49384:0:0:0:0:
109,192,49384,128,0,49676:0:0:0:0:
329,192,49384,128,0,49482:0:0:0:0:
182,192,49482,128,0,49676:0:0:0:0:
402,192,49482,128,0,49579:0:0:0:0:
256,192,49579,128,0,49676:0:0:0:0:
475,192,49579,128,0,49676:0:0:0:0:
329,192,49676,128,0,50066:0:0:0:0:
402,192,49676,128,0,50066:0:0:0:0:
182,192,49774,128,0,49969:0:0:0:0:
109,192,49774,128,0,49871:0:0:0:0:
36,192,49871,128,0,49969:0:0:0:0:
109,192,49969,128,0,50066:0:0:0:0:
475,192,50066,128,0,50358:0:0:0:0:
182,192,50066,128,0,50163:0:0:0:0:
256,192,50066,128,0,50163:0:0:0:0:
36,192,50066,128,0,50358:0:0:0:0:
402,192,50261,128,0,50358:0:0:0:0:
109,192,50261,128,0,50358:0:0:0:0:
182,192,50261,128,0,50358:0:0:0:0:
36,192,50456,128,0,50748:0:0:0:0:
109,192,50456,128,0,50553:0:0:0:0:
329,192,50456,128,0,50553:0:0:0:0:
402,192,50456,128,0,50553:0:0:0:0:
475,192,50456,128,0,50553:0:0:0:0:
256,192,50553,128,0,50650:0:0:0:0:
182,192,50553,128,0,50650:0:0:0:0:
109,192,50650,128,0,50748:0:0:0:0:
402,192,50650,128,0,50748:0:0:0:0:
475,192,50650,128,0,50748:0:0:0:0:
256,192,50748,1,0,0:0:0:0:
329,192,50748,1,0,0:0:0:0:
475,192,50845,128,0,51137:0:0:0:0:
402,192,50845,128,0,50943:0:0:0:0:
182,192,50845,128,0,50943:0:0:0:0:
36,192,50845,128,0,50943:0:0:0:0:
256,192,50943,128,0,51040:0:0:0:0:
329,192,50943,128,0,51040:0:0:0:0:
402,192,51040,128,0,51137:0:0:0:0:
109,192,51040,128,0,51137:0:0:0:0:
36,192,51040,128,0,51137:0:0:0:0:
182,192,51137,1,0,0:0:0:0:
256,192,51137,1,0,0:0:0:0:
109,192,51235,128,0,51527:0:0:0:0:
36,192,51235,128,0,51332:0:0:0:0:
329,192,51235,128,0,51332:0:0:0:0:
475,192,51235,128,0,51332:0:0:0:0:
256,192,51332,128,0,51430:0:0:0:0:
182,192,51332,128,0,51430:0:0:0:0:
36,192,51430,128,0,51527:0:0:0:0:
402,192,51430,128,0,51527:0:0:0:0:
475,192,51430,128,0,51527:0:0:0:0:
182,192,51527,1,0,0:0:0:0:
329,192,51527,1,0,0:0:0:0:
402,192,51624,128,0,51917:0:0:0:0:
475,192,51624,128,0,51722:0:0:0:0:
109,192,51624,128,0,51722:0:0:0:0:
36,192,51624,128,0,51722:0:0:0:0:
256,192,51722,128,0,51819:0:0:0:0:
329,192,51722,128,0,51819:0:0:0:0:
182,192,51819,128,0,51917:0:0:0:0:
36,192,51819,128,0,51917:0:0:0:0:
475,192,51819,128,0,51917:0:0:0:0:
256,192,51917,1,0,0:0:0:0:
329,192,51917,1,0,0:0:0:0:
402,192,52014,1,0,0:0:0:0:
475,192,52014,128,0,52404:0:0:0:0:
109,192,52014,128,0,52111:0:0:0:0:
36,192,52014,128,0,52111:0:0:0:0:
402,192,52111,128,0,52404:0:0:0:0:
329,192,52111,1,0,0:0:0:0:
109,192,52209,1,0,0:0:0:0:
36,192,52209,128,0,52598:0:0:0:0:
182,192,52306,1,0,0:0:0:0:
109,192,52306,128,0,52598:0:0:0:0:
329,192,52404,1,0,0:0:0:0:
256,192,52404,128,0,52696:0:0:0:0:
402,192,52501,1,0,0:0:0:0:
329,192,52501,128,0,52793:0:0:0:0:
182,192,52598,1,0,0:0:0:0:
475,192,52598,128,0,52793:0:0:0:0:
109,192,52696,1,0,0:0:0:0:
182,192,52696,128,0,52793:0:0:0:0:
36,192,52793,128,0,52891:0:0:0:0:
402,192,52793,128,0,52891:0:0:0:0:
256,192,52793,128,0,52891:0:0:0:0:
109,192,52891,128,0,52988:0:0:0:0:
182,192,52891,128,0,52988:0:0:0:0:
329,192,52891,128,0,52988:0:0:0:0:
475,192,52988,128,0,53086:0:0:0:0:
402,192,52988,128,0,53086:0:0:0:0:
256,192,52988,128,0,53086:0:0:0:0:
36,192,53086,128,0,53183:0:0:0:0:
109,192,53086,128,0,53183:0:0:0:0:
182,192,53086,128,0,53183:0:0:0:0:
329,192,53183,128,0,53280:0:0:0:0:
402,192,53183,128,0,53280:0:0:0:0:
475,192,53183,128,0,53280:0:0:0:0:
256,192,53280,128,0,53378:0:0:0:0:
109,192,53280,128,0,53378:0:0:0:0:
36,192,53280,128,0,53378:0:0:0:0:
182,192,53378,128,0,53475:0:0:0:0:
402,192,53378,128,0,53475:0:0:0:0:
329,192,53378,128,0,53475:0:0:0:0:
109,192,53475,128,0,53573:0:0:0:0:
256,192,53475,128,0,53573:0:0:0:0:
36,192,53475,128,0,53573:0:0:0:0:
475,192,53573,128,0,53962:0:0:0:0:
402,192,53573,128,0,53962:0:0:0:0:
182,192,53573,1,0,0:0:0:0:
329,192,53573,1,0,0:0:0:0:
36,192,53962,128,0,54352:0:0:0:0:
329,192,53962,1,0,0:0:0:0:
182,192,53962,1,0,0:0:0:0:
475,192,54157,1,0,0:0:0:0:
329,192,54157,1,0,0:0:0:0:
109,192,54157,1,0,0:0:0:0:
256,192,54157,1,0,0:0:0:0:
109,192,54352,128,0,54547:0:0:0:0:
475,192,54449,128,0,54547:0:0:0:0:
402,192,54498,128,0,54595:0:0:0:0:
36,192,54547,128,0,54839:0:0:0:0:
329,192,54547,128,0,54644:0:0:0:0:
256,192,54595,128,0,54693:0:0:0:0:
182,192,54644,128,0,54741:0:0:0:0:
109,192,54693,128,0,54790:0:0:0:0:
475,192,54741,128,0,54839:0:0:0:0:
402,192,54741,128,0,54839:0:0:0:0:
329,192,54741,128,0,54839:0:0:0:0:
36,192,55131,128,0,55910:0:0:0:0:
329,192,55131,128,0,55228:0:0:0:0:
402,192,55131,128,0,55326:0:0:0:0:
475,192,55131,128,0,55521:0:0:0:0:
256,192,55196,128,0,55293:0:0:0:0:
182,192,55261,128,0,55358:0:0:0:0:
109,192,55326,128,0,55423:0:0:0:0:
329,192,55391,128,0,55488:0:0:0:0:
256,192,55456,128,0,55553:0:0:0:0:
402,192,55521,128,0,55910:0:0:0:0:
182,192,55521,128,0,55618:0:0:0:0:
109,192,55521,128,0,55618:0:0:0:0:
329,192,55586,128,0,55683:0:0:0:0:
256,192,55650,128,0,55748:0:0:0:0:
475,192,55715,128,0,56689:0:0:0:0:
109,192,55715,128,0,55813:0:0:0:0:
182,192,55780,128,0,55878:0:0:0:0:
329,192,55845,128,0,55943:0:0:0:0:
256,192,55910,128,0,56008:0:0:0:0:
109,192,55910,128,0,56105:0:0:0:0:
182,192,55975,128,0,56073:0:0:0:0:
402,192,56040,128,0,56137:0:0:0:0:
256,192,56105,128,0,56689:0:0:0:0:
329,192,56105,128,0,56202:0:0:0:0:
36,192,56170,128,0,56267:0:0:0:0:
109,192,56235,128,0,56332:0:0:0:0:
182,192,56300,128,0,56397:0:0:0:0:
402,192,56300,128,0,56397:0:0:0:0:
329,192,56365,128,0,56462:0:0:0:0:
109,192,56430,128,0,56527:0:0:0:0:
36,192,56495,128,0,57274:0:0:0:0:
182,192,56495,128,0,56592:0:0:0:0:
402,192,56560,128,0,56657:0:0:0:0:
329,192,56624,128,0,56722:0:0:0:0:
109,192,56689,128,0,56787:0:0:0:0:
182,192,56689,128,0,56787:0:0:0:0:
256,192,56754,128,0,56852:0:0:0:0:
402,192,56819,128,0,56917:0:0:0:0:
109,192,56884,128,0,57274:0:0:0:0:
475,192,56884,128,0,56982:0:0:0:0:
329,192,56949,128,0,57047:0:0:0:0:
402,192,57014,128,0,57111:0:0:0:0:
256,192,57079,128,0,57176:0:0:0:0:
182,192,57079,128,0,57176:0:0:0:0:
329,192,57144,128,0,57241:0:0:0:0:
402,192,57209,128,0,57306:0:0:0:0:
475,192,57274,128,0,58248:0:0:0:0:
182,192,57274,128,0,57371:0:0:0:0:
256,192,57339,128,0,57436:0:0:0:0:
329,192,57404,128,0,57501:0:0:0:0:
109,192,57469,128,0,57566:0:0:0:0:
36,192,57469,128,0,57566:0:0:0:0:
182,192,57534,128,0,57631:0:0:0:0:
402,192,57598,128,0,57696:0:0:0:0:
36,192,57663,128,0,58248:0:0:0:0:
329,192,57663,128,0,57761:0:0:0:0:
256,192,57728,128,0,57826:0:0:0:0:
109,192,57793,128,0,57891:0:0:0:0:
182,192,57858,128,0,57956:0:0:0:0:
402,192,57858,128,0,57956:0:0:0:0:
256,192,57923,128,0,58021:0:0:0:0:
329,192,57988,128,0,58086:0:0:0:0:
402,192,58053,128,0,58150:0:0:0:0:
109,192,58118,128,0,58215:0:0:0:0:
182,192,58183,128,0,58280:0:0:0:0:
256,192,58248,128,0,59806:0:0:0:0:
402,192,58248,128,0,58345:0:0:0:0:
329,192,58248,128,0,58443:0:0:0:0:
109,192,58313,128,0,58410:0:0:0:0:
36,192,58378,128,0,58475:0:0:0:0:
182,192,58443,128,0,58540:0:0:0:0:
109,192,58508,128,0,58605:0:0:0:0:
475,192,58573,128,0,58670:0:0:0:0:
36,192,58637,128,0,58832:0:0:0:0:
402,192,58637,128,0,58735:0:0:0:0:
182,192,58637,128,0,58735:0:0:0:0:
329,192,58702,128,0,58800:0:0:0:0:
109,192,58767,128,0,58865:0:0:0:0:
475,192,58832,128,0,59027:0:0:0:0:
182,192,58832,128,0,58930:0:0:0:0:
402,192,58897,128,0,58995:0:0:0:0:
329,192,58962,128,0,59060:0:0:0:0:
182,192,59027,128,0,59124:0:0:0:0:
109,192,59027,128,0,59124:0:0:0:0:
36,192,59092,128,0,59189:0:0:0:0:
402,192,59157,128,0,59254:0:0:0:0:
329,192,59222,128,0,59806:0:0:0:0:
182,192,59222,128,0,59319:0:0:0:0:
475,192,59287,128,0,59384:0:0:0:0:
36,192,59352,128,0,59449:0:0:0:0:
109,192,59417,128,0,59514:0:0:0:0:
402,192,59417,128,0,59514:0:0:0:0:
182,192,59482,128,0,59579:0:0:0:0:
475,192,59547,128,0,59644:0:0:0:0:
36,192,59611,128,0,60001:0:0:0:0:
402,192,59611,128,0,59709:0:0:0:0:
109,192,59676,128,0,59774:0:0:0:0:
182,192,59741,128,0,59839:0:0:0:0:
402,192,59806,128,0,59904:0:0:0:0:
475,192,59806,128,0,59904:0:0:0:0:
109,192,59871,128,0,59969:0:0:0:0:
256,192,59936,128,0,60034:0:0:0:0:
182,192,60001,128,0,60391:0:0:0:0:
329,192,60001,128,0,60098:0:0:0:0:
475,192,60066,128,0,60163:0:0:0:0:
402,192,60131,128,0,60228:0:0:0:0:
329,192,60196,128,0,60293:0:0:0:0:
256,192,60196,128,0,60293:0:0:0:0:
36,192,60261,128,0,60358:0:0:0:0:
109,192,60326,128,0,60423:0:0:0:0:
329,192,60391,128,0,60780:0:0:0:0:
475,192,60391,128,0,60488:0:0:0:0:
256,192,60456,128,0,60553:0:0:0:0:
36,192,60521,128,0,60618:0:0:0:0:
109,192,60586,128,0,60683:0:0:0:0:
402,192,60586,128,0,60683:0:0:0:0:
182,192,60650,128,0,60748:0:0:0:0:
256,192,60715,128,0,60813:0:0:0:0:
402,192,60780,128,0,61170:0:0:0:0:
475,192,60780,128,0,60878:0:0:0:0:
109,192,60845,128,0,60943:0:0:0:0:
256,192,60910,128,0,61008:0:0:0:0:
475,192,60975,128,0,61073:0:0:0:0:
36,192,60975,128,0,61073:0:0:0:0:
182,192,61040,128,0,61137:0:0:0:0:
329,192,61105,128,0,61202:0:0:0:0:
475,192,61170,128,0,61365:0:0:0:0:
109,192,61170,128,0,61267:0:0:0:0:
182,192,61235,128,0,61332:0:0:0:0:
256,192,61300,128,0,61397:0:0:0:0:
36,192,61365,128,0,62923:0:0:0:0:
329,192,61365,128,0,61560:0:0:0:0:
402,192,61365,128,0,61462:0:0:0:0:
109,192,61430,128,0,61527:0:0:0:0:
475,192,61495,128,0,61592:0:0:0:0:
256,192,61560,128,0,61657:0:0:0:0:
182,192,61624,128,0,61722:0:0:0:0:
109,192,61689,128,0,61787:0:0:0:0:
329,192,61754,128,0,61949:0:0:0:0:
402,192,61754,128,0,61852:0:0:0:0:
475,192,61754,128,0,61852:0:0:0:0:
256,192,61819,128,0,61917:0:0:0:0:
109,192,61884,128,0,61982:0:0:0:0:
475,192,61949,128,0,62339:0:0:0:0:
182,192,61949,128,0,62047:0:0:0:0:
402,192,62014,128,0,62111:0:0:0:0:
256,192,62079,128,0,62176:0:0:0:0:
109,192,62144,128,0,62241:0:0:0:0:
329,192,62209,128,0,62306:0:0:0:0:
182,192,62274,128,0,62371:0:0:0:0:
402,192,62339,128,0,62728:0:0:0:0:
256,192,62339,128,0,62436:0:0:0:0:
109,192,62404,128,0,62501:0:0:0:0:
182,192,62469,128,0,62566:0:0:0:0:
329,192,62534,128,0,62631:0:0:0:0:
475,192,62598,128,0,62696:0:0:0:0:
109,192,62663,128,0,62761:0:0:0:0:
256,192,62728,128,0,64482:0:0:0:0:
182,192,62728,128,0,62826:0:0:0:0:
329,192,62793,128,0,62891:0:0:0:0:
475,192,62858,128,0,62956:0:0:0:0:
402,192,62923,128,0,63021:0:0:0:0:
182,192,62923,128,0,63021:0:0:0:0:
109,192,62988,128,0,63086:0:0:0:0:
329,192,63053,128,0,63150:0:0:0:0:
182,192,63118,128,0,63508:0:0:0:0:
475,192,63118,128,0,63215:0:0:0:0:
36,192,63183,128,0,63280:0:0:0:0:
402,192,63248,128,0,63345:0:0:0:0:
329,192,63313,128,0,63410:0:0:0:0:
109,192,63313,128,0,63410:0:0:0:0:
475,192,63378,128,0,63475:0:0:0:0:
36,192,63443,128,0,63540:0:0:0:0:
329,192,63508,128,0,63897:0:0:0:0:
109,192,63508,128,0,63605:0:0:0:0:
402,192,63573,128,0,63670:0:0:0:0:
182,192,63637,128,0,63735:0:0:0:0:
109,192,63702,128,0,63800:0:0:0:0:
36,192,63702,128,0,63800:0:0:0:0:
475,192,63767,128,0,63865:0:0:0:0:
182,192,63832,128,0,63930:0:0:0:0:
36,192,63897,128,0,64092:0:0:0:0:
402,192,63897,128,0,63995:0:0:0:0:
475,192,63962,128,0,64060:0:0:0:0:
109,192,64027,128,0,64124:0:0:0:0:
182,192,64092,128,0,64287:0:0:0:0:
402,192,64092,128,0,64189:0:0:0:0:
329,192,64157,128,0,64254:0:0:0:0:
109,192,64222,128,0,64319:0:0:0:0:
475,192,64287,128,0,64482:0:0:0:0:
36,192,64287,128,0,64384:0:0:0:0:
329,192,64352,128,0,64449:0:0:0:0:
109,192,64417,128,0,64514:0:0:0:0:
402,192,64482,128,0,65261:0:0:0:0:
182,192,64482,128,0,64676:0:0:0:0:
329,192,64579,128,0,64676:0:0:0:0:
256,192,64579,128,0,64676:0:0:0:0:
109,192,64676,128,0,64871:0:0:0:0:
182,192,64774,128,0,64871:0:0:0:0:
256,192,64774,128,0,64871:0:0:0:0:
36,192,64871,128,0,65066:0:0:0:0:
109,192,64969,128,0,65066:0:0:0:0:
182,192,64969,128,0,65066:0:0:0:0:
329,192,65066,128,0,65163:0:0:0:0:
475,192,65066,128,0,65163:0:0:0:0:
182,192,65163,128,0,65261:0:0:0:0:
36,192,65163,128,0,65261:0:0:0:0:
329,192,65261,128,0,65845:0:0:0:0:
256,192,65261,128,0,65358:0:0:0:0:
475,192,65261,128,0,65456:0:0:0:0:
109,192,65358,128,0,65456:0:0:0:0:
182,192,65358,128,0,65456:0:0:0:0:
402,192,65456,128,0,65650:0:0:0:0:
256,192,65456,128,0,65553:0:0:0:0:
109,192,65553,128,0,65650:0:0:0:0:
36,192,65553,128,0,65650:0:0:0:0:
182,192,65650,128,0,65845:0:0:0:0:
475,192,65650,128,0,65748:0:0:0:0:
402,192,65748,128,0,65845:0:0:0:0:
109,192,65748,128,0,65845:0:0:0:0:
256,192,65845,128,0,66235:0:0:0:0:
36,192,65845,128,0,66235:0:0:0:0:
475,192,65845,128,0,65943:0:0:0:0:
182,192,65943,128,0,66040:0:0:0:0:
329,192,65943,128,0,66040:0:0:0:0:
475,192,66040,128,0,66235:0:0:0:0:
402,192,66040,128,0,66235:0:0:0:0:
109,192,66040,128,0,66235:0:0:0:0:
182,192,66235,128,0,66624:0:0:0:0:
402,192,66332,128,0,66527:0:0:0:0:
475,192,66332,128,0,66527:0:0:0:0:
329,192,66332,128,0,66527:0:0:0:0:
109,192,66624,128,0,66819:0:0:0:0:
402,192,66624,128,0,66722:0:0:0:0:
475,192,66624,128,0,66722:0:0:0:0:
329,192,66624,128,0,66722:0:0:0:0:
36,192,66819,128,0,67598:0:0:0:0:
475,192,66819,128,0,67306:0:0:0:0:
329,192,66819,128,0,67111:0:0:0:0:
182,192,66819,128,0,66917:0:0:0:0:
182,192,67014,128,0,67598:0:0:0:0:
329,192,67209,128,0,67598:0:0:0:0:
109,192,67209,128,0,67501:0:0:0:0:
475,192,67404,128,0,67598:0:0:0:0:
256,192,67404,128,0,67501:0:0:0:0:
109,192,67598,1,0,0:0:0:0:
256,192,67598,1,0,0:0:0:0:
402,192,67598,1,0,0:0:0:0:
182,192,67696,1,0,0:0:0:0:
329,192,67793,1,0,0:0:0:0:
182,192,67891,1,0,0:0:0:0:
109,192,67988,1,0,0:0:0:0:
402,192,67988,1,0,0:0:0:70:snare.wav
329,192,68086,1,0,0:0:0:0:
182,192,68183,1,0,0:0:0:0:
329,192,68280,1,0,0:0:0:0:
402,192,68280,1,0,0:0:0:0:
256,192,68378,1,0,0:0:0:0:
109,192,68475,1,0,0:0:0:0:
182,192,68475,1,0,0:0:0:0:
329,192,68573,1,0,0:0:0:50:normal-hitnormal.wav
402,192,68573,1,0,0:0:0:0:
182,192,68670,1,0,0:0:0:0:
256,192,68767,128,0,69157:0:0:0:50:snare.wav
36,192,68767,128,0,69157:0:0:0:0:
475,192,68767,128,0,69157:0:0:0:0:
402,192,69157,128,0,69352:0:0:0:0:
329,192,69157,1,0,0:0:0:0:
182,192,69157,128,0,69254:0:0:0:0:
109,192,69254,128,0,69449:0:0:0:0:
475,192,69352,1,0,0:0:0:0:
256,192,69352,128,0,69449:0:0:0:0:
402,192,69449,128,0,69644:0:0:0:0:
36,192,69547,1,0,0:0:0:50:drum-hitnormal3.wav
109,192,69547,128,0,69936:0:0:0:0:
329,192,69547,128,0,69644:0:0:0:0:
475,192,69741,1,0,0:0:0:90:normal-hitclap.wav
402,192,69741,128,0,70131:0:0:0:0:
256,192,69741,128,0,69839:0:0:0:0:
329,192,69839,128,0,70228:0:0:0:0:
182,192,69936,128,0,70326:0:0:0:0:
36,192,69936,1,0,0:0:0:0:
475,192,69936,128,0,70034:0:0:0:0:
109,192,70034,128,0,70228:0:0:0:0:
256,192,70131,1,0,0:0:0:90:normal-hitclap.wav
36,192,70131,128,0,70228:0:0:0:0:
402,192,70228,128,0,70423:0:0:0:0:
475,192,70326,1,0,0:0:0:50:drum-hitnormal3.wav
109,192,70326,128,0,70521:0:0:0:0:
329,192,70326,128,0,70423:0:0:0:0:
402,192,70521,128,0,70715:0:0:0:0:
329,192,70521,1,0,0:0:0:0:
256,192,70521,128,0,70618:0:0:0:0:
109,192,70618,128,0,70910:0:0:0:0:
475,192,70715,1,0,0:0:0:80:soft-hitfinish.wav
64,192,70715,1,0,0:0:0:0:
256,192,70715,128,0,71105:0:0:0:0:
182,192,70715,128,0,70813:0:0:0:0:
402,192,70813,128,0,71008:0:0:0:0:
182,192,70910,1,0,0:0:0:0:
329,192,70910,128,0,71008:0:0:0:0:
109,192,71008,128,0,71300:0:0:0:0:
402,192,71105,128,0,71300:0:0:0:0:
329,192,71105,1,0,0:0:0:0:
475,192,71105,128,0,71202:0:0:0:0:
182,192,71300,128,0,71689:0:0:0:0:
36,192,71300,1,0,0:0:0:0:
256,192,71300,128,0,71397:0:0:0:0:
329,192,71397,128,0,71787:0:0:0:0:
109,192,71495,128,0,71689:0:0:0:0:
475,192,71495,128,0,71592:0:0:0:0:
256,192,71592,1,0,0:0:0:70:normal-hitnormal.wav
402,192,71592,128,0,71787:0:0:0:0:
36,192,71689,128,0,71787:0:0:0:0:
109,192,71787,128,0,72079:0:0:0:0:
64,192,71884,1,0,0:0:0:0:
402,192,71884,128,0,72176:0:0:0:0:
475,192,71884,1,0,0:0:0:0:
256,192,71884,128,0,71982:0:0:0:0:
182,192,72079,128,0,72274:0:0:0:0:
475,192,72079,1,0,0:0:0:0:
36,192,72079,1,0,0:0:0:0:
256,192,72079,128,0,72176:0:0:0:0:
329,192,72176,128,0,72274:0:0:0:0:
36,192,72274,128,0,72761:0:0:0:0:
109,192,72274,128,0,72371:0:0:0:0:
402,192,72274,1,0,0:0:0:0:
475,192,72371,128,0,72858:0:0:0:0:
402,192,72469,1,0,0:0:0:0:
256,192,72469,128,0,72566:0:0:0:0:
109,192,72566,128,0,72761:0:0:0:0:
182,192,72663,1,0,0:0:0:0:
402,192,72663,128,0,72858:0:0:0:0:
329,192,72663,128,0,72761:0:0:0:0:
64,192,72858,1,0,0:0:0:90:normal-hitclap.wav
109,192,72858,128,0,73053:0:0:0:0:
182,192,72858,128,0,72956:0:0:0:0:
256,192,72956,128,0,73150:0:0:0:0:
402,192,73053,128,0,73248:0:0:0:0:
329,192,73053,1,0,0:0:0:0:
475,192,73053,128,0,73150:0:0:0:0:
182,192,73150,128,0,73345:0:0:0:0:
36,192,73248,1,0,0:0:0:0:
256,192,73248,128,0,73345:0:0:0:0:
402,192,73345,128,0,73637:0:0:0:0:
448,192,73443,1,0,0:0:0:50:drum-hitnormal3.wav
182,192,73443,128,0,73735:0:0:0:0:
109,192,73443,128,0,73540:0:0:0:0:
329,192,73637,128,0,73832:0:0:0:0:
256,192,73637,128,0,73735:0:0:0:0:
109,192,73735,128,0,73930:0:0:0:0:
475,192,73832,1,0,0:0:0:100:ces.wav
256,192,73832,1,0,0:0:0:100:ces.wav
402,192,73832,128,0,74027:0:0:0:0:
36,192,73832,1,0,0:0:0:0:
182,192,73930,128,0,74124:0:0:0:0:
329,192,73930,1,0,0:0:0:0:
36,192,74027,1,0,0:0:0:70:normal-hitnormal.wav
475,192,74027,1,0,0:0:0:0:
402,192,74124,128,0,74417:0:0:0:0:
109,192,74124,1,0,0:0:0:0:
182,192,74222,128,0,74514:0:0:0:0:
329,192,74222,1,0,0:0:0:0:
36,192,74222,1,0,0:0:0:50:drum-hitnormal3.wav
256,192,74319,1,0,0:0:0:0:
109,192,74417,1,0,0:0:0:90:normal-hitclap.wav
475,192,74417,128,0,74709:0:0:0:0:
329,192,74514,128,0,74709:0:0:0:0:
36,192,74514,1,0,0:0:0:0:
182,192,74611,128,0,75001:0:0:0:0:
402,192,74611,1,0,0:0:0:70:normal-hitnormal.wav
109,192,74611,1,0,0:0:0:0:
36,192,74709,128,0,74904:0:0:0:0:
256,192,74709,1,0,0:0:0:0:
109,192,74806,1,0,0:0:0:0:
402,192,74904,128,0,75293:0:0:0:0:
329,192,74904,1,0,0:0:0:0:
64,192,75001,1,0,0:0:0:70:normal-hitnormal.wav
475,192,75001,1,0,0:0:0:50:drum-hitnormal3.wav
109,192,75001,128,0,75293:0:0:0:0:
256,192,75098,1,0,0:0:0:0:
36,192,75196,1,0,0:0:0:90:soft-hitnormal.wav
329,192,75196,128,0,75293:0:0:0:0:
182,192,75293,1,0,0:0:0:0:
475,192,75391,128,0,75683:0:0:0:0:
402,192,75391,128,0,75683:0:0:0:0:
36,192,75391,128,0,75488:0:0:0:0:
256,192,75391,128,0,75488:0:0:0:0:
109,192,75391,128,0,75488:0:0:0:0:
182,192,75488,128,0,75586:0:0:0:0:
329,192,75488,128,0,75586:0:0:0:0:
109,192,75586,128,0,75683:0:0:0:0:
36,192,75586,128,0,75683:0:0:0:0:
182,192,75683,128,0,75975:0:0:0:0:
256,192,75683,128,0,75975:0:0:0:0:
329,192,75780,128,0,75878:0:0:0:0:
402,192,75780,128,0,75878:0:0:0:0:
109,192,75878,128,0,75975:0:0:0:0:
36,192,75878,128,0,75975:0:0:0:0:
329,192,75975,128,0,76073:0:0:0:0:
402,192,75975,128,0,76073:0:0:0:0:
475,192,75975,128,0,76073:0:0:0:0:
182,192,76073,128,0,76170:0:0:0:0:
109,192,76073,128,0,76170:0:0:0:0:
36,192,76073,128,0,76170:0:0:0:0:
329,192,76170,128,0,76462:0:0:0:0:
256,192,76170,128,0,76462:0:0:0:0:
402,192,76267,128,0,76365:0:0:0:0:
475,192,76267,128,0,76365:0:0:0:0:
109,192,76365,128,0,76462:0:0:0:0:
182,192,76365,128,0,76462:0:0:0:0:
402,192,76462,128,0,76754:0:0:0:0:
36,192,76462,128,0,76754:0:0:0:0:
182,192,76560,128,0,76657:0:0:0:0:
256,192,76560,128,0,76657:0:0:0:0:
329,192,76657,128,0,76754:0:0:0:0:
475,192,76657,128,0,76754:0:0:0:0:
109,192,76754,128,0,76852:0:0:0:0:
182,192,76754,128,0,76852:0:0:0:0:
256,192,76754,128,0,76852:0:0:0:0:
402,192,76852,128,0,76949:0:0:0:0:
329,192,76852,128,0,76949:0:0:0:0:
475,192,76852,128,0,76949:0:0:0:0:
36,192,76949,128,0,77241:0:0:0:0:
182,192,76949,128,0,77241:0:0:0:0:
256,192,77047,128,0,77144:0:0:0:0:
329,192,77047,128,0,77144:0:0:0:0:
402,192,77144,128,0,77241:0:0:0:0:
475,192,77144,128,0,77241:0:0:0:0:
329,192,77241,128,0,77534:0:0:0:0:
109,192,77241,128,0,77534:0:0:0:0:
182,192,77339,128,0,77436:0:0:0:0:
256,192,77339,128,0,77436:0:0:0:0:
402,192,77436,128,0,77534:0:0:0:0:
475,192,77436,128,0,77534:0:0:0:0:
182,192,77534,128,0,77631:0:0:0:0:
36,192,77534,128,0,77631:0:0:0:0:
256,192,77534,128,0,77631:0:0:0:0:
329,192,77631,128,0,77728:0:0:0:0:
402,192,77631,128,0,77728:0:0:0:0:
475,192,77631,128,0,77728:0:0:0:0:
36,192,77728,128,0,78021:0:0:0:0:
109,192,77728,128,0,78021:0:0:0:0:
182,192,77826,128,0,77923:0:0:0:0:
256,192,77826,128,0,77923:0:0:0:0:
402,192,77923,128,0,78021:0:0:0:0:
475,192,77923,128,0,78021:0:0:0:0:
329,192,78021,128,0,78313:0:0:0:0:
256,192,78021,128,0,78313:0:0:0:0:
182,192,78118,128,0,78215:0:0:0:0:
109,192,78118,128,0,78215:0:0:0:0:
402,192,78215,128,0,78313:0:0:0:0:
475,192,78215,128,0,78313:0:0:0:0:
36,192,78313,128,0,78410:0:0:0:0:
109,192,78313,128,0,78410:0:0:0:0:
182,192,78313,128,0,78410:0:0:0:0:
402,192,78410,128,0,78800:0:0:0:0:
329,192,78410,128,0,78605:0:0:0:0:
475,192,78410,128,0,78995:0:0:0:0:
182,192,78508,128,0,78605:0:0:0:0:
256,192,78508,128,0,78605:0:0:0:0:
109,192,78605,128,0,78702:0:0:0:0:
36,192,78605,128,0,79189:0:0:0:0:
256,192,78702,128,0,78800:0:0:0:0:
329,192,78702,128,0,78800:0:0:0:0:
182,192,78800,128,0,78897:0:0:0:0:
109,192,78800,128,0,79189:0:0:0:0:
329,192,78897,128,0,78995:0:0:0:0:
402,192,78897,128,0,78995:0:0:0:0:
256,192,78995,128,0,79092:0:0:0:0:
182,192,78995,128,0,79189:0:0:0:0:
402,192,79092,128,0,79189:0:0:0:0:
475,192,79092,128,0,79189:0:0:0:0:
329,192,79189,128,0,79287:0:0:0:0:
256,192,79189,128,0,79287:0:0:0:0:
109,192,79287,128,0,79384:0:0:0:0:
182,192,79287,128,0,79384:0:0:0:0:
36,192,79287,128,0,79384:0:0:0:0:
475,192,79287,128,0,80066:0:0:0:0:
329,192,79384,128,0,79579:0:0:0:0:
402,192,79384,128,0,79774:0:0:0:0:
256,192,79482,128,0,79579:0:0:0:0:
182,192,79482,128,0,79579:0:0:0:0:
109,192,79579,128,0,79676:0:0:0:0:
36,192,79579,128,0,79871:0:0:0:0:
256,192,79676,128,0,79774:0:0:0:0:
329,192,79676,128,0,79774:0:0:0:0:
182,192,79774,128,0,79871:0:0:0:0:
109,192,79774,128,0,79871:0:0:0:0:
329,192,79871,128,0,79969:0:0:0:0:
402,192,79871,128,0,79969:0:0:0:0:
182,192,79969,128,0,80066:0:0:0:0:
36,192,79969,128,0,80066:0:0:0:0:
109,192,79969,128,0,80066:0:0:0:0:
402,192,80066,128,0,80358:0:0:0:0:
256,192,80066,128,0,80163:0:0:0:0:
182,192,80163,128,0,80261:0:0:0:0:
109,192,80261,128,0,80553:0:0:0:0:
329,192,80261,128,0,80358:0:0:0:0:
36,192,80261,128,0,80553:0:0:0:0:
182,192,80358,128,0,80456:0:0:0:0:
402,192,80456,128,0,80748:0:0:0:0:
256,192,80456,128,0,80553:0:0:0:0:
475,192,80456,128,0,80748:0:0:0:0:
329,192,80553,128,0,80650:0:0:0:0:
109,192,80650,128,0,80943:0:0:0:0:
182,192,80650,128,0,80748:0:0:0:0:
36,192,80650,128,0,80943:0:0:0:0:
329,192,80748,128,0,80845:0:0:0:0:
402,192,80845,128,0,81137:0:0:0:0:
256,192,80845,128,0,80943:0:0:0:0:
475,192,80845,128,0,81137:0:0:0:0:
182,192,80943,128,0,81040:0:0:0:0:
109,192,81040,128,0,81332:0:0:0:0:
329,192,81040,128,0,81137:0:0:0:0:
36,192,81040,128,0,81332:0:0:0:0:
182,192,81137,128,0,81235:0:0:0:0:
402,192,81235,128,0,81624:0:0:0:0:
256,192,81235,128,0,81332:0:0:0:0:
475,192,81235,128,0,81624:0:0:0:0:
329,192,81332,128,0,81430:0:0:0:0:
182,192,81430,128,0,81527:0:0:0:0:
109,192,81430,128,0,81624:0:0:0:0:
36,192,81430,128,0,81624:0:0:0:0:
329,192,81527,128,0,81624:0:0:0:0:
256,192,81624,128,0,82014:0:0:0:0:
182,192,81819,128,0,81917:0:0:0:0:
329,192,81819,128,0,81917:0:0:0:0:
475,192,82014,1,0,0:0:0:0:
402,192,82014,1,0,0:0:0:0:
36,192,82014,128,0,82404:0:0:0:0:
109,192,82014,1,0,0:0:0:0:
475,192,82209,128,0,82988:0:0:0:0:
329,192,82209,128,0,82306:0:0:0:0:
256,192,82209,128,0,82501:0:0:0:0:
182,192,82209,128,0,82306:0:0:0:0:
402,192,82209,128,0,82306:0:0:0:0:
182,192,82404,128,0,82501:0:0:0:0:
329,192,82404,128,0,82501:0:0:0:0:
402,192,82404,128,0,82501:0:0:0:0:
329,192,82598,128,0,82988:0:0:0:0:
109,192,82598,128,0,82891:0:0:0:0:
36,192,82598,128,0,82696:0:0:0:0:
182,192,82598,128,0,82696:0:0:0:0:
256,192,82598,128,0,82696:0:0:0:0:
182,192,82793,128,0,82891:0:0:0:0:
36,192,82793,128,0,82891:0:0:0:0:
256,192,82793,128,0,82891:0:0:0:0:
36,192,82988,128,0,83670:0:0:0:0:
182,192,82988,128,0,83280:0:0:0:0:
256,192,82988,128,0,83086:0:0:0:0:
109,192,82988,128,0,83086:0:0:0:0:
402,192,82988,128,0,83086:0:0:0:0:
109,192,83183,128,0,83280:0:0:0:0:
256,192,83183,128,0,83280:0:0:0:0:
402,192,83183,128,0,83280:0:0:0:0:
256,192,83378,128,0,83767:0:0:0:0:
402,192,83378,128,0,83670:0:0:0:0:
329,192,83378,128,0,83475:0:0:0:0:
475,192,83378,128,0,83475:0:0:0:0:
182,192,83378,128,0,83475:0:0:0:0:
475,192,83573,128,0,83670:0:0:0:0:
329,192,83573,128,0,83670:0:0:0:0:
182,192,83573,128,0,83670:0:0:0:0:
402,192,83767,128,0,84741:0:0:0:0:
36,192,83767,128,0,83865:0:0:0:0:
109,192,83767,128,0,83865:0:0:0:0:
329,192,83767,128,0,83865:0:0:0:0:
182,192,83767,128,0,84060:0:0:0:0:
36,192,83962,128,0,84060:0:0:0:0:
109,192,83962,128,0,84060:0:0:0:0:
329,192,83962,128,0,84060:0:0:0:0:
109,192,84157,128,0,84741:0:0:0:0:
256,192,84157,128,0,84741:0:0:0:0:
182,192,84157,128,0,84254:0:0:0:0:
475,192,84157,128,0,84254:0:0:0:0:
36,192,84352,128,0,84449:0:0:0:0:
329,192,84352,128,0,84449:0:0:0:0:
182,192,84547,128,0,84644:0:0:0:0:
475,192,84547,128,0,84644:0:0:0:0:
36,192,84741,128,0,85521:0:0:0:0:
329,192,84741,128,0,85131:0:0:0:0:
475,192,84741,128,0,84936:0:0:0:0:
182,192,84936,128,0,85131:0:0:0:0:
402,192,84936,128,0,85034:0:0:0:0:
256,192,84936,128,0,85034:0:0:0:0:
475,192,85034,128,0,85131:0:0:0:0:
109,192,85131,128,0,85326:0:0:0:0:
256,192,85131,128,0,85521:0:0:0:0:
402,192,85131,128,0,85326:0:0:0:0:
475,192,85326,128,0,86105:0:0:0:0:
329,192,85326,128,0,85423:0:0:0:0:
182,192,85326,128,0,85521:0:0:0:0:
402,192,85423,128,0,85521:0:0:0:0:
109,192,85521,128,0,85715:0:0:0:0:
329,192,85521,128,0,85910:0:0:0:0:
182,192,85715,128,0,86495:0:0:0:0:
256,192,85715,128,0,85910:0:0:0:0:
36,192,85715,128,0,85910:0:0:0:0:
402,192,85813,128,0,85910:0:0:0:0:
109,192,85910,128,0,86105:0:0:0:0:
329,192,86105,128,0,86884:0:0:0:0:
36,192,86105,128,0,86300:0:0:0:0:
402,192,86105,128,0,86300:0:0:0:0:
256,192,86105,128,0,86202:0:0:0:0:
109,192,86202,128,0,86300:0:0:0:0:
475,192,86300,128,0,86495:0:0:0:0:
256,192,86300,128,0,86397:0:0:0:0:
36,192,86495,128,0,87274:0:0:0:0:
256,192,86495,128,0,86689:0:0:0:0:
109,192,86495,128,0,86592:0:0:0:0:
402,192,86495,128,0,86592:0:0:0:0:
182,192,86592,128,0,86689:0:0:0:0:
475,192,86689,128,0,86884:0:0:0:0:
109,192,86689,128,0,86884:0:0:0:0:
402,192,86689,128,0,86787:0:0:0:0:
402,192,86884,128,0,87761:0:0:0:0:
182,192,86884,128,0,87274:0:0:0:0:
256,192,86884,128,0,87079:0:0:0:0:
329,192,86982,128,0,87176:0:0:0:0:
475,192,87079,128,0,87274:0:0:0:0:
256,192,87176,128,0,87371:0:0:0:0:
109,192,87274,128,0,87761:0:0:0:0:
329,192,87274,128,0,87469:0:0:0:0:
475,192,87371,128,0,87566:0:0:0:0:
182,192,87469,128,0,87761:0:0:0:0:
36,192,87469,128,0,87761:0:0:0:0:
256,192,87566,128,0,87663:0:0:0:0:
329,192,87663,128,0,87761:0:0:0:0:
475,192,87663,128,0,87761:0:0:0:0:
256,192,87761,128,0,87858:0:0:0:0:
36,192,87858,128,0,87956:0:0:0:0:
109,192,87858,128,0,87956:0:0:0:0:
182,192,87858,128,0,87956:0:0:0:0:
475,192,87858,128,0,88150:0:0:0:0:
402,192,87956,128,0,88053:0:0:0:0:
256,192,87956,128,0,88053:0:0:0:0:
329,192,88053,128,0,88345:0:0:0:0:
182,192,88053,128,0,88150:0:0:0:0:
402,192,88150,128,0,88248:0:0:0:0:
109,192,88150,128,0,88248:0:0:0:0:
475,192,88248,128,0,88540:0:0:0:0:
36,192,88248,128,0,88443:0:0:0:0:
182,192,88248,128,0,88443:0:0:0:0:
402,192,88345,128,0,88443:0:0:0:0:
329,192,88443,128,0,88637:0:0:0:0:
109,192,88443,128,0,88540:0:0:0:0:
402,192,88540,128,0,88637:0:0:0:0:
182,192,88540,128,0,88637:0:0:0:0:
256,192,88637,128,0,88832:0:0:0:0:
475,192,88637,128,0,88832:0:0:0:0:
36,192,88637,128,0,88930:0:0:0:0:
109,192,88735,128,0,88832:0:0:0:0:
402,192,88832,128,0,88930:0:0:0:0:
182,192,88832,128,0,89124:0:0:0:0:
329,192,88930,128,0,89027:0:0:0:0:
109,192,88930,128,0,89027:0:0:0:0:
402,192,89027,128,0,89222:0:0:0:0:
36,192,89027,128,0,89417:0:0:0:0:
256,192,89027,128,0,89222:0:0:0:0:
109,192,89124,128,0,89417:0:0:0:0:
182,192,89222,128,0,89417:0:0:0:0:
475,192,89222,128,0,90001:0:0:0:0:
256,192,89319,128,0,89417:0:0:0:0:
402,192,89319,128,0,90098:0:0:0:0:
329,192,89417,128,0,89514:0:0:0:0:
256,192,89514,128,0,89611:0:0:0:0:
329,192,89611,128,0,90196:0:0:0:0:
36,192,89611,128,0,89709:0:0:0:0:
109,192,89611,128,0,89709:0:0:0:0:
256,192,89709,128,0,90488:0:0:0:0:
182,192,89806,128,0,89904:0:0:0:0:
109,192,89904,128,0,90001:0:0:0:0:
182,192,90001,128,0,90586:0:0:0:0:
36,192,90001,128,0,90098:0:0:0:0:
109,192,90098,128,0,90683:0:0:0:0:
475,192,90098,128,0,90196:0:0:0:0:
402,192,90196,128,0,90293:0:0:0:0:
329,192,90293,128,0,90391:0:0:0:0:
402,192,90391,128,0,90488:0:0:0:0:
475,192,90391,128,0,90488:0:0:0:0:
329,192,90488,128,0,90780:0:0:0:0:
256,192,90586,128,0,90975:0:0:0:0:
182,192,90683,128,0,90780:0:0:0:0:
109,192,90780,128,0,90878:0:0:0:0:
402,192,90780,128,0,90878:0:0:0:0:
36,192,90780,128,0,90878:0:0:0:0:
475,192,90780,128,0,90878:0:0:0:0:
182,192,90878,128,0,90975:0:0:0:0:
329,192,90878,128,0,90975:0:0:0:0:
36,192,90975,128,0,91073:0:0:0:0:
109,192,90975,128,0,91073:0:0:0:0:
475,192,90975,128,0,91462:0:0:0:0:
402,192,90975,128,0,91560:0:0:0:0:
256,192,91073,128,0,91267:0:0:0:0:
329,192,91170,128,0,91657:0:0:0:0:
182,192,91267,128,0,91462:0:0:0:0:
256,192,91365,128,0,91657:0:0:0:0:
109,192,91462,128,0,91657:0:0:0:0:
475,192,91560,128,0,91754:0:0:0:0:
182,192,91560,128,0,91657:0:0:0:0:
402,192,91657,128,0,91852:0:0:0:0:
36,192,91657,128,0,91754:0:0:0:0:
329,192,91754,128,0,92534:0:0:0:0:
256,192,91754,128,0,91852:0:0:0:0:
109,192,91754,128,0,91852:0:0:0:0:
182,192,91754,128,0,92047:0:0:0:0:
109,192,91949,128,0,92047:0:0:0:0:
256,192,91949,128,0,92047:0:0:0:0:
402,192,91949,128,0,92047:0:0:0:0:
36,192,92144,128,0,92339:0:0:0:0:
475,192,92144,128,0,92241:0:0:0:0:
402,192,92144,128,0,92241:0:0:0:0:
256,192,92241,128,0,92339:0:0:0:0:
182,192,92339,128,0,92923:0:0:0:0:
475,192,92339,128,0,92534:0:0:0:0:
109,192,92339,128,0,92436:0:0:0:0:
402,192,92339,128,0,92436:0:0:0:0:
256,192,92436,128,0,92534:0:0:0:0:
36,192,92534,128,0,92631:0:0:0:0:
109,192,92534,128,0,92631:0:0:0:0:
402,192,92631,128,0,92728:0:0:0:0:
475,192,92631,128,0,92728:0:0:0:0:
36,192,92728,128,0,92923:0:0:0:0:
256,192,92728,128,0,92826:0:0:0:0:
329,192,92728,128,0,92826:0:0:0:0:
402,192,92826,128,0,92923:0:0:0:0:
475,192,92826,128,0,92923:0:0:0:0:
329,192,92923,128,0,93313:0:0:0:0:
109,192,92923,128,0,93021:0:0:0:0:
182,192,93021,128,0,93118:0:0:0:0:
256,192,93021,128,0,93118:0:0:0:0:
475,192,93118,128,0,93313:0:0:0:0:
109,192,93118,128,0,93215:0:0:0:0:
36,192,93118,128,0,93215:0:0:0:0:
182,192,93215,128,0,93313:0:0:0:0:
256,192,93215,128,0,93313:0:0:0:0:
109,192,93313,128,0,94092:0:0:0:0:
402,192,93313,128,0,93410:0:0:0:0:
329,192,93410,128,0,93508:0:0:0:0:
475,192,93410,128,0,93508:0:0:0:0:
36,192,93508,128,0,94092:0:0:0:0:
256,192,93508,128,0,93605:0:0:0:0:
402,192,93508,128,0,93605:0:0:0:0:
182,192,93605,128,0,93702:0:0:0:0:
329,192,93605,128,0,93702:0:0:0:0:
402,192,93702,128,0,94092:0:0:0:0:
256,192,93702,128,0,93800:0:0:0:0:
182,192,93800,128,0,93897:0:0:0:0:
329,192,93800,128,0,93897:0:0:0:0:
475,192,93897,128,0,94092:0:0:0:0:
256,192,93897,128,0,93995:0:0:0:0:
182,192,93995,128,0,94092:0:0:0:0:
329,192,93995,128,0,94092:0:0:0:0:
256,192,94092,128,0,94384:0:0:0:0:
36,192,94287,128,0,95456:0:0:0:0:
256,192,94482,128,0,95456:0:0:0:0:
475,192,94676,128,0,95456:0:0:0:0:
329,192,95066,128,0,95456:0:0:0:0:
182,192,95456,128,0,97111:0:0:0:0:
256,192,95845,128,0,97111:0:0:0:0:
329,192,96235,128,0,96527:0:0:0:0:
329,192,96624,128,0,97111:0:0:0:0:
402,192,96819,128,0,97111:0:0:0:0:
475,192,97014,128,0,97111:0:0:0:0:
329,192,97209,128,0,98573:0:0:0:0:
182,192,97793,128,0,97891:0:0:0:0:
109,192,97891,128,0,97988:0:0:0:0:
182,192,97988,128,0,99449:0:0:0:0:
402,192,98573,128,0,100034:0:0:0:0:
329,192,98962,128,0,99839:0:0:0:0:
256,192,99352,128,0,99644:0:0:0:0:
182,192,99547,128,0,99644:0:0:0:0:
256,192,99741,128,0,99839:0:0:0:0:
329,192,99936,128,0,100034:0:0:0:0:
402,192,100131,128,0,100228:0:0:0:0:
36,192,100326,1,0,0:0:0:0:
182,192,100326,1,0,0:0:0:0:
