osu file format v14

[General]
AudioFilename: Fall of Gust.mp3
AudioLeadIn: 0
PreviewTime: 158251
Countdown: 0
SampleSet: Soft
StackLeniency: 0.3
Mode: 0
LetterboxInBreaks: 0
WidescreenStoryboard: 1

[Editor]
Bookmarks: 14251,36001,37715,45108,58822,72537,79394,86251,106822,120537,134251,171965,185679,199393
DistanceSpacing: 1.5
BeatDivisor: 4
GridSize: 16
TimelineZoom: 2.899999

[Metadata]
Title:Fall of Gust
TitleUnicode:Fall of Gust
Artist:Starving Trancer
ArtistUnicode:Starving Trancer
Creator:pocket-Gao
Version:Anemephilia
Source:
Tags:秋をテーマ Xceon autumn_trance Yellyfish
BeatmapID:1097878
BeatmapSetID:515605

[Difficulty]
HPDrainRate:7
CircleSize:5
OverallDifficulty:7
ApproachRate:9
SliderMultiplier:1.6
SliderTickRate:1

[Events]
//Background and Video events
0,0,"BG 2.jpg",0,0
//Break Periods
2,59021,60901
2,120737,157651
//Storyboard Layer 0 (Background)
//Storyboard Layer 1 (Fail)
//Storyboard Layer 2 (Pass)
//Storyboard Layer 3 (Foreground)
//Storyboard Sound Samples

[TimingPoints]
537,428.571428571429,4,2,0,20,1,0
3965,-133.333333333333,4,2,0,20,0,0
4608,-100,4,2,0,20,0,0
7394,-133.333333333333,4,2,0,20,0,0
13394,-100,4,2,0,20,0,0
17679,-133.333333333333,4,2,0,20,0,0
18108,-100,4,2,0,20,0,0
21108,-133.333333333333,4,2,0,20,0,0
23894,-100,4,2,0,20,0,0
31394,-100,4,2,0,30,0,1
41679,-66.6666666666667,4,2,0,30,0,1
41894,-100,4,2,0,30,0,1
43394,-66.6666666666667,4,2,0,30,0,1
43608,-100,4,2,0,30,0,1
46822,-80,4,2,0,30,0,1
47037,-100,4,2,0,30,0,1
48537,-80,4,2,0,30,0,1
48751,-100,4,2,0,30,0,1
49394,-80,4,2,0,30,0,1
49608,-100,4,2,0,30,0,1
50251,-80,4,2,0,30,0,1
50572,-100,4,2,0,30,0,1
51108,-80,4,2,0,30,0,1
51537,-100,4,2,0,30,0,1
51965,-80,4,2,0,30,0,1
58822,-100,4,2,0,20,0,0
87429,-80,4,2,0,20,0,0
87751,-100,4,2,0,20,0,0
90858,-80,4,2,0,20,0,0
91179,-100,4,2,0,20,0,0
106822,-100,4,2,0,20,0,1
113679,-80,4,2,0,20,0,1
116679,-100,4,2,0,20,0,1
127394,-80,4,2,0,20,0,1
130394,-100,4,2,0,20,0,1
134251,-100,4,2,0,20,0,0
158251,428.571428571429,4,2,0,0,1,1
213108,-100,4,2,0,0,0,0

[Colours]
Combo1 : 255,100,30
Combo2 : 241,214,139
Combo3 : 251,157,0
Combo4 : 232,224,153
Combo5 : 255,128,0

[HitObjects]
125,202,537,37,0,0:0:0:0:
166,246,751,1,0,0:0:0:0:
233,202,965,2,0,B|254:236|238:282,1,80
302,220,1822,37,0,0:0:0:0:
313,279,2037,2,0,P|354:267|385:228,1,80
302,220,2465,1,0,0:0:0:0:
462,219,2894,1,0,0:0:0:0:
329,131,3322,1,0,0:0:0:0:
142,167,3965,22,0,L|165:233,2,60.0000022888184
193,105,4608,1,0,0:0:0:0:
340,238,5251,37,0,0:0:0:0:
340,238,5465,1,0,0:0:0:0:
405,284,5679,2,0,P|419:229|405:192,1,80
270,136,6322,1,0,0:0:0:0:
413,207,6751,1,0,0:0:0:0:
181,210,7394,22,0,L|159:177,2,30.0000011444092
170,238,7715,1,0,0:0:0:0:
381,169,8037,53,0,0:0:0:0:
240,96,8465,5,0,0:0:0:0:
200,97,8679,1,0,0:0:0:0:
173,142,8894,1,0,0:0:0:0:
279,314,9108,53,0,0:0:0:0:
392,275,9322,2,0,L|424:311,1,30.0000011444092
457,123,9751,21,0,0:0:0:0:
392,155,10179,22,0,P|345:115|276:129,1,120.000004577637
320,194,10822,5,0,0:0:0:0:
234,278,11037,2,0,L|234:321,1,30.0000011444092
66,137,11465,1,0,0:0:0:0:
106,313,12108,53,0,0:0:0:0:
225,332,12537,2,0,P|223:273|186:222,1,120.000004577637
117,190,13179,1,0,0:0:0:0:
133,165,13286,1,0,0:0:0:0:
159,150,13393,1,0,0:0:0:0:
365,258,14108,5,0,0:0:0:0:
398,236,14179,1,0,0:0:0:0:
433,216,14251,2,0,B|403:124|304:145|304:145|332:75,1,240
252,82,15322,38,0,P|179:126|202:236,1,200
253,191,15965,2,0,B|275:225|273:276|238:313|193:324|146:313|120:277|111:245|100:216|98:173|98:173|29:231,1,400
118,122,17679,6,0,L|141:56,2,60.0000022888184
169,184,18322,1,0,0:0:0:0:
333,119,18965,21,0,0:0:0:0:
333,119,19179,1,0,0:0:0:0:
390,175,19393,2,0,P|411:139|409:101,1,80
252,138,20037,1,0,0:0:0:0:
354,260,20465,1,0,0:0:0:0:
320,229,21108,38,0,L|335:264,2,30.0000011444092
343,210,21429,1,0,0:0:0:0:
194,46,21751,5,0,0:0:0:0:
69,146,22179,1,0,0:0:0:0:
429,160,22822,6,0,L|414:125,2,30.0000011444092
455,176,23144,1,0,0:0:0:0:
282,314,23465,53,0,0:0:0:0:
142,235,23894,1,0,0:0:0:0:
324,114,24537,53,0,0:0:0:0:
371,190,24858,1,0,0:0:0:0:
253,171,25179,1,0,0:0:0:0:
324,114,25822,21,0,0:0:0:0:
324,114,26251,2,0,P|342:190|251:261,1,200
271,275,26894,53,0,0:0:0:0:
283,290,27001,1,0,0:0:0:0:
295,306,27108,1,0,0:0:0:0:
127,133,27751,5,0,0:0:0:0:
127,133,27965,1,8,0:0:0:0:
256,192,28072,12,0,30537,0:0:0:0:
461,296,30965,38,8,L|481:318,2,20
391,296,31179,2,8,L|411:318,2,20
330,296,31394,6,0,B|290:306|290:306|260:279,1,80
244,291,31715,1,0,0:0:0:0:
226,300,31822,1,0,0:0:0:0:
136,220,32037,21,0,0:0:0:0:
146,203,32144,1,0,0:0:0:0:
162,189,32251,2,0,P|194:173|243:189,1,80
306,145,32572,1,0,0:0:0:0:
310,241,32787,37,0,0:0:0:0:
329,242,32894,1,0,0:0:0:0:
346,233,33001,1,0,0:0:0:0:
377,208,33108,22,0,L|441:219,2,40
343,158,33429,1,0,0:0:0:0:
351,88,33537,38,0,P|309:96|275:144,1,80
343,158,33858,1,0,0:0:0:0:
291,205,33965,6,0,P|265:226|238:225,1,40
174,115,34287,38,0,P|153:99|127:105,1,40
125,178,34501,1,0,0:0:0:0:
118,194,34608,1,0,0:0:0:0:
114,213,34715,1,0,0:0:0:0:
122,252,34822,6,0,P|146:282|192:286,1,80
232,235,35144,1,0,0:0:0:0:
284,282,35251,22,0,P|325:264|378:304,1,80
411,230,35572,1,0,0:0:0:0:
438,155,35679,2,0,P|466:169|474:196,1,40
317,128,36001,54,0,B|349:93,1,40
272,64,36215,2,0,L|233:108,1,40
85,108,36537,6,0,P|126:109|165:164,1,80
100,175,36858,1,0,0:0:0:0:
156,217,36965,38,8,P|197:217|236:247,1,80
177,285,37287,1,0,0:0:0:0:
253,308,37394,2,0,P|283:293|295:267,1,40
394,170,37715,6,0,L|448:147,1,40
439,235,37929,2,0,L|504:244,1,40
310,175,38251,6,4,P|270:148|268:100,1,80
194,108,38572,1,0,0:0:0:0:
169,43,38679,38,0,P|132:67|128:117,1,80
194,108,39001,1,0,0:0:0:0:
149,162,39108,6,0,P|120:168|92:155,1,40
168,293,39429,38,0,P|177:317|211:329,1,40
251,275,39644,1,0,0:0:0:0:
270,271,39751,1,0,0:0:0:0:
287,256,39858,1,0,0:0:0:0:
321,235,39965,6,0,P|355:219|412:235,1,80
368,290,40287,1,0,0:0:0:0:
395,224,40394,22,0,P|359:218|318:239,1,80
295,301,40715,1,0,0:0:0:0:
230,254,40822,2,0,P|228:223|243:197,1,40
381,158,41144,22,0,P|386:185|376:213,1,40
310,228,41358,1,0,0:0:0:0:
333,259,41465,1,0,0:0:0:0:
369,276,41572,1,0,0:0:0:0:
408,272,41679,54,0,P|446:259|491:320,1,120.000004577637
444,160,42108,21,0,0:0:0:0:
336,106,42322,21,0,0:0:0:0:
336,106,42429,1,0,0:0:0:0:
336,106,42537,2,0,P|306:93|274:113,1,40
234,239,42858,54,0,L|243:286,1,40
165,256,43072,38,0,L|158:202,1,40
251,84,43394,54,0,P|304:82|356:129,1,120.000004577637
261,200,43822,21,8,0:0:0:0:
331,298,44037,5,0,0:0:0:0:
331,298,44144,1,0,0:0:0:0:
331,298,44251,38,0,L|364:309,2,20
400,338,44465,2,0,L|438:350,1,40
392,267,44679,2,0,L|430:279,1,40
319,233,44894,2,0,L|352:244,2,20
389,162,45108,6,0,P|380:124|344:87,1,80
318,153,45429,1,0,0:0:0:0:
301,163,45536,1,0,0:0:0:0:
261,233,45751,21,0,0:0:0:0:
243,241,45858,1,0,0:0:0:0:
222,244,45965,2,0,P|180:237|149:202,1,80
220,167,46286,1,0,0:0:0:0:
293,104,46501,37,0,0:0:0:0:
310,94,46608,1,0,0:0:0:0:
330,94,46715,1,0,0:0:0:0:
368,105,46822,22,0,P|395:113|438:97,2,50
398,42,47143,1,0,0:0:0:0:
328,47,47251,38,0,P|290:53|255:91,1,80
293,142,47572,1,0,0:0:0:0:
285,212,47679,6,0,P|264:230|232:232,1,40
181,112,48001,38,0,P|165:100|139:92,1,40
130,171,48215,1,0,0:0:0:0:
135,189,48322,1,0,0:0:0:0:
135,209,48429,1,0,0:0:0:0:
126,227,48537,6,0,P|140:276|186:305,1,100
197,235,48858,1,0,0:0:0:0:
262,263,48965,22,0,P|246:225|263:191,1,80
324,225,49286,1,0,0:0:0:0:
379,182,49393,38,0,L|416:219,2,40
366,262,49715,54,0,B|401:297,1,40
315,300,49929,2,0,L|266:342,1,40
125,205,50251,54,0,P|151:142|226:142,1,150
191,196,50679,1,0,0:0:0:0:
163,255,50787,22,8,P|147:291|162:334,1,80
232,296,51108,38,0,P|304:273|335:190,1,150
255,214,51537,53,0,0:0:0:0:
304,275,51643,2,0,L|343:324,2,40
255,214,51965,6,0,P|276:153|356:132,1,150
265,81,52394,53,0,0:0:0:0:
179,105,52608,1,0,0:0:0:0:
179,125,52715,1,0,0:0:0:0:
170,143,52822,6,0,P|100:103|91:25,1,150
39,128,53251,1,0,0:0:0:0:
100,265,53465,21,0,0:0:0:0:
102,285,53572,1,0,0:0:0:0:
111,303,53679,38,0,P|168:257|251:285,1,150
338,275,54108,53,0,0:0:0:0:
312,205,54215,2,0,L|330:142,2,50
238,272,54536,6,0,P|169:238|206:143,1,150
296,96,55072,1,0,0:0:0:0:
311,109,55179,1,0,0:0:0:0:
330,115,55286,1,0,0:0:0:0:
350,111,55393,54,0,P|425:117|465:182,1,150
384,186,55822,21,0,0:0:0:0:
311,305,56036,1,0,0:0:0:0:
283,147,56251,1,0,0:0:0:0:
198,258,56465,1,0,0:0:0:0:
172,100,56679,1,0,0:0:0:0:
97,194,56894,1,0,0:0:0:0:
172,100,57108,21,0,0:0:0:0:
195,81,57215,1,0,0:0:0:0:
222,69,57322,1,0,0:0:0:0:
252,63,57429,1,0,0:0:0:0:
282,65,57536,1,0,0:0:0:0:
310,73,57643,1,0,0:0:0:0:
337,89,57750,1,0,0:0:0:0:
363,104,57858,2,0,P|367:142|402:172,1,50
377,194,58072,37,0,0:0:0:0:
339,227,58179,1,0,0:0:0:0:
293,244,58286,1,0,0:0:0:0:
245,233,58393,1,0,0:0:0:0:
202,208,58500,1,0,0:0:0:0:
156,187,58607,1,0,0:0:0:0:
107,186,58714,1,0,0:0:0:0:
61,205,58821,1,0,0:0:0:0:
358,167,61501,54,0,L|412:190,1,40
358,167,61822,1,0,0:0:0:0:
247,121,62037,1,0,0:0:0:0:
276,237,62251,1,0,0:0:0:0:
372,85,62572,1,0,0:0:0:0:
192,95,62894,22,0,L|228:80,1,40
105,210,63322,21,0,0:0:0:0:
225,198,63537,1,0,0:0:0:0:
130,125,63751,1,0,0:0:0:0:
175,234,65679,5,0,0:0:0:0:
368,160,66644,54,0,L|400:112,1,40
324,228,66965,1,0,0:0:0:0:
260,126,67180,1,0,0:0:0:0:
223,240,67394,1,0,0:0:0:0:
401,217,67715,1,0,0:0:0:0:
275,88,68037,22,0,L|260:125,1,40
192,291,68465,21,0,0:0:0:0:
238,180,68680,1,0,0:0:0:0:
172,105,68894,2,0,L|208:90,1,40
228,84,69108,5,0,0:0:0:0:
334,91,69322,37,0,0:0:0:0:
334,91,69429,1,0,0:0:0:0:
334,91,69537,1,0,0:0:0:0:
395,170,69751,21,0,0:0:0:0:
395,170,69858,1,0,0:0:0:0:
395,170,69965,1,0,0:0:0:0:
347,258,70179,37,0,0:0:0:0:
347,258,70287,1,0,0:0:0:0:
347,258,70394,1,0,0:0:0:0:
235,284,70608,1,0,0:0:0:0:
235,284,70715,1,0,0:0:0:0:
235,284,70822,6,0,L|235:305,2,20
196,272,71037,1,0,0:0:0:0:
157,261,71144,1,0,0:0:0:0:
124,239,71251,37,8,0:0:0:0:
99,208,71358,1,0,0:0:0:0:
87,170,71465,1,0,0:0:0:0:
94,131,71572,1,0,0:0:0:0:
127,94,71679,21,0,0:0:0:0:
177,95,71786,1,0,0:0:0:0:
216,126,71893,1,0,0:0:0:0:
252,160,72000,1,0,0:0:0:0:
298,178,72108,37,0,0:0:0:0:
348,174,72214,1,0,0:0:0:0:
395,158,72321,1,0,0:0:0:0:
426,118,72429,2,0,P|433:105|435:90,2,20
333,273,72858,37,0,0:0:0:0:
263,176,73179,1,0,0:0:0:0:
263,176,73394,1,0,0:0:0:0:
200,275,73715,22,0,P|164:243|151:201,1,80
233,204,74037,1,0,0:0:0:0:
384,160,74251,5,0,0:0:0:0:
265,27,74572,1,0,0:0:0:0:
265,27,74894,1,0,0:0:0:0:
119,91,75108,38,0,P|116:130|135:165,1,80
197,114,75429,2,0,P|215:151|208:189,1,80
133,216,75751,1,0,0:0:0:0:
217,300,75965,22,0,B|251:322|251:322|296:326,1,80
350,333,76287,1,0,0:0:0:0:
241,197,76608,5,0,0:0:0:0:
241,197,76822,1,0,0:0:0:0:
159,109,77144,5,0,0:0:0:0:
250,102,77465,1,0,0:0:0:0:
162,184,77679,38,0,L|98:245,2,80
241,197,78322,1,0,0:0:0:0:
228,276,78537,38,0,L|299:323,1,80
374,301,78858,2,0,L|303:252,1,80
325,177,79179,53,0,0:0:0:0:
308,255,79394,1,0,0:0:0:0:
226,62,79715,37,0,0:0:0:0:
93,183,80036,1,0,0:0:0:0:
93,183,80251,1,0,0:0:0:0:
211,177,80572,22,0,L|285:240,1,80
318,269,80894,1,0,0:0:0:0:
211,177,81108,37,0,0:0:0:0:
305,102,81429,1,0,0:0:0:0:
415,149,81751,1,0,0:0:0:0:
457,214,81965,38,0,P|417:224|371:213,1,80
300,208,82286,2,0,L|222:268,1,80
189,294,82608,1,0,0:0:0:0:
332,222,82822,54,0,P|332:188|287:175,1,80
263,236,83144,1,0,0:0:0:0:
93,183,83465,21,0,0:0:0:0:
93,183,83680,1,0,0:0:0:0:
231,67,84001,5,0,0:0:0:0:
207,154,84322,1,0,0:0:0:0:
293,237,84536,22,0,L|356:298,2,80
234,182,85179,37,0,0:0:0:0:
383,123,85394,38,0,L|476:181,1,80
452,86,85715,2,0,L|375:38,1,80
383,123,86036,1,0,0:0:0:0:
249,35,86251,5,0,0:0:0:0:
103,110,86572,5,0,0:0:0:0:
103,110,86894,1,0,0:0:0:0:
204,170,87108,6,0,P|249:164|288:191,1,80
352,166,87429,22,0,P|364:139|354:112,1,50
278,179,87751,1,0,0:0:0:0:
294,298,87965,22,0,L|206:249,1,80
259,279,88287,2,0,L|171:230,1,80
153,223,88608,1,0,0:0:0:0:
238,139,88822,38,0,P|265:111|305:108,1,80
298,178,89144,2,0,P|323:209|362:215,1,80
363,145,89465,1,0,0:0:0:0:
210,99,89679,6,0,P|240:72|283:68,1,80
269,137,90001,2,0,P|244:167|198:181,1,80
210,99,90322,22,0,P|201:127|201:148,1,40
210,99,90537,2,0,P|200:146|215:197,1,80
137,208,90858,22,0,P|170:244|225:245,1,100
269,213,91179,1,0,0:0:0:0:
371,89,91394,6,0,P|418:102|445:141,1,80
409,97,91715,2,0,P|439:125|446:170,1,80
407,157,92037,22,0,P|396:134|373:121,1,40
407,157,92251,2,0,P|388:127|346:115,1,80
329,48,92572,2,0,P|291:72|277:114,1,80
304,158,92894,2,0,L|293:204,2,40
173,210,93429,6,0,P|182:253|222:292,1,80
246,237,93751,38,0,P|270:253|304:257,1,40
294,196,93965,2,0,P|331:219|343:256,1,80
280,256,94287,2,0,P|259:248|243:232,1,40
349,141,94608,2,0,L|380:109,2,40
169,126,95144,6,0,L|249:180,1,80
285,204,95465,2,0,L|341:242,1,40
318,306,95679,22,0,L|238:252,1,80
202,226,96001,2,0,L|122:172,1,80
202,226,96322,22,0,L|244:256,2,40
300,295,96858,6,0,L|377:250,1,80
473,191,97179,5,0,0:0:0:0:
473,191,97394,1,0,0:0:0:0:
292,180,97715,22,0,B|319:151|319:151|362:151,1,80
473,191,98037,37,0,0:0:0:0:
473,191,98252,1,0,0:0:0:0:
302,229,98572,22,0,B|287:192|287:192|300:153,1,80
341,40,98894,53,0,0:0:0:0:
341,40,99108,1,0,0:0:0:0:
176,112,99429,22,0,L|249:78,1,80
311,129,99751,1,0,0:0:0:0:
146,200,99965,22,0,L|219:166,1,80
274,225,100287,1,0,0:0:0:0:
218,166,100608,5,0,0:0:0:0:
376,188,100822,2,0,L|286:182,1,80
141,138,101144,54,0,L|221:167,1,80
239,242,101465,1,0,0:0:0:0:
349,289,101679,37,0,0:0:0:0:
372,270,101786,1,0,0:0:0:0:
401,261,101893,1,0,0:0:0:0:
430,261,102000,1,0,0:0:0:0:
390,215,102108,5,0,0:0:0:0:
405,189,102215,1,0,0:0:0:0:
429,170,102322,1,0,0:0:0:0:
456,160,102429,1,0,0:0:0:0:
393,128,102537,37,0,0:0:0:0:
403,99,102644,1,0,0:0:0:0:
424,77,102751,1,0,0:0:0:0:
450,63,102858,1,0,0:0:0:0:
424,48,102965,37,0,0:0:0:0:
390,42,103072,1,0,0:0:0:0:
353,51,103179,1,0,0:0:0:0:
320,74,103286,1,0,0:0:0:0:
294,105,103394,1,0,0:0:0:0:
256,192,103608,12,0,104894,0:0:0:0:
256,192,105108,12,0,105537,0:0:0:0:
336,224,105965,54,0,L|385:217,2,40
277,235,106287,1,0,0:0:0:0:
375,218,106501,2,0,L|309:229,2,40
399,163,106822,5,0,0:0:0:0:
428,191,106929,1,0,0:0:0:0:
433,231,107037,1,0,0:0:0:0:
375,218,107144,2,0,P|378:256|393:279,1,40
270,276,107465,37,0,0:0:0:0:
273,216,107572,1,0,0:0:0:0:
270,276,107679,2,0,P|226:253|214:203,1,80
112,163,108108,21,0,0:0:0:0:
136,131,108215,1,0,0:0:0:0:
170,110,108322,1,0,0:0:0:0:
209,104,108429,1,0,0:0:0:0:
196,163,108537,2,0,P|210:185|231:203,2,40
316,150,108965,38,0,P|344:163|356:187,2,40
259,256,109394,38,0,L|259:306,1,40
190,152,109715,2,0,L|157:125,1,40
317,150,110037,1,0,0:0:0:0:
317,150,110144,1,0,0:0:0:0:
317,150,110251,2,0,L|365:108,1,40
352,64,110465,21,0,0:0:0:0:
388,81,110572,1,0,0:0:0:0:
406,117,110679,1,0,0:0:0:0:
340,218,110894,21,0,0:0:0:0:
400,215,111001,1,0,0:0:0:0:
340,218,111108,2,0,P|352:251|379:272,1,40
331,137,111429,6,0,L|298:103,1,40
278,185,111644,2,0,L|241:222,1,40
187,111,111965,21,0,0:0:0:0:
155,134,112072,1,0,0:0:0:0:
134,168,112179,1,0,0:0:0:0:
126,207,112286,1,0,0:0:0:0:
133,246,112393,1,0,0:0:0:0:
249,213,112608,21,0,0:0:0:0:
295,251,112715,1,0,0:0:0:0:
249,213,112822,2,0,P|272:195|305:191,1,40
401,209,113144,2,0,P|404:184|398:165,1,40
360,128,113358,37,0,0:0:0:0:
397,112,113465,1,0,0:0:0:0:
436,122,113572,1,0,0:0:0:0:
470,143,113679,6,0,P|482:214|445:286,1,150
393,231,114108,1,0,0:0:0:0:
304,277,114322,37,0,0:0:0:0:
304,277,114429,1,0,0:0:0:0:
304,277,114537,2,0,P|257:208|176:222,1,150
229,141,114965,1,0,0:0:0:0:
329,134,115179,21,0,0:0:0:0:
329,134,115287,1,0,0:0:0:0:
329,134,115394,2,0,P|367:71|437:65,1,150
406,133,115822,1,0,0:0:0:0:
365,225,116037,37,0,0:0:0:0:
365,225,116144,1,0,0:0:0:0:
365,225,116251,2,0,P|291:215|258:154,1,150
332,155,116679,1,0,0:0:0:0:
277,96,116894,5,0,0:0:0:0:
237,97,117001,1,0,0:0:0:0:
206,124,117108,2,0,P|197:151|206:178,1,40
154,273,117429,21,0,0:0:0:0:
154,273,117537,1,0,0:0:0:0:
268,309,117751,37,0,0:0:0:0:
268,309,117858,1,0,0:0:0:0:
268,309,117965,2,0,L|268:261,1,40
212,162,118287,38,0,L|187:126,1,40
153,201,118501,2,0,L|177:234,1,40
292,197,118822,38,0,P|320:197|358:207,2,40
272,200,119144,1,0,0:0:0:0:
248,206,119251,1,0,0:0:0:0:
222,217,119358,1,0,0:0:0:0:
194,232,119465,1,0,0:0:0:0:
166,255,119572,1,0,0:0:0:0:
139,285,119679,38,0,P|113:253|112:209,1,80
116,175,120001,1,0,0:0:0:0:
132,134,120108,1,0,0:0:0:0:
163,98,120215,1,0,0:0:0:0:
208,72,120322,1,0,0:0:0:0:
263,63,120429,1,0,0:0:0:0:
323,69,120537,1,0,0:0:0:0:
254,53,158251,5,0,0:0:0:0:
283,73,158358,1,0,0:0:0:0:
295,83,158465,1,0,0:0:0:0:
304,93,158572,1,0,0:0:0:0:
202,198,160822,2,0,L|299:188,1,80
396,276,161143,2,0,L|437:299,1,40
161,278,161358,2,0,L|213:283,1,40
266,177,161572,2,0,L|310:188,1,40
